#VERSION:0.83;
#TITLE:Light Switch;
#SUBTITLE:;
#ARTIST:Charlie Puth;
#TITLETRANSLIT:;
#SUBTITLETRANSLIT:;
#ARTISTTRANSLIT:;
#GENRE:;
#CREDIT:;
#MUSIC:Light Switch.ogg;
#BANNER:Light Switch-bn.png;
#BACKGROUND:Light Switch-bg-off.png;
#CDTITLE:ThreeFish.png;
#SAMPLESTART:42.524;
#SAMPLELENGTH:21.004;
#SELECTABLE:YES;
#OFFSET:-0.327;
#BPMS:0.000=184.000
,120.000=158.000
,128.000=184.000
,280.000=158.000
,288.000=184.000
;
#STOPS:31.000=0.978
,400.000=0.163
;
#SPEEDS:0.000=1.000=0.000=0;
#SCROLLS:0.000=1.000;
#TICKCOUNTS:0.000=4;
#TIMESIGNATURES:0.000=4=4;
#LABELS:0.000=Song Start;
#COMBOS:0.000=1;
#ORIGIN:;
#PREVIEWVID:;
#JACKET:Light Switch-jacket.png;
#CDIMAGE:;
#DISCIMAGE:;
#BGCHANGES:132.000=Light Switch-bg-on.png=1.000=0=0=1,
164.000=Light Switch-bg-off.png=1.000=0=0=1,
260.000=Light Switch-bg-on.png=1.000=0=0=1,
99999.000=-nosongbg-=1.000=0=0=0=StretchNoLoop====
;
#FGCHANGES:;

//--------------- dance-single - ThreeFish ----------------
#NOTEDATA:;
#STEPSTYPE:dance-single;
#DESCRIPTION:ThreeFish;
#DIFFICULTY:Beginner;
#METER:2;
#RADARVALUES:0,0,0,0,0;
#NOTES:
0000
0000
0000
0000
,
0000
0000
0000
0000
,
0000
0000
0000
0000
,
0000
0000
0000
0000
,
0000
0000
0000
0000
,
0000
0000
0000
0000
,
0000
0000
0000
0000
,
0000
0000
0000
0000
,
0001
0000
0001
0000
,
0000
0000
0000
0000
,
1000
0000
1000
0000
,
0000
0000
0000
0000
,
0010
0000
0010
0000
,
0000
0000
0000
0000
,
0100
0000
0000
0000
,
0010
0000
0010
0000
,
1000
0000
1000
0000
,
0000
0000
0000
0000
,
0001
0000
0001
0000
,
0000
0000
0000
0000
,
0100
0000
0100
0000
,
0000
0000
0000
0000
,
0010
0000
0000
0000
,
1000
0000
1000
0000
,
0001
0000
0000
0000
,
0010
0000
0000
0000
,
0100
0000
0000
0000
,
1000
0000
0000
0000
,
0010
0000
0000
0000
,
0100
0000
0000
0000
,
0001
0000
0000
0000
,
0000
0000
0000
0000
,
1000
0000
0000
0000
,
2001
3000
0000
0000
,
0100
0000
0000
0000
,
0010
0000
0010
0000
,
0010
0000
0000
0000
,
0001
0000
0000
0000
,
0100
0000
0000
0000
,
0010
0000
0010
0000
,
0010
0000
0000
0000
,
0120
0030
0000
0000
,
1000
0000
0000
0000
,
0001
0000
0001
0000
,
0001
0000
0000
0000
,
0010
0000
0000
0000
,
0100
0000
0000
0000
,
1000
0000
1000
0000
,
1000
0000
0000
0000
,
0100
0000
0000
0000
,
0010
0000
0000
0000
,
0001
0000
0000
0000
,
1000
0000
0000
0000
,
0010
0000
0000
0000
,
0100
0000
0000
0000
,
0001
0000
0001
0000
,
0001
0000
0000
0000
,
0010
0000
0000
0000
,
0100
0000
0000
0000
,
1000
0000
0000
0000
,
0001
0000
0000
0000
,
0100
0000
0000
0000
,
0010
0000
0000
0000
,
1000
0000
1000
0000
,
1000
0000
0000
0000
,
1002
0003
0000
0000
,
0010
0000
0000
0000
,
0000
0000
0000
0000
,
0100
0000
0000
0000
,
0000
0000
0000
0000
,
1000
0000
0000
0000
,
0001
0000
0000
0000
,
2002
0000
0000
0000
,
3000
0003
0000
0000
,
0100
0000
0000
0000
,
0010
0000
0000
0000
,
1000
0000
0000
0000
,
0001
0000
0001
0000
,
0001
0000
0000
0000
,
0100
0000
0000
0000
,
0010
0000
0000
0000
,
1000
0000
1000
0000
,
1000
0000
0000
0000
,
0010
0000
0000
0000
,
0100
0000
0000
0000
,
0001
0000
0000
0000
,
1000
0000
0000
0000
,
0100
0000
0000
0000
,
0010
0000
0000
0000
,
0001
0000
0001
0000
,
0001
0000
0000
0000
,
0100
0000
0000
0000
,
0010
0000
0000
0000
,
1000
0000
0000
0000
,
0001
0000
0000
0000
,
0010
0000
0000
0000
,
0100
0000
0000
0000
,
1000
0000
1000
0000
,
1000
0000
0000
0000
,
0001
0000
0000
0000
,
1001
0000
0000
0000
;

//--------------- dance-single - ThreeFish ----------------
#NOTEDATA:;
#STEPSTYPE:dance-single;
#DESCRIPTION:ThreeFish;
#DIFFICULTY:Easy;
#METER:3;
#RADARVALUES:0,0,0,0,0;
#NOTES:
0000
0000
0000
0000
,
0000
0000
0000
0000
,
0000
0000
0000
0000
,
0000
0000
0000
0000
,
0000
0000
0000
0000
,
0000
0000
0000
0000
,
0000
0000
0000
0000
,
0000
0000
0000
0000
,
1000
0000
0000
1000
0000
0000
0000
0000
,
0100
0000
0010
0000
,
0001
0000
0000
0001
0000
0000
0000
0000
,
1000
0000
0010
0000
,
0100
0000
0000
0100
0000
0000
0000
0000
,
0010
0000
1000
0000
,
0001
0100
0001
0000
,
1000
0010
1000
0000
,
0001
0000
0000
0001
0000
0000
0000
0000
,
0010
0000
0100
0000
,
1000
0000
0000
1000
0000
0000
0000
0000
,
0001
0000
0100
0000
,
0010
0000
0000
0010
0000
0000
0000
0000
,
0100
0000
0001
0000
,
1000
0010
1000
0000
,
0001
0100
0001
0000
,
1000
0000
0000
0010
0000
0000
0000
0000
,
0100
0000
0000
0000
,
0001
0000
0000
0010
0000
0000
0000
0000
,
0100
0000
0000
0000
,
1000
0000
0000
0001
0000
0000
0000
0000
,
0100
0000
0010
0000
,
1000
0000
0100
0000
,
0010
0000
0000
0000
,
0001
0000
1000
0000
,
1MM1
0000
0001
0000
,
0010
0000
0001
0000
,
1000
0100
1000
0000
,
0010
0000
0200
0000
,
0300
0000
0010
0000
,
1000
0000
0000
0001
0000
0000
0000
0000
,
0010
0100
0010
0001
,
1000
0000
0001
0000
,
1MM1
0000
1000
0000
,
0100
0000
1000
0000
,
0001
0010
0001
0000
,
0100
0000
0020
0000
,
0030
0000
0100
0000
,
0001
0000
0000
1000
0000
0000
0000
0000
,
0100
0010
0100
1000
,
0001
0000
0000
0001
0000
0000
0000
0000
,
1000
0000
0010
0000
,
0100
0000
0000
0100
0000
0000
0000
0000
,
0010
0000
1000
0100
,
1000
0000
0000
1000
0000
0000
0000
0000
,
0001
0000
0100
0000
,
0010
0000
0000
0010
0000
0000
0000
0000
,
1000
0100
0010
0001
,
1000
0000
0000
1000
0000
0000
0000
0000
,
0001
0000
0100
0000
,
0010
0000
0000
0010
0000
0000
0000
0000
,
0100
0000
0001
0010
,
0001
0000
0000
0001
0000
0000
0000
0000
,
1000
0000
0010
0000
,
0100
0000
0000
0100
0000
0000
0000
0000
,
0001
0010
0100
1000
,
0001
0000
1000
0000
,
1MM1
0000
0001
0000
,
0100
0000
0001
0000
,
1000
0010
1000
0000
,
0100
0000
0020
0000
,
0030
0000
0100
0000
,
1000
0000
0100
0000
,
0010
0000
0001
0000
,
0100
0000
0000
0000
,
0000
0010
0000
0000
0100
0000
0001
0000
,
1000
0000
0002
0000
,
0003
0000
1000
0000
,
0010
0000
1000
0000
,
0001
0100
0001
0000
,
0010
0000
0200
0000
,
0300
0000
0010
0000
,
0001
0000
0000
1000
0000
0000
0000
0000
,
0010
0100
0010
1000
,
0001
0000
0000
0001
0000
0000
0000
0000
,
1000
0000
0100
0000
,
0010
0000
0000
0010
0000
0000
0000
0000
,
0100
0000
1000
0010
,
1000
0000
0000
1000
0000
0000
0000
0000
,
0001
0000
0010
0000
,
0100
0000
0000
0100
0000
0000
0000
0000
,
1000
0010
0100
0001
,
1000
0000
0000
1000
0000
0000
0000
0000
,
0001
0000
0010
0000
,
0100
0000
0000
0100
0000
0000
0000
0000
,
0010
0000
0001
0100
,
0001
0000
0000
0001
0000
0000
0000
0000
,
1000
0000
0100
0000
,
0010
0000
0000
0010
0000
0000
0000
0000
,
0001
0100
0010
1000
,
0001
0000
0000
0001
0000
0000
0000
0000
,
1000
0000
0000
1000
0000
0000
0000
0000
,
1MM1
0000
0000
0000
;

//--------------- dance-single - ThreeFish ----------------
#NOTEDATA:;
#STEPSTYPE:dance-single;
#DESCRIPTION:ThreeFish;
#DIFFICULTY:Medium;
#METER:5;
#RADARVALUES:0.505615,0.563583,0.075144,0.165318,0,471,461,10,22,13,0,0,0,0,0.505615,0.563583,0.075144,0.165318,0,471,461,10,22,13,0,0,0,0;
#CHARTNAME:ThreeFish;
#CHARTSTYLE:;
#CREDIT:ThreeFish;
#NOTES:
0000
0000
0000
0000
,
0000
0000
0000
0000
,
0000
0000
0000
0000
,
0000
0000
0000
0000
,
0000
0000
0000
0000
,
0000
0000
0000
0000
,
0000
0000
0000
0000
,
0000
0000
0000
0000
,
0101
0000
0000
0201
0000
0300
0001
0000
,
0010
0100
1000
0010
,
1010
0000
0000
1020
0000
0030
1000
0000
,
0100
0010
0001
1000
,
1001
0000
0000
2001
0000
3000
0001
0000
,
0100
0010
0000
1000
,
0100
1000
0001
0100
,
0010
0100
0001
0010
,
0011
0000
0000
0021
0000
0030
0100
0000
,
1000
0010
1000
0100
,
1100
0000
0000
1200
0000
0300
0010
0000
,
0001
1000
0010
0100
,
0110
0000
0000
0210
0000
0300
0001
0000
,
1000
0100
0000
1000
,
0001
0010
0001
0100
,
0010
0100
0001
1000
,
0100
0000
0000
0010
0000
0000
0001
0000
,
2000
0000
3000
0010
0100
0000
0000
0000
,
0100
0000
0000
0010
0000
0000
1000
0000
,
0002
0000
0003
0010
0100
0000
0000
0000
,
1000
0000
0000
0001
0000
0000
0100
0000
,
0010
0100
0001
0010
,
0100
0000
1000
0000
,
0001
0000
0000
0100
0010
0000
0100
0000
,
0001
0010
0100
2000
,
0MMM
3000
0100
0000
0010
0000
0001
0000
,
0100
0000
0000
0010
0000
0000
1000
0000
,
0001
0010
0100
1000
,
0001
0100
0010
2000
,
0000
3000
0010
0000
0100
0000
0001
0000
,
0010
0000
0000
0100
0000
0000
1000
0000
,
0000
0100
0000
0000
0010
0000
0001
0000
,
1000
0010
0100
0002
,
MMM0
0003
0100
0000
0010
0000
1000
0000
,
0100
0000
0000
0010
0000
0000
0001
0000
,
1000
0010
0100
0001
,
1000
0100
0010
0002
,
0000
0003
0010
0000
0100
0000
1000
0000
,
0010
0000
0000
0100
0000
0000
0001
0000
,
0000
0100
0000
0000
0010
0000
1000
0000
,
0001
0000
0000
0010
0000
0000
0100
1000
,
0000
0000
0001
0000
0000
0100
0000
0000
,
0010
0000
0000
1000
0000
0000
0100
0000
,
0000
0010
0000
0000
0001
0100
0001
0000
,
1000
0000
0000
0100
0000
0000
0010
0001
,
0000
0000
1000
0000
0000
0010
0000
0000
,
0100
0000
0000
0001
0000
0000
0010
0000
,
0000
0100
0000
0000
1000
0010
1000
0000
,
0001
0000
0000
0100
0000
0000
0010
1000
,
0000
0000
0001
0000
0000
0010
0000
0000
,
0100
0000
0000
1000
0000
0000
0010
0000
,
0000
0100
0000
0000
0001
0010
0001
0000
,
1000
0000
0000
0010
0000
0000
0100
0001
,
0000
0000
1000
0000
0000
0100
0000
0000
,
0010
0000
0000
0001
0000
0000
0100
0000
,
0000
0010
0000
0000
1000
0100
1000
0000
,
0001
0100
0010
2000
,
0MMM
3010
0100
0001
,
0010
0000
0000
0100
0000
0000
1000
0000
,
0001
0100
0010
1000
,
0001
0010
0100
2000
,
0000
3100
0010
0001
,
0200
0000
0320
0000
,
2030
0000
3200
0000
,
0302
0000
0000
0000
,
0003
0100
0000
0000
0010
0000
0001
0000
,
1000
0100
0010
0002
,
0000
0013
0100
1000
,
0010
0000
0000
0100
0000
0000
0001
0000
,
1000
0100
0010
0001
,
1000
0010
0100
0002
,
0000
0103
0010
1000
,
0100
0000
0000
0010
0000
0000
0001
0000
,
0000
0010
0000
0000
0100
0000
1000
0000
,
0001
0000
0000
0100
0000
0000
0010
1000
,
0000
0000
0001
0000
0000
0010
0000
0000
,
0100
0000
0000
1000
0000
0000
0010
0000
,
0000
0100
0000
0000
0001
0010
0001
0000
,
1000
0000
0000
0010
0000
0000
0100
0001
,
0000
0000
1000
0000
0000
0100
0000
0000
,
0010
0000
0000
0001
0000
0000
0100
0000
,
0000
0010
0000
0000
1000
0100
1000
0000
,
0001
0000
0000
0010
0000
0000
0100
1000
,
0000
0000
0001
0000
0000
0100
0000
0000
,
0010
0000
0000
1000
0000
0000
0100
0000
,
0000
0010
0000
0000
0001
0100
0001
0000
,
1000
0000
0000
0100
0000
0000
0010
0001
,
0000
0000
1000
0000
0000
0010
0000
0000
,
0100
0000
0000
0001
0000
0000
0010
0000
,
0000
0100
0000
0000
1000
0010
1000
0000
,
0001
0010
0000
0100
,
1000
0001
0000
0100
,
M0MM
0000
0000
0000
;

//--------------- dance-single - ThreeFish ----------------
#NOTEDATA:;
#STEPSTYPE:dance-single;
#DESCRIPTION:ThreeFish;
#DIFFICULTY:Hard;
#METER:8;
#RADARVALUES:0.514203,0.563583,0.060116,0.187861,0,479,471,8,25,13,0,0,0,0,0.514203,0.563583,0.060116,0.187861,0,479,471,8,25,13,0,0,0,0;
#CHARTNAME:ThreeFish;
#CHARTSTYLE:;
#CREDIT:ThreeFish;
#NOTES:
0000
0000
0000
0000
,
0000
0000
0000
0000
,
0000
0000
0000
0000
,
0000
0000
0000
0000
,
0000
0000
0000
0000
,
0000
0000
0000
0000
,
0000
0000
0000
0000
,
0000
0000
0000
0000
,
1001
0000
0000
1020
0030
0000
1000
0100
,
0010
0100
1000
0001
0100
0000
0010
0000
,
2000
3100
0000
0210
0300
0000
0010
0001
,
0100
0010
1000
0010
0100
0000
0001
0000
,
2000
3010
0000
0210
0300
0010
1000
0100
,
0010
0000
0001
0000
0000
0000
1000
0100
,
1000
0000
0001
0000
0100
0000
0010
1000
,
0010
0100
0001
1000
,
1100
0000
0000
0102
0003
0000
0010
0100
,
1000
0010
0100
0010
1000
0000
0100
0000
,
0020
0031
0000
2010
3000
0000
0100
0010
,
0001
0100
0010
0100
0001
0000
1000
0000
,
0200
0310
0000
1002
0003
0100
0010
1000
,
0001
0000
0100
0000
0000
0000
0001
0010
,
0001
0000
1000
0000
0010
0000
0100
0001
,
0100
0010
1000
0001
,
0010
0100
0000
0100
0000
1000
0010
0000
,
0200
0000
0300
0001
1000
0000
0000
0000
,
0010
0100
0000
0100
0000
0001
0010
0000
,
0200
0000
0300
1000
0010
0000
0000
0000
,
0100
0001
0000
0001
0000
1000
0100
0000
,
0001
0100
1000
0010
,
0100
0000
0001
0000
,
1000
0000
0000
0100
0010
0000
0001
0000
,
1000
0000
0010
0100
0002
0000
1000
0000
,
MMM3
0000
1000
0100
0010
0001
0100
0010
,
0000
0010
1000
0100
0000
0100
0010
0001
,
0100
0001
0010
0100
0000
0100
0000
1000
,
0000
1000
0001
0100
0020
0000
1000
0000
,
0130
0000
1000
0001
0010
0100
1000
0000
,
0010
0000
0010
0100
0000
0100
0001
0000
,
0001
1000
0000
1000
0100
0000
0010
0000
,
0001
0000
0010
0100
2000
0000
0001
0000
,
3MMM
0000
0001
0100
0010
1000
0100
0010
,
0000
0010
0001
0100
0000
0100
0010
1000
,
0100
1000
0010
0100
0000
0100
0000
0001
,
0000
0001
1000
0100
0020
0000
0001
0000
,
0130
0000
0001
1000
0010
0100
0001
0000
,
0010
0000
0010
0100
0000
0100
1000
0000
,
1000
0001
0000
0001
0100
0000
0010
0000
,
1000
0000
1000
0010
0000
0010
0100
0001
,
0000
1000
0100
0000
0010
0001
0000
1000
,
0010
0000
0100
0001
0000
0010
0100
0000
,
1000
0001
0000
0100
0010
1000
0010
0000
,
0100
0000
0100
0001
0000
0001
1000
0100
,
0000
0010
0001
0000
1000
0010
0000
0100
,
0001
0000
0010
0100
0000
1000
0001
0000
,
0100
0010
0000
0010
1000
0100
0010
0000
,
0001
0000
0001
0010
0000
0010
0100
1000
,
0000
0001
0100
0000
0010
1000
0000
0001
,
0010
0000
0100
1000
0000
0010
0100
0000
,
0001
1000
0000
0100
0010
0001
0010
0000
,
0100
0000
0100
1000
0000
1000
0001
0100
,
0000
0010
1000
0000
0001
0010
0000
0100
,
1000
0000
0010
0100
0000
0001
1000
0000
,
0100
0010
0000
0010
0001
0100
0010
0000
,
1000
0000
0100
0010
0002
0000
1000
0000
,
MMM3
0000
1000
0010
0001
0010
1000
0100
,
0000
0100
0010
0001
0000
0001
0100
1000
,
0100
0001
1000
0100
0000
0100
0000
0010
,
0000
0010
0001
0100
0010
0000
1000
0000
,
0000
0000
0100
0010
0001
0010
0100
0000
,
2000
0000
3020
0000
,
0032
0000
0203
0000
,
2300
0000
0000
0000
,
3000
0010
0000
0000
0100
0000
0001
0000
,
1000
0000
0100
0010
0002
0000
1000
0000
,
0103
0000
1000
0010
0100
0001
0010
0100
,
0000
0100
1000
0010
0000
0010
0100
0001
,
0010
0001
0100
0010
0000
0010
0000
1000
,
0000
1000
0001
0010
0200
0000
1000
0000
,
0301
0000
1000
0001
0100
0010
1000
0000
,
0100
0000
0100
0010
0000
0010
1000
0000
,
1000
0010
0000
0010
0100
0000
1000
0000
,
0001
0000
0001
0100
0000
0100
0010
1000
,
0000
0001
0010
0000
0100
1000
0000
0001
,
0100
0000
0010
1000
0000
0100
0010
0000
,
0001
1000
0000
0010
0100
0001
0100
0000
,
0010
0000
0010
1000
0000
1000
0001
0010
,
0000
0100
1000
0000
0001
0100
0000
0010
,
1000
0000
0100
0010
0000
0001
1000
0000
,
0010
0100
0000
0100
0001
0010
0100
0000
,
1000
0000
1000
0100
0000
0100
0010
0001
,
0000
1000
0010
0000
0100
0001
0000
1000
,
0100
0000
0010
0001
0000
0100
0010
0000
,
1000
0001
0000
0010
0100
1000
0100
0000
,
0010
0000
0010
0001
0000
0001
1000
0010
,
0000
0100
0001
0000
1000
0100
0000
0010
,
0001
0000
0100
0010
0000
1000
0001
0000
,
0010
0100
0000
0100
1000
0010
0100
0000
,
0001
0000
0010
0100
0000
0100
1000
0000
,
0010
0000
0100
0001
0000
0001
1000
0000
,
MMMM
0000
0000
0000
;
