#TITLE:i like the way you kiss me;
#SUBTITLE:;
#ARTIST:Artemas;
#TITLETRANSLIT:;
#SUBTITLETRANSLIT:;
#ARTISTTRANSLIT:;
#GENRE:;
#CREDIT:mekacat;
#MUSIC:I like the way you kiss me.mp3;
#BANNER:I like the way you kiss me.png;
#BACKGROUND:I like the way you kiss me-bg;
#CDTITLE:;
#SAMPLESTART:12.872;
#SAMPLELENGTH:13.080;
#SELECTABLE:YES;
#OFFSET:-0.220;
#BPMS:0.000=151.563;
#STOPS:;
#BGCHANGES:0.000=I like the way you kiss me.avi=1.000=0=0=0=StretchNoLoop====;
#FGCHANGES:;

//--------------- dance-single - ----------------
#NOTES:
     dance-single:
     :
     Medium:
     8:
     0,0,0,0,0:
0000
0000
0000
0000
,
0000
0000
0000
0000
,
0000
0000
0000
0000
,
0000
0000
0000
0000
,
0010
0100
0001
0100
,
0010
0000
0000
0000
,
0100
0000
0010
0000
1000
0100
0000
0000
,
0000
0010
0000
1001
,
0000
0100
0001
0000
0010
0000
0100
0000
,
0010
0000
0001
0100
0001
0000
0100
0000
,
0100
0000
1000
0010
1000
0000
1010
0000
,
1100
0011
0101
0000
,
0000
0100
0010
0000
1000
0000
0100
0000
,
1000
0000
0100
0000
0010
0100
0010
0000
,
1000
0000
0001
0000
0100
0001
0100
0000
,
0101
1010
0101
2002
,
3003
0001
0100
0000
0010
0000
0100
0000
,
1000
0000
0010
0001
0010
0000
0001
0000
,
0001
0000
0100
1000
0100
0000
0011
0000
,
1100
0110
0011
2200
,
3300
0010
0100
0000
0001
0000
1000
0000
,
0010
0000
1000
0000
0100
0001
0100
0000
,
0001
0000
0100
0000
0001
1000
0001
0000
,
0011
0000
1010
0000
0101
1000
0010
0000
,
0000
0010
1000
0000
0000
0010
0100
0000
,
0000
0100
0010
0000
0000
0100
0001
0000
,
0000
0001
0100
0000
0000
0010
1000
0000
,
0000
1000
0010
0000
0000
0001
0100
0000
,
0000
0100
0001
0000
1000
0100
0000
0010
,
0000
0001
0000
0000
0000
0100
0010
0000
,
0000
0100
0001
1000
0010
0100
0001
0000
,
1000
0100
0010
0001
1000
0000
0220
0000
,
0330
0010
1000
0010
1000
0001
2000
0000
,
3100
0000
0010
0001
1000
0000
0110
0000
,
0002
0000
1003
1000
,
0100
0010
0100
0000
0010
0000
1001
0000
,
0200
0000
0310
2000
,
0000
0000
3000
0100
0001
0100
0001
0000
,
0000
0000
0000
0010
0010
1000
0001
0000
,
0010
1000
0000
0202
,
0303
1000
0100
0000
0010
0000
0100
0000
,
0010
0000
0001
0100
0001
0000
0010
0000
,
0010
0000
1000
0001
1000
0000
0110
0000
,
1100
0011
1001
0000
,
0000
0001
0010
0000
1000
0000
0010
0000
,
0001
0000
0100
0000
0010
1000
0010
0000
,
1000
0000
0001
0000
0100
0010
0100
0000
,
0011
1010
0101
2020
,
3030
0100
0001
0000
0010
0000
0001
0000
,
0010
0000
0100
0001
1000
0000
0100
0000
,
0100
0000
0001
0010
0001
0000
1001
0000
,
1100
0011
1001
0000
,
0000
0010
0001
0000
0100
0000
0001
0000
,
0100
0000
0010
0000
0001
0100
0001
0000
,
1000
0000
0001
0000
1000
0100
1000
0000
,
0101
1010
0100
0010
,
0000
0000
0000
0100
1000
0100
1000
0000
,
0000
0000
0000
0010
0100
0010
0100
0000
,
0000
0000
0000
0001
0010
0100
1000
0000
,
0000
0000
0000
0001
0010
0001
0010
0000
,
0000
0000
0000
0100
0001
0100
0001
0000
,
0000
0000
0000
0100
1000
0100
1000
0000
,
0000
0000
0000
0100
0100
0010
0100
0000
,
0010
1000
0000
2002
,
0000
0000
0000
0000
,
0000
0023
0000
0032
,
0000
0000
0000
0000
3003
0010
1000
0000
,
0100
1000
0000
0202
,
0000
0000
0000
0000
,
0000
0320
0000
2030
,
0000
0000
0000
0000
3003
0100
0010
0000
,
0100
0010
0000
0202
,
0303
0100
1000
0000
0001
0000
0010
0000
,
0001
0000
1000
0100
1000
0000
0010
0000
,
0100
0000
0001
0010
0001
0000
1100
0000
,
0101
0011
0110
0000
,
0000
0100
0010
0000
0001
0000
0100
0000
,
0001
0000
0100
0000
0010
1000
0010
0000
,
1000
0000
0001
0000
0010
0100
0010
0000
,
0101
1010
0101
2002
,
3003
0010
0100
0000
0010
0000
0001
0000
,
0100
0000
0010
0100
0010
0000
1000
0000
,
1000
0000
0100
0010
0100
0000
0011
0000
,
1100
0110
0011
0000
,
0000
0100
0010
0000
1000
0000
0100
0000
,
1000
0000
0100
0000
0010
0100
0010
0000
,
1000
0000
0001
0000
0100
0001
0100
0000
,
0101
1010
0101
2002
,
3003
0010
1000
0100
0010
0000
1000
0000
,
0010
0000
0000
0000
,
0000
0100
0010
0000
0100
1000
0000
0000
,
0000
0000
0000
0100
0000
0000
0200
0000
,
0000
0000
0000
0000
,
0300
0000
0000
0000
;

//--------------- dance-single - ----------------
#NOTES:
     dance-single:
     :
     Hard:
     12:
     0,0,0,0,0:
0000
0000
0000
0000
,
0000
0000
0000
0000
,
0000
0000
0000
0000
,
0000
0000
0000
0000
,
0010
0100
0001
0100
,
0010
0000
0001
1000
0001
1000
0001
1000
,
0100
0000
0010
0000
1000
0100
0010
1000
,
0001
1000
0020
0000
0030
0000
1001
0000
,
0000
0100
0001
0000
0010
0000
0100
0000
,
0010
0000
0001
0100
0001
0000
0200
0000
,
0310
0000
1000
0010
1000
0000
1010
0000
,
1100
0000
0011
0000
0101
0000
1000
0010
,
0000
0100
0010
0001
1000
0010
1000
0000
,
0010
1000
0100
0000
0010
0100
0010
0000
,
1000
0100
0100
0000
0100
0001
0100
0000
,
0101
1010
0101
2002
,
3003
0001
0100
0000
0010
0000
0100
0000
,
1000
0000
1010
0001
0010
0000
1001
0000
,
0001
0000
0100
1000
0100
0000
0011
0000
,
1100
0110
0011
2200
,
3300
0010
0100
1000
0001
1000
0100
0000
,
0010
0000
1001
0000
0100
0001
0100
0000
,
0001
0100
0100
0000
0001
1000
0001
0000
,
0011
0000
1010
0000
0101
1000
0011
0000
,
0000
0010
1001
0000
0000
0010
1100
0000
,
0000
0010
1100
0000
0000
0100
1001
0000
,
0000
0100
1001
0000
0000
0001
1100
0000
,
0000
0001
1100
0000
0000
0010
0101
0000
,
0000
0010
0101
0000
1000
0100
0000
0010
,
0000
0001
1000
0001
1000
0100
0010
0000
,
0000
0100
0001
1000
0010
0100
0001
1000
,
1000
0100
0010
0001
1000
0000
0220
0000
,
0330
0010
1000
0010
1000
0001
2000
0000
,
3100
0000
0010
0001
1000
0000
0110
0000
,
0002
0000
0020
0030
1003
0000
1000
0000
,
0100
0010
0100
0000
0010
0000
1001
0000
,
0200
0002
0000
0003
0310
0000
2000
0100
,
0000
0100
3000
0100
0001
0100
0001
0000
,
1000
0000
0000
0010
0010
1000
0002
0000
,
0010
0000
1000
0000
0000
0003
0202
0000
,
0303
1000
0100
0000
0010
0000
0100
0000
,
0010
0000
0001
0100
0001
0000
1010
0000
,
0010
0000
1000
0001
1000
0000
0110
0000
,
1100
0011
1001
0220
,
0330
0001
0010
1000
0000
1000
0010
0000
,
0001
0000
1100
0000
0010
1000
0010
0000
,
1000
0000
0001
0000
0100
0010
0100
0000
,
0011
1010
0101
2020
,
3030
0100
0001
0000
0010
0000
0101
0000
,
0010
0000
0110
0001
1000
0000
0110
0000
,
0100
0000
0001
0010
0001
0000
1001
0000
,
1100
0011
1001
0110
,
0000
0010
0001
0000
0100
0000
1001
0000
,
0100
0000
0011
0000
0001
0100
0101
0000
,
1000
0000
0001
1000
0100
1000
0100
0000
,
0101
1010
0101
0020
,
1030
0000
0000
0100
1001
0100
1000
0000
,
0100
0000
0000
0010
0101
0010
0100
0000
,
1000
0000
0000
0001
1010
0100
1000
0000
,
0010
0000
0000
0001
1010
0001
0010
0000
,
1000
0000
0000
0100
0011
0100
0001
0000
,
1100
0000
0000
0100
1001
0100
1000
0000
,
0010
0000
0000
0100
0110
0010
0100
0000
,
0010
1000
0000
2002
,
0000
0000
0000
0000
,
0000
0023
0000
0032
,
0000
0000
0000
0000
0003
3010
2001
0000
,
0100
0000
0001
0000
0000
3000
0202
0000
,
0000
0000
0000
0000
,
0000
0320
0000
2030
,
0000
0000
0000
0000
3003
0100
0012
0000
,
0100
0010
0003
0202
,
0303
1000
0100
1000
0100
1000
0010
0000
,
0001
0000
0100
1000
0100
0010
0001
0000
,
0100
0000
0001
0010
0001
0000
1100
0000
,
0101
0011
0110
1001
,
0000
0100
0010
1000
0001
1000
0100
0000
,
0001
0000
0100
0000
0010
1000
0010
0000
,
1000
0000
0001
0000
0010
0100
0010
0000
,
0101
1010
0101
2002
,
3003
0010
0100
0000
0010
0000
0001
0000
,
0100
0000
0010
0100
0010
0000
1000
0000
,
1000
0000
0100
0010
0100
0000
0011
0000
,
1100
0110
0011
2020
,
3030
0100
0010
0100
1000
0000
0100
0000
,
1000
0000
0100
0000
0010
0001
0010
0000
,
1000
1000
0001
0000
0100
0001
0100
0000
,
0101
1010
0101
2002
,
3003
0010
1000
0100
0010
0000
1000
0000
,
0010
0000
0001
1000
0001
1000
0001
1000
,
0001
0100
0010
0000
0010
0100
0001
1000
,
0001
1000
0001
1000
0010
0000
0200
0000
,
0000
0000
0000
0000
,
0300
0000
0000
0000
;
