#TITLE:Freaks timmy trumpet;
#SUBTITLE:;
#ARTIST:Timmy trumpet;
#TITLETRANSLIT:;
#SUBTITLETRANSLIT:;
#ARTISTTRANSLIT:;
#GENRE:;
#CREDIT:mekacat;
#MUSIC:Freaks_timmy_trumpet.mp3;
#BANNER:Freaks_timmy_trumpet.png;
#BACKGROUND:Freaks_timmy_trumpet-bg.png;
#CDTITLE:;
#SAMPLESTART:15.718;
#SAMPLELENGTH:29.529;
#SELECTABLE:YES;
#OFFSET:-0.251;
#BPMS:0.000=128.012;
#STOPS:;
#BGCHANGES:;
#FGCHANGES:;

//--------------- dance-single - ----------------
#NOTES:
     dance-single:
     :
     Easy:
     6:
     0,0,0,0,0:
0000
0000
0000
0000
,
0000
0000
0000
0000
,
0000
0000
2000
3000
0100
0000
0100
0000
,
0010
0010
0001
2000
,
3000
0000
0200
0300
1000
0000
0100
0000
,
1000
0100
0010
0002
,
0003
0000
0200
0300
0001
0000
1000
0000
,
0001
1000
0010
0200
,
0000
0300
1001
0000
0100
0000
0001
0000
,
0100
0001
0010
2002
,
0000
3003
0010
0000
0100
0000
0010
0000
,
0100
0001
1000
0202
,
0000
0303
1000
0000
0010
0000
1000
0000
,
0001
0100
0001
0220
,
0000
0330
1000
0000
0010
0000
0100
0000
,
0001
0010
0100
2000
,
0000
0010
0000
0010
,
0000
0000
0001
0100
,
0001
0010
0000
0010
,
0000
0000
0100
0001
,
0100
0000
0001
0000
,
0000
0001
0000
0010
,
0000
0040
0000
0000
,
0000
3030
0001
0000
0010
0000
0100
0000
,
1000
1001
0001
0100
,
0001
0100
0010
2200
,
0000
3300
0010
0000
0001
0000
0010
0000
,
0001
1000
0100
0022
,
0000
0033
0010
0000
0100
0000
1000
0000
,
0100
0010
0100
2002
,
0000
3003
0010
0000
1000
0000
0010
0000
,
0100
0001
0100
0020
,
0030
0110
1000
0010
,
0100
0010
0010
0001
,
1000
0010
0100
0010
,
1000
1000
0100
0010
,
0000
1100
0011
1100
,
0011
0001
1000
0001
,
0100
0010
0100
1000
,
0100
0010
0001
0001
,
0100
0010
1000
0010
,
0100
0001
0100
0100
,
0010
0100
1000
0001
,
0100
0001
0100
0010
,
1001
1000
0100
0010
,
0001
0110
1001
0220
,
0330
0001
0010
0100
,
1000
0100
0010
0002
,
1000
0000
0003
0000
;

//--------------- dance-single - mekacat ----------------
#NOTES:
     dance-single:
     mekacat:
     Hard:
     11:
     0,0,0,0,0:
0000
0000
0000
0000
,
0000
0000
0000
0000
,
0000
0000
0000
0000
2000
0000
3000
0010
0100
0000
0000
0000
1000
0000
0100
0000
,
0010
0000
0100
0010
0001
0010
2000
0000
,
3000
0000
0000
0000
0200
0000
0300
0010
1000
0000
0000
0000
0100
0000
1000
0000
,
0100
0000
0010
0001
0010
1000
0002
0000
,
0003
0000
0000
0000
0200
0000
0300
0010
0001
0000
0000
0000
1000
0000
0100
0000
,
1000
0000
0001
0100
0001
0100
0020
0000
,
0000
0030
1001
0000
0010
0100
1001
0000
,
0100
0010
0101
0000
0010
1000
2002
0000
,
0000
3003
0020
0030
0001
1000
0010
0100
,
0001
0100
0001
0010
0100
1000
0202
0000
,
0303
0010
1001
0000
0010
0100
1010
0000
,
0001
1000
0110
0000
1000
0010
0022
0000
,
0000
0033
2000
3000
0010
0100
1000
0100
,
0001
0010
0100
0010
0100
0001
2000
0000
,
0000
0000
0010
0010
0000
0000
0010
0010
,
0000
0000
0001
0100
,
0001
0000
0010
0010
0000
0000
0010
0010
,
0000
0000
0100
0001
,
0100
0010
0001
0010
,
0100
0000
0001
0010
0000
0000
0010
0001
,
0000
0040
0000
0000
,
0000
3030
0101
0000
1010
0000
0101
0000
,
1010
0000
0000
0000
1001
0000
0000
0100
0001
0000
0100
0000
0010
0000
0000
0000
,
0001
0000
0100
1000
0010
0000
2200
0000
,
0000
0000
3300
0000
0010
0000
0000
1000
0001
0000
0100
0000
0010
0000
0000
0000
,
0001
0000
0001
0010
0100
1000
0022
0000
,
0000
0000
0033
0000
1001
0000
0000
0100
0001
0000
0100
0000
0010
0000
0000
0000
,
0001
0000
0100
1000
0010
0000
2200
0000
,
0000
0000
3300
0000
0110
0000
0000
1000
0001
0000
0100
0000
0010
0000
0000
0000
,
0001
0000
0100
1000
0100
1000
0020
0000
,
0030
0110
0011
0110
,
1100
0000
0010
0100
0100
0010
0001
0000
,
1000
0100
0010
0001
0100
0000
0010
0000
,
1000
0000
1000
0001
0100
1000
0001
0000
,
0010
1100
0011
1100
,
0011
0000
0001
0010
0100
0010
0001
1000
,
0100
0010
0010
0100
0100
0000
1000
0100
,
1000
1010
0101
0011
,
0100
1000
0001
0010
1000
0000
0010
0000
,
0100
0010
0001
1000
0100
0100
0010
0010
,
0100
1000
0100
0010
1000
0000
0001
1000
,
0100
0010
0001
1000
0100
0001
0010
0000
,
1001
1100
0110
0011
,
0101
0110
1001
0220
,
0330
1001
1010
1100
,
1000
0001
0100
0010
0100
0001
0002
0000
,
1000
0000
0003
0000
;
