#TITLE:Freaks;
#SUBTITLE:;
#ARTIST:Surf Curse;
#TITLETRANSLIT:;
#SUBTITLETRANSLIT:;
#ARTISTTRANSLIT:;
#GENRE:;
#CREDIT:;
#MUSIC:Freaks Surf Curse.mp3;
#BANNER:Freaks Surf Curse.png;
#BACKGROUND:Freaks Surf Curse-bg.png;
#CDTITLE:;
#SAMPLESTART:41.494;
#SAMPLELENGTH:17.569;
#SELECTABLE:YES;
#OFFSET:-0.031;
#BPMS:0.000=178.000
,64.000=181.000
,188.000=178.000
,300.000=181.000
,368.000=176.000
;
#STOPS:;
#BGCHANGES:0.000=Freaks Surf Curse.avi=1.000=1=0=1,
99999=-nosongbg-=1.000=0=0=0 // don't automatically add -songbackground-
#FGCHANGES:;

//--------------- dance-single - mekacat ----------------
#NOTES:
     dance-single:
     mekacat:
     Easy:
     5:
     0,0,0,0,0:
0000
0000
0000
0000
,
0000
0000
0000
0000
,
0000
0000
0000
0000
,
0000
0000
0000
0000
,
0010
0020
0000
0030
,
0001
0002
0000
0003
,
0010
0020
0000
0030
,
1000
1000
0010
0010
,
0001
0002
0000
0003
,
0010
0020
0000
0030
,
1000
2000
0000
3000
,
0001
0001
0100
0100
,
0001
0002
0000
0003
,
0010
0020
0000
0030
,
1000
2000
0000
3000
,
0010
0010
0100
0001
,
1000
0100
0010
0100
,
1000
0010
0100
1000
,
0010
0100
0010
1000
,
0001
0010
0010
0001
,
1000
0001
0100
0001
,
2000
0000
3000
0100
,
0020
0000
0030
0100
,
1000
0001
0100
0002
,
0000
0003
0000
0100
,
0020
0000
0030
1000
,
0020
0000
0030
0100
,
0001
0010
0100
1000
,
0002
0000
0003
0000
,
0200
0000
0300
0001
,
2000
0000
3000
0000
,
0010
0100
0010
0001
,
2002
3003
0000
1000
,
0100
0200
0000
0300
,
0010
0020
0000
0030
,
0001
0100
0010
0100
,
0022
0033
0000
0100
,
0001
0002
0000
0003
,
0100
0200
0000
0300
,
0001
0010
0001
0100
,
2020
3030
0000
0001
,
0010
0020
0000
0030
,
0001
0002
0000
0003
,
1000
0010
0100
0010
,
0220
0330
0000
0001
,
1000
0200
0000
0300
,
0100
0020
0000
0030
,
1000
1000
0010
0010
,
0100
0200
0000
0300
,
0001
0002
0000
0003
,
1000
2000
0000
3000
,
0010
0010
0001
0001
,
0100
0200
0000
0300
,
0001
0002
0000
0003
,
1000
2000
0000
3000
,
0010
0010
1000
1000
,
0100
0200
0000
0300
,
1000
2000
0000
3000
,
0010
0020
0000
0030
,
1000
1000
0100
0100
,
0200
0000
0300
0000
,
2000
0000
3000
0100
,
0002
0000
0003
0000
,
1001
0010
0100
1000
,
2020
3030
0100
0010
,
2002
3003
0000
0100
,
0020
0000
0030
0100
,
0011
0010
0100
0010
,
2020
3030
0001
0100
,
0002
0000
0003
1000
,
0200
0000
0300
0000
,
1001
0100
1000
0100
,
2002
3003
0000
0100
,
0010
0002
0000
0003
,
0010
0002
0000
0003
,
0010
0001
0100
0010
,
2002
0000
3003
0000
,
0010
0020
0000
0030
,
1000
0200
0000
0300
,
0100
0010
0001
0010
,
2200
3300
0000
0001
,
1000
2000
0000
3000
,
0100
0200
0000
0300
,
0010
1000
0001
0100
,
2020
3030
0000
0100
,
0001
0002
0000
0003
,
0010
0020
0000
0030
,
0001
0010
0100
1000
,
0202
0303
0000
0100
,
0010
2000
0000
3000
,
0100
0002
0000
0003
,
0100
0100
0010
0010
,
0100
0200
0000
0300
,
0010
0020
0000
0030
,
0001
0002
0000
0003
,
0010
0010
0001
0001
,
0100
0200
0000
0300
,
0010
0020
0000
0030
,
0001
0002
0000
0003
,
0100
0100
1000
1000
,
0010
0200
0000
0300
,
1000
0100
0200
0000
,
0300
0001
0002
0000
,
0003
0100
0100
0001
,
2002
0000
0000
0000
,
3003
0000
0000
0000
;

//--------------- dance-single - mekacat ----------------
#NOTES:
     dance-single:
     mekacat:
     Medium:
     8:
     0,0,0,0,0:
0000
0000
0000
0000
,
0000
0000
0000
0000
,
0000
0000
0000
0000
,
0000
0000
0000
0000
,
0100
0020
0000
0031
,
1000
0002
0000
0103
,
1000
0020
0000
0130
,
1000
1000
0010
0001
,
0100
0002
0000
1003
,
0100
0020
0000
0130
,
0001
2000
0000
3010
,
0001
0001
0100
0100
,
1000
0002
0000
0103
,
0010
0020
0000
1030
,
0001
2000
0000
3001
,
0010
0010
0100
0001
,
1001
0100
0010
0100
,
1001
0010
0100
1000
,
0110
0100
0010
1000
,
0001
0010
0010
0001
,
1000
0001
0100
0001
,
2000
0000
3001
0100
,
0020
0000
1030
0101
,
1000
0001
0100
2002
,
0000
3003
0000
0100
,
0020
0000
0130
1000
,
0020
0000
0130
1000
,
0101
0010
0100
1000
,
0202
0000
0303
0000
,
0200
0000
0300
0001
,
2000
0000
3000
0100
,
1010
0100
0010
0001
,
2002
3003
0000
0100
,
1000
0200
0000
0301
,
0001
0200
0000
1300
,
1100
0100
0010
0100
,
0022
0033
0000
0100
,
0010
0002
0000
1003
,
0001
0200
0000
0310
,
1001
0010
0001
0100
,
2020
3030
0000
0001
,
0100
0020
0000
1030
,
0100
0002
0000
0103
,
0110
1000
0001
0100
,
0220
0330
0000
0001
,
1000
0200
0000
0301
,
0100
0020
0000
0130
,
1000
1000
0001
0001
,
0010
0200
0000
0301
,
1000
0002
0000
0103
,
0010
2000
0000
3010
,
0100
0100
0001
0010
,
0100
2000
0000
3100
,
0001
0002
0000
0013
,
0100
0200
0000
0310
,
0001
0001
0100
0100
,
0001
0200
0000
0310
,
0001
2000
0000
3010
,
0100
0020
0000
0130
,
1000
1000
0001
0001
,
0220
0000
0330
0000
,
2000
0000
3000
0100
,
0002
0000
0003
1000
,
1001
0010
0100
1000
,
2020
3030
0100
0010
,
2002
3003
0000
0100
,
0020
0000
1030
0100
,
0011
0010
0100
0010
,
2020
3030
0001
0100
,
0002
0000
1003
0100
,
0200
0000
1300
0010
,
1001
0100
1000
0100
,
2002
3003
0000
0100
,
0010
0002
0000
1003
,
0010
0002
0000
1003
,
0110
1000
0100
0010
,
2002
3003
0000
1000
,
0010
0020
0000
0130
,
1000
0200
0000
0301
,
1100
0010
0001
0010
,
2200
3300
0000
0001
,
0100
2000
0000
3001
,
0001
0200
0000
0310
,
0110
1000
0001
0100
,
2020
3030
0000
0100
,
1000
0002
0000
0103
,
1000
0020
0000
1030
,
0101
0010
0100
1000
,
0202
0303
0000
0100
,
0010
2000
0000
3010
,
0100
0002
0000
1003
,
0100
0100
0010
0010
,
1000
0200
0000
0310
,
0001
0020
0000
0130
,
1000
0002
0000
0103
,
0010
0010
1000
1000
,
0010
0200
0000
0301
,
0010
0020
0000
0130
,
0010
0020
0000
1030
,
0100
0100
0001
0001
,
1000
0200
0000
1300
,
1000
0010
0200
0000
,
0310
0001
0002
0000
,
1003
0100
0100
0001
,
2002
0000
0000
0000
,
3003
0000
0000
0000
;

//--------------- dance-single - mekacat ----------------
#NOTES:
     dance-single:
     mekacat:
     Hard:
     13:
     0,0,0,0,0:
0000
0000
0000
0000
,
0000
0000
0000
0000
,
0000
0000
0000
0000
,
0000
0000
0000
0000
,
0100
0000
0010
0100
0010
0000
0001
0000
,
1000
0000
0001
0010
0001
0000
0100
0000
,
1000
0000
0100
0010
0100
0000
0001
0000
,
1001
1001
0110
0110
,
0100
0000
0001
1000
0001
0000
1000
0000
,
0100
0000
0010
0001
0010
0000
0100
0000
,
0001
0000
1000
0001
1000
0000
0010
0000
,
1001
1001
0110
0110
,
0001
0000
1000
0001
1000
0000
0100
0000
,
0010
0000
0010
0001
0010
0000
1000
0000
,
0001
0000
0100
1000
0100
0000
0001
0000
,
1010
1010
0101
0101
,
1000
0000
0010
1000
0010
0000
0100
0000
,
1001
0000
0100
0001
0100
0000
1000
0000
,
1100
0100
0010
1000
,
1001
0011
1100
0101
,
1010
0000
0001
1000
0001
0000
0010
0000
,
0100
0000
1000
0001
1000
0000
0100
0000
,
0010
0000
0010
1000
0010
0000
0101
0000
,
1010
0101
0110
1001
,
0220
0330
0010
0100
,
0010
0000
0100
0010
0100
0000
1000
0000
,
0010
0001
0010
0000
0100
0000
1000
0000
,
0101
1010
0101
1001
,
0202
0303
0010
1000
,
0202
0303
1000
0001
,
2020
0000
3030
0100
,
1010
0101
1010
0101
,
1001
0000
0010
0001
0010
0000
0100
0000
,
1000
0000
0100
0001
0100
0000
0001
0000
,
0001
0000
0100
0010
0100
0000
1000
0000
,
1100
0110
1010
0101
,
0011
0000
1000
0010
1000
0000
0100
0000
,
0010
0000
1000
0010
1000
0000
0100
0000
,
0001
0000
0100
0000
0010
1000
0010
0000
,
1001
0110
1001
0101
,
2020
3030
0010
0001
,
0100
0000
0010
0100
0010
0000
1000
0000
,
0100
0000
0010
0001
0010
0000
0100
0000
,
0110
1100
0011
0110
,
0220
0330
1000
0001
,
1000
0000
0100
0001
0100
0000
0001
0000
,
0100
0000
0010
1000
0010
0000
0100
0000
,
1010
1010
0110
0110
,
0100
0000
1000
0001
1000
0000
0001
0000
,
1000
0000
0001
0100
0001
0000
0100
0000
,
0010
0000
1000
0100
1000
0000
0010
0000
,
0101
0101
1001
1001
,
0100
0000
0100
0001
0100
0000
0100
0000
,
0001
0000
0001
1000
0001
0000
0010
0000
,
0100
0000
0100
1000
0100
0000
0010
0000
,
0110
0110
1001
1001
,
0001
0000
0100
0001
0100
0000
0010
0000
,
0001
0000
1000
0001
1000
0000
0010
0000
,
0100
0000
1000
0010
1000
0000
0001
0000
,
1100
1100
0011
0011
,
0220
0000
0330
0000
,
2000
0100
3100
0010
,
0002
0100
0103
1000
,
1001
0100
0010
0000
0010
0100
1000
0000
,
2002
3003
0100
0010
,
2020
3030
0100
0100
,
0020
0001
0031
0100
,
0011
0000
0010
1000
0100
1000
0010
0000
,
2020
3030
0001
0100
,
0002
0100
0103
0100
,
0200
0010
0310
0010
,
0001
0010
0100
0000
0100
0010
0001
0000
,
2002
3003
0000
0100
,
0010
0002
1000
1003
,
0010
2000
0001
3001
,
0110
1010
0110
0101
,
2002
3003
0000
1000
,
0010
0000
1000
0001
1000
0000
0100
0000
,
0010
0000
0100
0001
0100
0000
0001
0000
,
1100
0110
0011
0110
,
2200
3300
0000
0001
,
0100
0000
1000
0100
1000
0000
0001
0000
,
0001
0000
0100
0010
0100
0000
0010
0000
,
0110
1100
0011
0110
,
2020
3030
0000
0100
,
1000
0000
0100
0001
0100
0000
0100
0000
,
1000
0020
0000
1030
,
0101
0010
0100
1000
,
0202
0303
0000
0100
,
0010
0000
1000
0001
1000
0000
0010
0000
,
0100
0000
0001
1000
0001
0000
1000
0000
,
1100
0011
1100
0011
,
1000
0000
0100
0010
0100
0000
0010
0000
,
0001
0000
0010
0100
0010
0000
0100
0000
,
1000
0000
0001
0100
0001
0000
0100
0000
,
0110
0110
1100
1100
,
0010
0000
0100
0010
0100
0000
0001
0000
,
0010
0000
0010
1000
0010
0000
0100
0000
,
0010
0000
0010
0001
0010
0000
1000
0000
,
0100
0100
0010
0001
,
0100
0000
0100
0010
0100
0000
1000
0000
,
1000
0000
0010
0100
0010
0000
0100
0000
,
0010
0000
0001
0100
0001
0000
0100
0000
,
1010
0101
0110
1001
,
2002
0000
0000
0000
,
3003
0000
0000
0000
;
