#TITLE:Esa diva;
#SUBTITLE:;
#ARTIST:Melody;
#TITLETRANSLIT:;
#SUBTITLETRANSLIT:;
#ARTISTTRANSLIT:;
#GENRE:;
#CREDIT:;
#MUSIC:Melody - Esa Diva.ogg;
#BANNER:Esa diva.png;
#BACKGROUND:Esa diva-bg.png;
#CDTITLE:;
#SAMPLESTART:74.081;
#SAMPLELENGTH:13.701;
#SELECTABLE:YES;
#OFFSET:-0.380;
#BPMS:0.000=127.000;
#STOPS:;
#BGCHANGES:0.000=Esa Diva.avi=1.000=1=0=1===CrossFade==,
99999.000=-nosongbg-=1.000=0=0=0=StretchNoLoop====
;
#FGCHANGES:;

//--------------- dance-single - mekacat ----------------
#NOTES:
     dance-single:
     mekacat:
     Easy:
     7:
     0,0,0,0,0:
0000
0000
0000
0000
,
0100
0001
0100
0010
,
1000
0100
1000
0100
,
0010
0000
0100
0001
1000
0000
0001
0100
,
1000
0100
0010
0010
,
0100
1000
0100
2000
,
3020
0000
0030
0100
0001
0100
0000
0000
,
0010
1000
0010
0000
0100
1000
0100
0000
,
0001
0100
1000
0100
0001
1000
0000
0000
,
0110
0100
0010
1001
,
0110
1000
0100
0010
,
0000
0100
0010
0000
0100
0000
0001
0000
,
1000
0000
0100
0000
0010
0100
0000
0010
,
0000
1000
0000
0010
0002
0000
0000
0000
,
1003
0000
0000
0000
0000
0100
0000
0001
,
0000
0100
0010
0000
0001
0020
0000
0000
,
0000
0000
0000
0000
0030
0000
0000
1000
,
0000
0001
0100
0000
0010
0000
1000
0000
,
0010
0000
0010
0000
0010
0000
0000
1000
,
0000
0010
0100
0010
1000
0000
0001
0000
,
0100
0000
0100
0000
0100
0000
0000
0001
,
0000
1000
0010
1000
0000
0100
0000
1000
,
0020
0000
0000
0000
0000
0000
0030
0001
,
0000
0001
0100
0000
0010
0000
1000
0000
,
0100
0000
0010
0000
0010
0001
0010
0000
,
0100
0100
0001
0100
,
0010
0100
1000
0100
,
0001
0100
0010
0100
,
1000
0000
0100
0000
0010
0000
0100
0040
,
0000
0000
0030
0001
,
0010
0100
2000
0000
,
3010
0010
0001
1000
,
0001
0010
0100
1000
,
0010
1000
0010
0100
,
0010
1000
0001
0001
,
1000
0010
0100
0002
,
2003
0000
3000
0010
1000
0010
0000
0100
,
0000
0010
1000
0002
0000
0000
0000
0003
,
0100
0000
0010
0000
1000
0001
0000
0000
,
0110
0100
0001
1010
,
1100
0001
0010
0100
,
0000
1000
0010
0000
0100
0000
0001
0000
,
0100
0000
0010
0000
0001
0100
0010
0000
,
1000
1000
0010
0100
,
0020
0000
0000
0000
0030
0100
0000
0010
,
0100
0000
1000
0010
0100
0002
0000
0000
,
0000
0000
0000
0000
0003
0000
1000
0000
0100
0000
1000
0000
0010
0000
0000
0010
,
0000
0000
0010
0000
0000
0010
0000
0000
0010
0000
0000
0000
0100
0000
0000
0000
,
1000
0010
0100
0001
,
0010
1000
0001
0100
,
0100
1000
1000
0001
,
0100
0001
1000
0001
,
0010
0100
0010
0100
,
1000
0001
0100
0010
,
0010
0100
0100
0010
,
1000
0100
0010
0002
,
0000
0000
0000
0000
,
0000
0000
0000
0000
,
0000
0000
0000
0000
,
0000
0000
0000
0000
,
0000
0000
0000
0000
0000
0000
0000
0000
0000
0000
0000
0000
0000
0003
1000
0000
,
0001
1000
0000
0100
0020
0000
0000
0000
,
0031
0000
1000
0001
0000
0100
0000
0000
,
1100
0010
1100
0011
,
0101
0000
0000
0100
0010
0100
0001
0000
,
0000
1000
0010
1000
0010
0000
0010
0000
,
0001
0000
0010
0000
0100
1000
0000
0100
,
0000
0011
0000
0100
1000
0000
0100
0000
,
0110
0000
0000
0000
0000
1010
0000
0100
,
0001
0100
0010
0000
0100
2002
0000
0000
,
0000
0000
3003
0001
0100
0010
0000
1000
,
0010
2000
0000
3001
0100
0000
0020
0000
,
0000
0000
0000
0030
,
0000
0000
0000
1001
;

//--------------- dance-single - mekacat ----------------
#NOTES:
     dance-single:
     mekacat:
     Hard:
     10:
     0,0,0,0,0:
0000
0000
0000
0000
,
0100
0000
0001
0000
0100
0000
0010
0100
,
1000
0000
0100
0000
1000
0010
0100
0000
,
0010
0100
1000
0001
,
1000
0010
0100
0100
,
0010
1000
0100
2000
,
3020
0000
0030
0100
0001
0100
0000
0000
,
0010
1000
0010
1000
0002
0010
0000
0100
,
0103
0000
1000
0000
0001
1000
0100
0000
,
0110
1100
0011
1001
,
0110
0000
1000
0001
1100
0000
0110
0000
,
0000
0001
0010
0100
0010
0100
0010
0001
,
1000
0001
0010
0001
0100
0100
0000
0010
,
0000
1000
0000
0010
0002
0000
1000
0000
,
1003
0000
0000
0000
0000
0200
0000
0301
,
0100
0001
1000
0010
0001
0020
0000
0000
,
0000
0000
0000
0000
0030
0000
0000
1000
,
0000
0001
0100
0000
0010
0001
1000
0100
,
0010
0001
0010
0001
0010
0001
0000
1000
,
0000
0010
0100
0010
1000
0000
0001
0000
,
0100
0010
0100
0010
0100
0010
0000
0002
,
0000
1003
0010
1000
0001
0100
0001
1000
,
0020
0000
0000
0000
0000
0000
0030
0001
,
0000
0001
0100
0010
0100
1000
0100
0000
,
0100
0000
0010
0001
0010
0001
0010
0001
,
0100
0010
0100
0000
1000
0010
1000
0100
,
0010
0001
0010
1000
0010
0001
1000
0100
,
0010
0001
0100
0010
1000
0001
0010
0001
,
0100
0001
1000
0100
0010
0001
0100
0040
,
0000
0000
0000
0000
0030
0000
0001
0001
,
0010
0010
0100
0100
2000
0000
0000
0000
,
3010
0000
0010
0000
0001
0000
1000
0010
,
0100
0000
0010
0000
0100
0001
1000
0001
,
0010
0000
1000
0001
0010
0000
0010
0001
,
1000
0100
1000
0100
0001
0000
0001
1000
,
0100
0010
0001
0000
0100
0000
0002
0000
,
2003
0000
3000
0010
1000
0010
0000
0100
,
0000
0010
1000
0002
0000
0000
0000
0003
,
0100
1000
0100
0001
1000
0001
0000
0000
,
1001
0011
1010
1100
,
0011
0000
0000
1000
0001
1010
0101
0000
,
0000
1000
0100
0010
1000
0010
0100
1000
,
0001
1000
0100
1000
0001
0001
0000
0100
,
0000
0010
0000
0100
0020
0000
1000
0000
,
1030
0000
0100
0001
0100
0020
0000
1030
,
0010
1000
0001
0100
1000
0200
0000
0000
,
0000
0000
0000
0000
0300
0000
1000
0000
0100
0000
1000
0000
0010
0000
0000
0010
,
0000
0000
0010
0000
0000
0010
0000
0000
0010
0000
0000
0000
0100
0000
0100
0000
,
1000
1000
0010
0010
0100
0100
0001
0001
,
0010
0100
1000
1000
0001
0010
0100
0000
,
0100
1000
1000
0001
,
0100
0000
0001
0000
1000
0000
0001
0001
,
0010
0010
0100
0100
0001
0001
0100
0100
,
0010
0010
1000
1000
0100
0100
0010
0000
,
0010
0100
0100
0010
,
1000
0010
0100
0001
0010
0100
0002
0000
,
0000
0000
0000
0000
,
0000
0000
0000
0000
,
0000
0000
0000
0000
,
0000
0000
0000
0000
,
0000
0000
0000
0000
0000
0000
0000
0000
0000
0000
0000
0000
0000
0003
1000
0000
,
0001
1000
0000
0100
0010
0001
0010
0000
,
0001
0000
1000
0001
1000
0110
0000
0000
,
1100
0110
1100
0011
,
0101
0000
0000
0000
0000
0000
0110
0000
0000
0011
0000
0000
0101
0000
0000
1100
,
0000
0010
0001
1000
0010
0000
0100
1000
,
0001
0000
0000
0000
0010
0000
0000
0000
0100
0000
1000
0000
0000
0110
0000
0000
,
0000
0011
0000
0100
1001
0000
0110
0000
,
0110
0000
1001
0000
0000
1010
0000
0100
,
0001
0100
0010
0000
0100
2000
0000
0000
,
0000
0000
3000
0001
0100
0010
0000
1000
,
0010
2000
0000
3001
0100
0000
0020
0000
,
0000
0000
0000
0030
,
0000
0000
0000
1001
;
