#TITLE:Down on Love;
#SUBTITLE:(feat. Moksi and Yade Lauren);
#ARTIST:Yellow Claw;
#TITLETRANSLIT:;
#SUBTITLETRANSLIT:;
#ARTISTTRANSLIT:;
#GENRE:;
#CREDIT:;
#MUSIC:Down on Love.ogg;
#BANNER:Down on love.png;
#BACKGROUND:Down on Love-bg.png;
#CDTITLE:ThreeFish.png;
#SAMPLESTART:45.754;
#SAMPLELENGTH:15.360;
#SELECTABLE:YES;
#OFFSET:-0.154;
#BPMS:0.000=125.000;
#STOPS:;
#BGCHANGES:;
#FGCHANGES:;

//--------------- dance-single - ThreeFish ----------------
#NOTES:
     dance-single:
     ThreeFish:
     Beginner:
     1:
     0,0,0,0,0:
0000
0000
0000
0000
,
0000
0000
0000
0000
,
0000
0000
0000
0000
,
0000
0000
0000
0000
,
0000
0000
0000
0000
,
0000
0000
0000
0000
,
0000
0000
0000
0000
,
0000
0000
0000
0000
,
1000
0000
0000
0000
,
0001
0000
0000
0000
,
0010
0000
0000
0000
,
0100
0000
0000
0000
,
1000
0000
0000
0000
,
0010
0000
0000
0000
,
0100
0000
0000
0000
,
0001
0000
0000
0000
,
0000
0010
0000
0010
,
0000
0100
0000
0100
,
0000
1000
0000
1000
,
0000
0001
0000
0001
,
0000
0100
0000
0100
,
0000
0010
0000
0010
,
0000
1000
0000
1000
,
0001
0001
0001
0000
,
0010
0000
0100
0000
,
1000
0000
0000
0000
,
0001
0000
0000
0000
,
0100
0000
0000
0000
,
0010
0000
0100
0000
,
0001
0000
0000
0000
,
1000
0000
0000
0000
,
0100
0000
0000
0000
,
1000
0000
0100
0000
,
1000
0000
0010
0000
,
0100
0000
0001
0000
,
0100
0000
0010
0000
,
1000
0000
0010
0000
,
1000
0000
0100
0000
,
0010
0000
0001
0000
,
0010
0000
0100
0000
,
2000
0000
3000
0000
,
0020
0000
0030
0000
,
0200
0000
0300
0000
,
0002
0000
0003
0000
,
0020
0000
0030
0000
,
0200
0000
0300
0000
,
2000
3000
0020
0030
,
0200
0000
0000
0300
,
0010
0000
0100
0000
,
1000
0000
0000
0000
,
0001
0000
0000
0000
,
0100
0000
0000
0000
,
0010
0000
0100
0000
,
0001
0000
0000
0000
,
1000
0000
0000
0000
,
0100
0000
0000
0000
,
1000
0000
0100
0000
,
1000
0000
0010
0000
,
0100
0000
0001
0000
,
0100
0000
0010
0000
,
1000
0000
0010
0000
,
1000
0000
0100
0000
,
0010
0000
0001
0000
,
0010
0000
0100
0000
;

//--------------- dance-single - ThreeFish ----------------
#NOTES:
     dance-single:
     ThreeFish:
     Easy:
     3:
     0,0,0,0,0:
0000
0000
0000
0000
,
0000
0000
0000
0000
,
0000
0000
0000
0000
,
0000
0000
0000
0000
,
0000
0000
0000
0000
,
0000
0000
0000
0000
,
0000
0000
0000
0000
,
0000
0000
0000
0000
,
1000
0000
0000
0000
,
0001
1000
0000
0010
,
0100
0001
0000
0010
,
0100
1000
0000
0001
,
0100
0010
0000
1000
,
0001
0010
0000
0100
,
1000
0001
0000
0100
,
0010
1000
0000
0100
,
1000
0000
0000
1000
0000
0000
1000
0000
0000
0000
0000
0000
0010
0000
0000
0000
,
0100
0000
0000
0100
0000
0000
0100
0000
0000
0000
0000
0000
0001
0000
0000
0000
,
0010
0000
0000
0010
0000
0000
0010
0000
0000
0000
0000
0000
0100
0000
0000
0000
,
1000
0000
0000
1000
0000
0000
1000
0000
0000
0000
0000
0000
0000
0000
0000
0000
,
0001
0000
0000
0001
0000
0000
0001
0000
0000
0000
0000
0000
0100
0000
0000
0000
,
0010
0000
0000
0010
0000
0000
0010
0000
0000
0000
0000
0000
1000
0000
0000
0000
,
0100
0000
0000
0100
0000
0000
0100
0000
0000
0000
0000
0000
0010
0000
0000
0000
,
0001
0000
1000
0000
0001
1000
0001
0000
,
0100
0001
0010
0001
,
2001
0000
3000
0100
,
0010
0001
0010
0000
0000
0000
0001
0000
,
1000
0100
1000
0000
0010
0000
0100
0000
,
0010
1000
0100
1000
,
1002
0000
0003
0010
,
0100
1000
0100
0000
0000
0000
1000
0000
,
0001
0010
0001
0000
0100
0000
0001
0000
,
1000
0010
0100
0001
,
1000
0100
1000
0010
,
0100
0001
0010
0100
,
1000
0100
1000
0001
,
1000
0100
0010
0001
,
1000
0010
1000
0100
,
0010
0001
0100
0010
,
1000
0010
0100
0001
,
2000
0000
0000
3000
,
0200
0000
0000
0300
,
0020
0000
0000
0030
,
0002
0000
0000
0003
,
0200
0000
0000
0300
,
0020
0000
0000
0030
,
2000
3000
0200
0300
,
0020
0000
0000
0030
,
0100
1000
0010
1000
,
1002
0000
0003
0100
,
0010
1000
0010
0000
0000
0000
1000
0000
,
0001
0100
0001
0000
0010
0000
0100
0000
,
0010
0001
0100
0001
,
2001
0000
3000
0010
,
0100
0001
0100
0000
0000
0000
0001
0000
,
1000
0010
1000
0000
0100
0000
1000
0000
,
0001
0010
0100
1000
,
0001
0100
0001
0010
,
0100
1000
0010
0100
,
0001
0100
0001
1000
,
0001
0100
0010
1000
,
0001
0010
0001
0100
,
0010
1000
0100
0010
,
0001
0010
0100
1000
;

//--------------- dance-single - ThreeFish ----------------
#NOTES:
     dance-single:
     ThreeFish:
     Medium:
     6:
     0,0,0,0,0:
0000
0000
0000
0000
,
0000
0000
0000
0000
,
0000
0000
0000
0000
,
0000
0000
0000
0000
,
0000
0000
0000
0000
,
0000
0000
0000
0000
,
0000
0000
0000
0000
,
0000
0000
0000
00M0
,
1000
0000
0000
0100
0000
0000
1000
0000
0000
0000
0001
0000
0100
0000
0000
0000
,
0010
1000
1000
0000
0000
0000
0000
0000
,
0001
0000
0000
0010
0000
0000
0100
0000
0000
0000
1000
0000
0010
0000
0000
0000
,
0100
0001
0001
0000
0000
0000
0000
0000
,
0010
0000
0100
0010
0001
1000
0010
0000
,
0010
1000
0200
0000
0300
0000
0000
0000
,
0010
0000
0001
0100
0010
1000
0100
0000
,
0100
0010
0002
0000
0003
0000
0000
0000
,
1000
0000
0000
0100
0000
0000
1000
0000
0000
0000
0010
0000
0100
0000
0001
0000
,
0100
0000
0000
0010
0000
0000
0100
0000
0000
0000
0001
0000
1000
0000
0100
0000
,
0010
0000
0000
0001
0000
0000
0010
0000
0000
0000
0100
0000
1000
0000
0010
0000
,
0100
0000
0000
0001
0000
0000
0100
0000
0000
0000
0010
0000
0010
0000
0100
0000
,
0001
0000
0000
0010
0000
0000
0001
0000
0000
0000
0100
0000
0010
0000
1000
0000
,
0010
0000
0000
0100
0000
0000
0010
0000
0000
0000
1000
0000
0001
0000
0010
0000
,
0100
0000
0000
1000
0000
0000
0100
0000
0000
0000
0010
0000
0001
0000
0100
0000
,
0010
0010
0100
0100
0001
0010
0100
1000
,
0020
0030
2010
3000
0002
0003
0102
0003
,
1000
0000
0000
0000
0000
0000
0001
0100
,
0010
0100
0001
0000
0000
0000
1000
0010
,
0100
0010
1000
0000
0000
0010
0100
0001
,
0020
0030
0012
0003
2000
3000
2100
3000
,
0001
0000
0000
0000
0000
0000
1000
0100
,
0010
0100
1000
0000
0000
0000
0001
0010
,
0100
0010
0001
0000
0100
0000
0010
1000
,
0001
0000
0010
0100
1000
0000
0100
0010
,
0001
0010
0100
1000
0001
0000
0010
0001
,
1000
0000
0010
0100
0001
0000
0100
0010
,
1000
0010
0100
0001
1000
0000
0100
1000
,
0001
0000
0100
0010
1000
0000
0010
0100
,
0001
0100
0010
1000
0001
0000
0100
0001
,
1000
0000
0100
0010
0001
0000
0010
0100
,
1000
0100
0010
0001
1000
0000
0100
0010
,
0002
0000
0000
0000
0003
0100
0010
1000
,
0200
0000
0000
0000
0300
0000
0010
0001
,
0200
0000
0000
0301
,
2000
0000
0000
0000
3000
0000
0010
0100
,
0000
0000
0001
0100
0002
0000
0000
0000
0003
0000
1000
0000
0100
0000
0010
0000
,
0200
0000
0000
0000
0300
0010
0001
0100
,
0010
2000
3200
0320
,
0032
0000
0003
0000
0000
0000
0100
0001
,
0020
0030
0012
0003
2000
3000
2100
3000
,
0001
0000
0000
0000
0000
0000
1000
0100
,
0010
0100
1000
0000
0000
0000
0001
0010
,
0100
0010
0001
0000
0000
0010
0100
1000
,
0020
0030
2010
3000
0002
0003
0102
0003
,
1000
0000
0000
0000
0000
0000
0001
0100
,
0010
0100
0001
0000
0000
0000
1000
0010
,
0100
0010
1000
0000
0100
0000
0010
0001
,
1000
0000
0010
0100
0001
0000
0100
0010
,
1000
0010
0100
0001
1000
0000
0010
1000
,
0001
0000
0010
0100
1000
0000
0100
0010
,
0001
0010
0100
1000
0001
0000
0100
0001
,
1000
0000
0100
0010
0001
0000
0010
0100
,
1000
0100
0010
0001
1000
0000
0100
1000
,
0001
0000
0100
0010
1000
0000
0010
0100
,
0001
0100
0010
1000
0001
0000
1000
0000
;

//--------------- dance-single - ThreeFish ----------------
#NOTES:
     dance-single:
     ThreeFish:
     Hard:
     8:
     0,0,0,0,0:
0000
0000
0000
0000
,
0000
0000
0000
0000
,
0000
0000
0000
0000
,
0000
0000
0000
0000
,
0000
0000
0000
0000
,
0000
0000
0000
0000
,
0000
0000
0000
0000
,
0000
0000
0000
0000
0000
0000
0000
0000
0000
0000
0000
0000
0000
0000
0000
0000
0000
0000
0000
0000
0000
0000
0000
0000
00M0
0000
0000
0000
0000
0000
0000
0010
,
1000
0000
0000
0100
0000
0100
1000
0000
0000
0000
0001
0000
0100
0000
0000
0010
,
0000
0000
1000
0000
0000
0000
1000
0000
0000
0000
0000
0000
0000
0000
0000
0000
0000
0000
0000
0000
0010
0000
0000
0000
0000
0000
0100
0000
0000
0000
0000
0001
,
0100
0000
0000
0010
0000
0010
0100
0000
0000
0000
0001
0000
0010
0000
0000
0100
,
0000
0000
1000
0000
0000
0000
1000
0000
0000
0000
0000
0000
0000
0000
0000
0000
0100
0000
0000
0000
0000
0000
0010
0000
0000
0000
0000
0000
0001
0000
0000
1000
,
0010
0000
0000
0100
0000
0100
0000
0010
0000
1000
0000
0001
0000
0000
0000
0010
,
0000
0000
0001
0000
0000
0000
0200
0000
0000
0000
0000
0000
0310
0000
0000
0000
0000
0000
0000
0000
1000
0000
0000
0000
0000
0000
0001
0000
0000
0000
0000
0010
,
0100
0000
0000
1000
0000
1000
0000
0100
0000
0010
0000
0001
0000
0000
0000
0100
,
0000
0001
0000
0020
0000
0000
0031
0000
0400
0000
0000
0000
0340
0000
0000
0000
,
1030
0000
0000
0100
0000
0000
1000
0000
0000
0000
0010
0000
0100
0000
0001
0000
,
0100
0000
0000
0010
0000
0000
0010
0100
0000
0000
0001
0000
1000
0000
0100
0000
,
0010
0000
0000
0001
0000
0000
0010
0000
0000
0000
0100
0000
1000
0000
0010
0000
,
0100
0000
0000
0001
0000
0000
0001
0100
0000
0000
0010
0000
0010
0000
0100
0000
,
0001
0000
0000
0010
0000
0000
0001
0000
0000
0000
0100
0000
0010
0000
1000
0000
,
0010
0000
0000
0100
0000
0000
0100
0010
0000
0000
1000
0000
0001
0000
0010
0000
,
0100
0000
0000
1000
0000
0000
0100
0000
0000
0000
0010
0000
0001
0000
0100
0000
,
0010
0000
0010
0000
0100
0000
0100
0000
0001
0100
0010
1000
0100
0000
1000
0000
,
0010
0102
0013
2200
,
3311
0000
0000
0000
1000
0000
1000
0100
0000
0100
0010
0000
0001
0000
0100
0010
,
0000
0100
0000
0001
0000
0000
0010
0100
0000
0000
1000
0000
0001
0000
0010
0100
,
0000
0010
0000
0001
0000
0000
0001
1000
0000
1000
0010
0000
0100
0000
0001
0000
,
0010
2100
3010
0202
,
1313
0000
0000
0000
0001
0000
0001
0100
0000
0100
0010
0000
1000
0000
0100
0010
,
0000
0100
0000
1000
0000
0000
0010
0100
0000
0000
0001
0000
1000
0000
0010
0100
,
0000
0010
0000
1000
0000
0000
0001
0100
0001
1000
0010
1000
0100
M0MM
0100
0000
,
0001
0000
0000
0000
0010
0M00
0010
0000
1000
0000
0000
0000
0100
00M0
0100
0000
,
0001
0000
0010
0M00
0010
0000
1000
0000
0001
0000
0000
0000
0010
0M00
0010
0000
,
1000
0000
0000
0000
0100
00M0
0100
0000
0001
0000
0000
0000
0010
0M00
0010
0000
,
1000
0000
0100
00M0
0100
0000
0001
0000
1000
0000
0000
0000
0010
0M00
0010
0000
,
0001
0000
0000
0000
0100
00M0
0100
0000
1000
0000
0000
0000
0010
0M00
0010
0000
,
0001
0000
0100
00M0
0100
0000
1000
0000
0001
0000
0000
0000
0100
00M0
0100
0000
,
1000
0000
0000
0000
0010
0M00
0010
0000
0001
0000
0000
0000
0100
00M0
0100
0000
,
1000
0000
0000
0000
0010
0000
0M00
0000
0010
0000
0000
0000
0001
0000
0000
0000
1000
0000
0000
0000
0000
0000
0000
0000
0100
0000
0000
0000
0000
0010
0000
0000
,
0002
0000
1000
0000
0000
0103
0010
1000
,
0200
0000
0000
0000
0000
0000
0000
0000
0010
0000
0000
0000
0000
0000
0000
0000
0000
0000
0000
0000
0000
0000
0000
0000
0310
0000
0000
0000
0001
0000
0000
0200
,
0000
0010
0000
0301
,
2000
0000
0100
0000
0000
0000
3010
0100
,
0000
0000
0001
0100
0002
0000
0000
0000
0000
0000
1003
0000
0100
0000
0010
0000
,
0200
0000
1000
0000
0000
0310
0001
0100
,
0010
2000
0200
0020
,
0002
0000
3333
0000
0000
0000
1000
0001
,
0010
2100
3010
0202
,
1313
0000
0000
0000
0001
0000
0001
0100
0000
0100
0010
0000
1000
0000
0100
0001
,
0000
0100
0000
1000
0000
0000
0010
0100
0000
0000
0001
0000
1000
0000
0010
0001
,
0000
0010
0000
1000
0000
0000
1000
0001
0000
0001
0010
0000
0100
0000
1000
0000
,
0010
0102
0013
2200
,
3311
0000
0000
0000
1000
0000
1000
0100
0000
0100
0010
0000
0001
0000
0100
1000
,
0000
0100
0000
0001
0000
0000
0010
0100
0000
0000
1000
0000
0001
0000
0010
1000
,
0000
0010
0000
0001
0000
0000
1000
0100
1000
0001
0010
0001
0100
M0MM
0100
0000
,
1000
0000
0000
0000
0010
0M00
0010
0000
0001
0000
0000
0000
0100
00M0
0100
0000
,
0010
0000
1000
000M
1000
0000
0100
0000
1000
0000
0000
0000
0010
0M00
0010
0000
,
0001
0000
0000
0000
0100
00M0
0100
0000
1000
0000
0000
0000
0010
0M00
0010
0000
,
0100
0000
0001
M000
0001
0000
0010
0000
0001
0000
0000
0000
0010
0M00
0010
0000
,
1000
0000
0000
0000
0100
00M0
0100
0000
0001
0000
0000
0000
0010
0M00
0010
0000
,
0100
0000
1000
000M
1000
0000
0010
0000
1000
0000
0000
0000
0100
00M0
0100
0000
,
0001
0000
0000
0000
0010
0M00
0010
0000
1000
0000
0000
0000
0100
00M0
0100
0000
,
0010
0000
0001
M000
0001
0000
0100
0000
0001
0000
0000
0010
0000
0000
0100
0000
;
