#TITLE:dame un grrr;
#SUBTITLE:;
#ARTIST:Fantomel x @KateLinnOfficial;
#TITLETRANSLIT:;
#SUBTITLETRANSLIT:;
#ARTISTTRANSLIT:;
#GENRE:;
#CREDIT:;
#MUSIC:dame un grrr.mp3;
#BANNER:dame un grrr.png;
#BACKGROUND:ame un grrr-bg.png;
#CDTITLE:;
#SAMPLESTART:0.750;
#SAMPLELENGTH:8.136;
#SELECTABLE:YES;
#OFFSET:-0.242;
#BPMS:0.000=118.000;
#STOPS:;
#BGCHANGES:0.000=dame un grrr.avi=1.000=1=0=1===CrossFade==,
99999.000=-nosongbg-=1.000=0=0=0=StretchNoLoop====
#FGCHANGES:;

//--------------- dance-single - ----------------
#NOTES:
     dance-single:
     :
     Easy:
     7:
     0,0,0,0,0:
0000
0000
0200
0300
,
0001
0000
0000
1000
0020
0000
0030
0000
,
0100
0000
0100
0010
2000
0000
3000
0000
,
0020
0000
0030
0100
0002
0000
0003
0000
,
0100
0010
0100
0010
2000
0000
3000
0001
,
0020
0000
0030
0100
0002
0000
0003
0000
,
0200
0000
0300
1000
0020
0000
0030
1000
,
0200
0000
0300
0010
2000
0000
3000
0000
,
0001
1000
0100
0000
0010
0000
0000
1000
,
0000
0010
0000
0010
0000
0001
0000
1000
,
0001
0000
0100
0000
0001
0000
0100
0000
0000
0010
0000
0000
0100
0000
0000
0000
,
1000
0000
0010
0000
1000
0000
0010
0000
0000
0100
0000
0000
0001
0000
0000
0000
,
0100
0000
1000
0100
0010
0100
1000
0000
,
0100
1000
0020
0000
0030
0100
0002
0000
,
0000
0003
0000
0000
1000
0001
0100
0010
,
0100
0000
0020
0000
0030
1000
0002
0000
,
0000
0000
0003
0000
0100
0000
0000
0000
1000
0000
0000
0010
0000
0000
0010
0000
,
0100
0000
0100
0000
0010
0000
0000
0000
0100
0000
0000
0010
0000
0000
0010
0000
,
1000
0010
0002
0000
,
0000
0000
0103
0000
,
0000
0010
0200
0300
,
0001
0000
0000
1000
0002
0000
0003
0000
,
0010
0000
0010
0100
2000
0000
3000
0000
,
0010
0000
0000
0001
0200
0000
0300
0000
,
1000
0000
0010
0100
2000
0000
3000
0001
,
0020
0000
0030
0100
0002
0000
0003
0000
,
0100
0000
0100
1000
0020
0000
0030
0000
,
0100
0000
0000
0010
2000
0000
3000
0000
,
0000
0000
0000
0001
2000
0000
3000
0001
,
0020
0000
0030
0100
2000
0000
3000
0000
,
0020
0000
0000
0000
0030
0000
1000
0000
0000
0000
0000
0010
0000
0000
1000
0000
,
0200
0000
0300
0010
0200
0000
0300
0000
,
0100
1000
0200
0000
0300
0000
0001
0020
,
0000
0030
1000
0002
0000
0003
0000
0000
,
0020
0000
0030
0000
0001
0000
1000
0200
,
0000
0300
0010
0002
0000
0003
0000
0000
,
1000
0001
1000
0000
0010
0100
0010
0000
,
1000
0100
1000
0100
0001
0000
0001
0100
,
0001
0100
0001
0000
1000
0000
1000
0000
,
0001
0100
0001
0000
0100
0000
0000
0010
,
1000
0010
0100
0001
0010
0001
1000
0000
,
0100
1000
0020
0000
0030
0100
0001
2000
,
0000
3000
0000
0000
1000
0001
0100
0010
,
0100
0000
0020
0000
0030
1000
0002
0000
,
0000
0000
0003
0000
0100
0000
0000
0000
1000
0000
0000
0010
0000
0000
0010
0000
,
1000
0000
1000
0000
0010
0000
0000
0000
0100
0000
0000
0010
0000
0000
0010
0000
,
1000
0010
0200
0000
,
0000
0000
0301
1000
,
0020
0000
0030
0000
0100
0000
0000
0010
,
2000
0000
3000
0000
0010
0000
0010
1000
,
0002
0000
0003
0000
0100
0000
0000
0010
,
2000
0000
3000
0000
0010
0000
0100
0010
,
0002
0000
0003
0000
0100
0000
0000
1000
,
0020
0000
0030
0000
0001
0000
0001
1000
,
0200
0000
0300
0000
0001
0000
0000
1000
,
0020
0000
0000
0030
0000
0000
0000
0000
,
0000
0000
0000
0100
0000
0000
0001
2000
,
0000
3000
0001
0020
0000
0030
0100
2000
,
0000
3000
0000
0020
0000
0030
1000
0000
,
0000
0010
0000
0000
1000
0000
0200
0000
0000
0000
0300
0000
0010
0000
0200
0000
,
0000
0300
0000
0100
0001
0100
0000
0010
,
0000
1000
0020
0000
0030
1000
0002
0000
,
0003
0000
0200
0000
0300
1000
0000
0000
,
0001
1000
0200
0000
0300
0010
0002
0000
,
0003
0000
0000
0010
0100
0010
1000
0002
,
0000
0003
0000
0000
0000
0000
0000
0000
;

//--------------- dance-single - mekacat ----------------
#NOTES:
     dance-single:
     mekacat:
     Medium:
     9:
     0,0,0,0,0:
0000
0000
0000
0000
0200
0000
0300
1000
,
0001
0000
0000
1000
0020
0000
0030
1000
,
0010
1000
0010
0001
2000
0000
3000
0001
,
0020
0000
0030
0100
0002
0000
0003
0000
,
0100
0010
0100
0010
2000
0000
3000
0001
,
0020
0000
0030
0100
0002
0000
0003
0000
,
0200
0000
0300
1000
0020
0000
0030
1000
,
0200
0000
0300
0010
2000
0000
3000
0000
,
0001
1000
0100
0000
0010
0000
0000
1000
,
0100
0010
0100
0010
0000
0001
1000
0001
,
1000
0000
0100
0000
1000
0000
0100
0000
0000
0010
0000
0000
0100
0000
0100
0000
,
1000
0000
0010
0000
1000
0000
0010
0000
0000
0100
0000
0000
0001
0000
0000
0000
,
0100
0010
1000
0100
0010
0100
1000
0100
,
0010
1000
0020
0000
0030
0100
0002
0000
,
0000
1003
0000
0000
1000
0001
0100
0010
,
0100
1000
0020
0000
0030
1000
0002
0000
,
0000
0000
1003
0000
0100
0000
0000
0000
1000
0000
0000
0010
0000
0000
0010
0000
,
0100
0000
0100
0000
0010
0000
0100
0000
1000
0000
0000
0010
0000
0000
0010
0000
,
1000
0010
0004
0000
,
0000
0000
0103
0000
,
0000
0000
0010
1000
0200
0000
0300
1000
,
0001
0000
0000
0100
0002
0000
0003
0100
,
0010
0100
0010
1000
0020
0000
0030
0100
,
0010
0000
0000
0001
0200
0000
0300
0000
,
1000
0000
0010
0100
2000
0000
3000
0001
,
0020
0000
0030
0100
0002
0000
0003
1000
,
0100
1000
0100
0001
0200
0000
0300
1000
,
0100
0000
0000
0010
2000
0000
3000
0000
,
0000
0000
0000
0001
2000
0000
3000
0001
,
0020
0000
0030
0100
2000
0000
3000
0000
,
0020
0000
0000
0000
0030
0000
1000
0000
0001
0000
0000
0010
0000
0000
1000
0000
,
0200
0000
0300
0010
0200
0000
0300
0000
,
0100
1000
0200
0000
0300
0010
0001
0020
,
0000
0030
1000
0002
0000
0003
0000
0000
,
0020
0000
0030
0100
0000
0001
0001
0200
,
0000
0300
1000
0002
0000
0003
0000
0000
,
1000
0001
2000
0000
3010
0100
0010
0000
,
1000
0100
1000
0100
0001
1000
0001
0100
,
0001
0100
0001
0000
1000
0010
1000
0000
,
0001
0100
0001
0000
0100
1000
0001
0010
,
1000
0010
0001
0001
0010
0001
1000
0001
,
0010
0100
0020
0000
0030
0100
0001
2000
,
0000
3000
0000
0000
1000
0001
0100
0010
,
0100
0001
0020
0000
0030
1000
0002
0000
,
0000
0000
0003
0000
0100
0000
0000
0000
1000
0000
0000
0010
0000
0000
0010
0000
,
1000
0000
1000
0000
0010
0000
1000
0000
0100
0000
0000
0010
0000
0000
0010
0000
,
1000
0000
0010
0001
4000
0000
0000
0000
,
0000
0000
0000
0000
3001
0000
1000
0001
,
0020
0000
0030
0000
0100
0000
0000
0010
,
2000
0000
3000
0001
0010
0001
0010
1000
,
0002
0000
0003
0010
0100
0000
0000
0010
,
2000
0000
3000
0000
0010
0000
0100
0010
,
0002
0000
0003
1000
0100
0000
0000
1000
,
0020
0000
0030
1000
0001
1000
0001
0010
,
0200
0000
0300
0000
0001
0000
0000
1000
,
0020
0000
0000
0030
0000
0000
0000
0000
,
0000
0000
0010
0100
0000
0000
0001
2000
,
0000
3000
0001
0020
0000
0030
0100
2000
,
0000
3000
0000
0020
0000
0030
1000
0000
,
0000
0010
0000
0000
1000
0000
0200
0000
0000
0000
0300
0000
0010
0000
0200
0000
,
0000
0300
0000
0100
0001
0100
0000
0010
,
0100
1000
0020
0000
0030
1000
0002
0000
,
0003
0000
0200
0000
0300
1000
0010
0000
,
0001
1000
0200
0000
0300
0010
0002
0000
,
0003
0000
0000
0010
0100
0010
1000
0002
,
0000
0003
0000
0000
0000
0000
0000
0000
;

//--------------- dance-single - mekacat ----------------
#NOTES:
     dance-single:
     mekacat:
     Hard:
     11:
     0,0,0,0,0:
0000
0000
0000
0000
0200
0000
0300
1000
,
0001
0000
0001
1000
0020
0000
0030
1000
,
0010
1000
0010
0001
2000
0000
3001
0001
,
0020
0000
0130
0100
0002
0000
0003
0000
,
1001
0010
0100
0010
2000
0000
3001
0001
,
0020
0000
1030
1000
0002
0000
0003
0000
,
0200
0000
0301
1000
0020
0000
1030
1000
,
0200
0000
0300
0010
2000
0000
3000
0000
,
0002
1000
0203
0000
0310
0000
0000
1000
,
0100
0010
0100
0010
0000
0001
1000
0001
,
1000
0000
0100
0000
1000
0000
0100
0000
0000
0010
0000
0000
0100
0000
0100
0000
,
1000
0000
0010
0000
1000
0000
0010
0000
0000
0100
0000
0000
0001
0000
1000
0000
,
0100
0100
1000
0100
0001
0100
1000
0100
,
0001
1000
0020
0000
1030
0100
0002
0000
,
0000
1003
0000
0000
1000
0001
0100
0010
,
0100
1000
0020
0000
0130
1000
0002
0000
,
0000
0000
1003
0000
0100
0000
0010
0000
1000
0000
0000
0100
0000
0000
0100
0000
,
0001
0000
0001
0000
0010
0000
0100
0000
1000
0000
0000
0010
0000
0000
0010
0000
,
1000
0000
0010
0100
0004
0000
0000
0000
,
0000
0000
0103
0000
,
0000
0000
0010
1000
0200
0000
0300
1000
,
0001
0010
0010
0100
0002
0000
0003
0100
,
0010
0100
0010
1000
0020
0000
0030
0100
,
0010
1000
1000
0001
0200
0000
0300
0000
,
1000
0000
0010
0100
2000
0000
3000
0001
,
0020
0000
0030
0100
0002
0000
0003
1000
,
0100
1000
0100
0001
0200
0000
0300
1000
,
0100
0010
0010
0100
0002
0000
0003
0000
,
0000
0000
0000
0001
2000
0000
3001
0001
,
0020
0000
0030
0100
2000
0000
3000
0000
,
0020
0000
1030
1000
0001
0010
0010
1000
,
0200
0001
0301
0010
0200
0000
0300
0000
,
0100
1000
0200
0000
0310
0010
0001
0020
,
0000
1030
1000
0002
0000
0103
0000
0000
,
0020
0000
0031
1000
0000
0001
0001
0200
,
0000
1300
1000
0002
0000
0013
0000
0010
,
0200
0001
2300
0000
3010
0100
0010
0000
,
1000
0100
1000
0100
0001
1000
0001
0100
,
0001
0100
0001
0000
1000
0010
1000
0000
,
0001
0100
0001
0010
0100
1000
0001
0010
,
1000
0010
0001
0001
0010
0001
1000
0001
,
0010
0100
0020
0000
0030
0100
0001
2000
,
0000
3100
0100
0000
1000
0001
0100
0010
,
0100
0001
0020
0000
0030
1000
0002
0000
,
0000
0000
0103
0000
0100
0000
0010
0000
1000
0000
0000
0010
0000
0000
0010
0000
,
1000
0000
1000
0000
0010
0000
1000
0000
0100
0000
0000
0010
0000
0000
0010
0000
,
1000
0000
0010
0001
4000
0000
0000
0000
,
0000
0000
0000
0000
3001
0000
1000
0001
,
0020
0000
1030
0000
0100
0000
0000
0010
,
2000
0000
3000
0001
0010
0001
0010
1000
,
0002
0000
0003
0010
0100
0001
0001
0010
,
2000
0000
3000
0100
0010
0000
0100
0010
,
0002
0000
0003
1000
0100
0010
0010
1000
,
0020
0000
0030
1000
0001
1000
0001
0010
,
0200
0000
0300
1000
0001
0010
0010
1000
,
0020
0000
0000
1030
0000
0000
0000
0000
,
0000
0000
0010
0100
0000
0000
0001
2000
,
0000
3100
0100
0002
0000
0003
0100
2000
,
0000
3000
0100
0020
0000
1030
1000
0000
,
0010
0010
1000
0200
0000
0310
0010
0200
,
0000
0300
0000
0100
0001
0100
0000
0010
,
0100
1000
0020
0000
1030
1000
0002
0000
,
0003
0000
0200
0000
1300
1000
0010
0000
,
0001
1000
0200
0000
0310
0010
0002
0000
,
1003
0100
0010
0010
0100
0010
1000
0002
,
0000
0003
0000
0000
0000
0000
0000
0000
;
