#TITLE:Blueberry Eyes;
#SUBTITLE:(feat. SUGA of BTS);
#ARTIST:MAX;
#TITLETRANSLIT:;
#SUBTITLETRANSLIT:;
#ARTISTTRANSLIT:;
#GENRE:;
#CREDIT:;
#MUSIC:Blueberry Eyes.ogg;
#BANNER:Blueberry Eyes-bn.png;
#BACKGROUND:Blueberry Eyes-bg.png;
#CDTITLE:ThreeFish.png;
#SAMPLESTART:37.579;
#SAMPLELENGTH:25.600;
#SELECTABLE:YES;
#OFFSET:-0.079;
#BPMS:0.000=150.000
,320.000=75.000
;
#STOPS:;
#BGCHANGES:;
#FGCHANGES:;

//--------------- dance-single - ThreeFish ----------------
#NOTES:
     dance-single:
     ThreeFish:
     Beginner:
     2:
     0,0,0,0,0:
0000
0000
0000
0000
,
0000
0000
0000
0000
,
0000
0000
0000
0000
,
0000
0000
0000
0000
,
0000
0000
0000
0000
,
0000
0000
0000
0000
,
0000
0000
0000
0000
,
0000
0000
0000
0000
,
1000
0000
1000
0000
,
1000
0000
1000
0000
,
0001
0000
0001
0000
,
0001
0000
0001
0000
,
0100
0000
0100
0000
,
0100
0000
0100
0000
,
0010
0000
0010
0000
,
0010
0000
0010
0000
,
1000
0000
0000
0000
,
0100
0000
0000
0000
,
0010
0000
0000
0000
,
0001
0000
0000
0000
,
0100
0000
0000
0000
,
0010
0000
0000
0000
,
1000
0000
0000
0000
,
0001
0000
0000
0000
,
0100
0000
0100
0000
,
0010
0000
0010
0000
,
0100
0000
0100
0000
,
0001
0000
0001
0000
,
0100
0000
0100
0000
,
0010
0000
0010
0000
,
1000
0000
1000
0000
,
0010
0000
0010
0000
,
0100
0000
0100
0000
,
0001
0000
0001
0000
,
0010
0000
0010
0000
,
0001
0000
0001
0000
,
1000
0000
1000
0000
,
0010
0000
0010
0000
,
0100
0000
0100
0000
,
0010
0000
0010
0000
,
1000
0000
0000
0000
,
0000
0000
0000
0000
,
0001
0000
0001
0000
,
0001
0000
0001
0000
,
0100
0000
0100
0000
,
0100
0000
0100
0000
,
0010
0000
0010
0000
,
0010
0000
0010
0000
,
1000
0000
0000
0000
,
0100
0000
0000
0000
,
0010
0000
0000
0000
,
0001
0000
0000
0000
,
0100
0000
0000
0000
,
0010
0000
0000
0000
,
1000
0000
0000
0000
,
0001
0000
0000
0000
,
0010
0000
0010
0000
,
0100
0000
0100
0000
,
0010
0000
0010
0000
,
0001
0000
0001
0000
,
0010
0000
0010
0000
,
0100
0000
0100
0000
,
1000
0000
1000
0000
,
0100
0000
0100
0000
,
0010
0000
0010
0000
,
0001
0000
0001
0000
,
0100
0000
0100
0000
,
0001
0000
0001
0000
,
1000
0000
1000
0000
,
0100
0000
0100
0000
,
0010
0000
0010
0000
,
0100
0000
0100
0000
,
1000
0000
0000
0000
,
0001
0000
0000
0000
,
0100
0000
0000
0000
,
0001
0000
0000
0000
,
1000
0000
0000
0000
,
0010
0000
0000
0000
,
0100
0000
0000
0000
,
0001
0000
0000
0000
,
0000
0000
0000
0000
,
0000
0000
0000
0000
,
0000
0000
0000
0000
,
0000
0000
0000
0000
,
0000
0000
0000
0000
,
0000
0000
0000
0000
0000
0000
0000
0000
0000
0000
0000
0000
0000
0000
0000
0000
0000
0000
0000
0000
0000
0000
0000
0000
0000
0000
0000
0000
0000
0000
0000
0000
0000
0000
0000
0000
0000
0000
0000
0000
0000
0000
0000
0000
0000
0000
0000
0000
0000
0000
0000
0000
0000
000M
0000
0000
0000
0000
0000
0000
0000
0000
0000
0000
0000
0000
0000
0000
0000
0000
0000
0000
0000
0000
0000
0000
0000
0000
0000
0000
0000
0000
0000
0000
0000
0000
0000
0000
0000
0000
0000
0000
0000
0000
0000
0000
;

//--------------- dance-single - ThreeFish ----------------
#NOTES:
     dance-single:
     ThreeFish:
     Easy:
     4:
     0,0,0,0,0:
0000
0000
0000
0000
,
0000
0000
0000
0000
,
0000
0000
0000
0000
,
0000
0000
0000
0000
,
0000
0000
0000
0000
,
0000
0000
0000
0000
,
0000
0000
0000
0000
,
0000
0000
0000
0000
,
1000
1000
1000
1000
,
0100
0100
0100
0100
,
0010
0010
0010
0010
,
0001
0001
0001
0001
,
0100
0100
0100
0100
,
0010
0010
0010
0010
,
1000
1000
1000
1000
,
0001
0001
0001
0001
,
0010
0110
0000
0110
,
1000
1001
0000
1001
,
0100
0110
0000
0110
,
0001
1001
0000
1001
,
0010
0110
0000
0110
,
0001
1001
0000
1001
,
0100
0110
0000
0110
,
1000
0000
0100
0010
,
0001
0000
0001
0000
0000
0010
0000
0100
,
0000
0100
0000
0000
1000
0000
1000
0000
,
0100
0000
0100
0000
0000
0010
0000
0001
,
0000
0001
0000
0000
1000
0000
1000
0000
,
0010
0000
0010
0000
0000
1000
0000
0100
,
0000
0100
0000
0000
0010
0000
0010
0000
,
0001
0000
0001
0000
0000
0010
0000
0100
,
0000
0100
0000
0000
1000
0000
1000
0000
,
0001
0000
1000
0000
0010
0000
0000
0100
,
0000
0100
0000
0000
0001
0000
0001
0000
,
0010
0000
0100
0000
1000
0000
0000
0001
,
0000
0001
0000
0000
0100
0000
0100
0000
,
0010
0000
1000
0000
0001
0000
0000
0010
,
0000
0010
0000
0000
0100
0000
0100
0000
,
1000
0000
0001
0000
0100
0000
0000
0010
,
0000
0010
0000
0000
1000
0000
1000
0000
,
0002
0000
0000
0000
,
0003
0000
0000
0000
,
0010
0010
0010
0010
,
0100
0100
0100
0100
,
1000
1000
1000
1000
,
0010
0010
0010
0010
,
0100
0100
0100
0100
,
0001
0001
0001
0001
,
0010
0000
0100
1000
,
0100
0000
0010
0001
,
0010
0000
0001
1000
,
0100
0010
0001
0010
,
0100
0000
1000
0001
,
0100
0010
1000
0001
,
0010
0100
1000
0100
,
0010
0000
0001
0001
,
1000
0000
0001
0000
0010
0000
0000
0100
,
0000
0100
0000
0000
1000
0000
1000
0000
,
0010
0000
0100
0000
0001
0000
0000
1000
,
0000
1000
0000
0000
0100
0000
0100
0000
,
0010
0000
0001
0000
1000
0000
0000
0010
,
0000
0010
0000
0000
0100
0000
0100
0000
,
0001
0000
1000
0000
0100
0000
0000
0010
,
0000
0010
0000
0000
0001
0000
0001
0000
,
1000
0000
0001
0000
0100
0000
0000
0010
,
0000
0010
0000
0000
1000
0000
1000
0000
,
0100
0000
0010
0000
0001
0000
0000
1000
,
0000
1000
0000
0000
0010
0000
0010
0000
,
0100
0000
0001
0000
1000
0000
0000
0100
,
0000
0100
0000
0000
0010
0000
0010
0000
,
0001
0000
1000
0000
0010
0000
0000
0100
,
0000
0100
0000
0000
0001
0000
0001
0000
,
1000
0000
1000
0000
0000
0000
0000
0100
,
0000
0100
0000
0000
0000
0000
0000
0000
,
0010
0000
0010
0000
0000
0000
0000
0001
,
0000
0001
0000
0000
0000
0000
0000
0000
,
0010
0000
0010
0000
0000
0000
0000
0100
,
0000
0100
0000
0000
0000
0000
0000
0000
,
1000
0000
1000
0000
0000
0000
0000
0010
,
0000
0010
0000
0000
0000
0000
0000
0000
,
0100
0000
0000
0000
,
0000
0000
0000
0000
,
0000
0000
0000
0000
,
0000
0000
0000
0000
,
0000
0000
0000
0000
,
0000
0000
0000
0000
0000
0000
0000
0000
0000
0000
0000
0000
0000
0000
0000
0000
0000
0000
0000
0000
0000
0000
0000
0000
0000
0000
0000
0000
0000
0000
0000
0000
0000
0000
0000
0000
0000
0000
0000
0000
0000
0000
0000
0000
0000
0000
0000
0000
0000
0000
0000
0000
0000
000M
0000
0000
0000
0000
0000
0000
0000
0000
0000
0000
0000
0000
0000
0000
0000
0000
0000
0000
0000
0000
0000
0000
0000
0000
0000
0000
0000
0000
0000
0000
0000
0000
0000
0000
0000
0000
0000
0000
0000
0000
0000
0000
;

//--------------- dance-single - ThreeFish ----------------
#NOTES:
     dance-single:
     ThreeFish:
     Medium:
     6:
     0,0,0,0,0:
0000
0000
0000
0000
,
0000
0000
0000
0000
,
0000
0000
0000
0000
,
0000
0000
0000
0000
,
0000
0000
0000
0000
,
0000
0000
0000
0000
,
0000
0000
0000
0000
,
0000
0000
0000
0000
,
1000
1001
1000
1000
,
1000
0010
0100
0000
0100
0000
0100
0000
,
0100
0000
0100
0001
0010
0000
0100
1000
,
0100
0010
0001
0100
,
0010
0110
0010
0010
,
0010
1000
0001
0000
0001
0000
0001
0000
,
0001
0000
0001
0010
0100
0000
1000
0000
,
0010
0100
0010
0000
1000
0000
0001
0000
,
0010
0000
0011
0000
0001
0010
0100
0000
,
1000
0000
1100
0000
0100
0010
0001
0000
,
1000
0000
1001
0000
0001
0100
0010
0000
,
1000
0010
0100
0001
,
0010
0000
0011
0000
0001
0100
0010
0000
,
1000
0100
0010
0001
,
1000
0010
0100
0001
,
0010
0000
0000
0000
0000
0000
0000
0000
0001
0000
0000
0100
0000
0000
0010
0000
,
1000
0000
1000
0000
0000
0100
0000
0010
,
0000
0000
0010
0000
0000
0000
0001
0000
0100
0000
0000
0001
0000
0000
1000
0000
,
0010
0000
0010
0000
0000
0100
0000
0001
,
0000
0000
0001
0000
0000
0000
1000
0000
0100
0000
0000
1000
0000
0000
0010
0000
,
0100
0000
0100
0000
0000
0001
0000
0010
,
0000
0000
0010
0000
0000
0000
0100
0000
1000
0000
0000
0100
0000
0000
0010
0000
,
0001
0000
0001
0000
0000
1000
0000
0010
,
0000
0010
0000
0100
0001
0000
1000
0000
,
1001
0000
0002
0000
0013
0000
0000
0100
,
0000
0000
0100
0000
0000
0000
1000
0000
0010
0000
0000
1000
0000
0000
0001
0000
,
0100
0000
0000
0000
0100
0000
0000
0000
0100
0000
0000
0000
0100
0000
0000
0000
0000
0000
0000
0000
0000
0010
0000
0000
,
0000
0000
0010
0000
0000
0000
1000
0000
0001
0000
0000
1000
0000
0000
0100
0000
,
0010
0000
0010
0000
0001
0000
0000
0100
,
0000
0000
0100
0000
0000
0000
0010
0000
1000
0000
0000
0010
0000
0000
0100
0000
,
0001
0000
0001
0000
1000
0000
0000
0100
,
0000
0100
0000
0000
0010
0000
0010
0000
,
0001
0000
2000
0000
0000
3001
0010
0001
,
0000
1000
0100
1000
0001
0000
0010
0000
,
0100
1000
0010
0100
0001
0000
0001
0010
,
0100
0000
0100
1000
0001
0000
0100
0000
,
0010
0000
2000
0000
0000
0000
3001
0010
,
0100
0000
1000
0100
0010
0000
0001
0000
,
0000
0100
0010
1000
0001
0000
0010
0100
,
1000
0000
0001
0100
1000
0100
0001
0000
,
1000
0000
0010
0000
1000
0000
0100
0010
,
0001
0000
0100
0000
0001
0000
0010
0100
,
1000
0000
0001
0000
1000
0000
0010
0100
,
0001
0000
1000
0100
0010
0000
0001
0010
,
0100
0000
1000
0000
0001
0010
0100
0000
,
1000
0010
0100
0000
0001
1000
0100
0000
,
0010
0100
1000
0001
,
0100
0000
0000
0010
0000
0000
1000
0000
0001
0000
0000
0010
0000
0000
0100
0000
,
1000
0000
1000
0000
0010
0000
0000
0100
,
0000
0000
0100
0000
0000
0000
0001
0000
0010
0000
0000
0001
0000
0000
1000
0000
,
0100
0000
0100
0000
0010
0000
0000
0001
,
0000
0000
0001
0000
0000
0000
1000
0000
0010
0000
0000
1000
0000
0000
0100
0000
,
0010
0000
0010
0000
0001
0000
0000
0100
,
0000
0000
0100
0000
0000
0000
0010
0000
1000
0000
0000
0010
0000
0000
0100
0000
,
0001
0000
0001
0000
1000
0000
0000
0100
,
0000
0100
0000
0010
0001
0000
1000
0000
,
1001
0000
0002
0000
0103
0000
0000
0010
,
0000
0000
0010
0000
0000
0000
1000
0000
0100
0000
0000
1000
0000
0000
0001
0000
,
0010
0000
0000
0000
0010
0000
0000
0000
0010
0000
0000
0000
0010
0000
0000
0000
0000
0000
0000
0000
0000
0100
0000
0000
,
0000
0000
0100
0000
0000
0000
1000
0000
0001
0000
0000
1000
0000
0000
0010
0000
,
0100
0000
0100
0000
0001
0000
0000
0010
,
0000
0000
0010
0000
0000
0000
0100
0000
1000
0000
0000
0100
0000
0000
0010
0000
,
0001
0000
0001
0000
1000
0000
0000
0010
,
0000
0010
0000
0000
0100
0000
0100
0000
,
0001
0000
0001
0000
0000
1000
0000
0010
,
0000
0010
0000
0000
0100
0000
0100
0000
,
0001
0000
0001
0000
0000
0010
0000
0100
,
0000
0100
0000
0000
1000
0000
1000
0000
,
0010
0000
0010
0000
0000
0100
0000
0001
,
0000
0001
0000
0000
1000
0000
1000
0000
,
0100
0000
0100
0000
0000
0010
0000
0001
,
0000
0001
0000
0000
0100
0000
0100
0000
,
0020
0000
0000
0000
0000
0000
0000
0000
0000
0030
0000
0000
0000
0000
0000
0000
0000
0000
0000
0000
0000
0000
0000
0000
0000
0000
2000
0000
0000
0000
0000
0000
3000
0000
0000
0000
0000
0000
0000
0000
0000
0000
0000
0000
0000
0000
0000
0000
,
0000
0000
0000
0000
0000
0000
0000
0000
0000
0000
0000
0000
0000
0000
0000
0000
0000
0000
0000
0000
0000
0000
0000
0000
0000
0000
0000
0200
0000
0000
0000
0000
0000
0000
0000
0000
0000
0000
0000
0000
0000
0000
0000
0000
0000
0000
0000
0000
0000
0000
0000
0000
0000
0000
0000
0000
0000
0000
0000
0000
0000
0000
0000
0000
0000
0000
0300
0000
0000
0000
0000
0000
0000
0000
0000
0000
0000
0000
0000
0000
0000
0000
0000
0000
0000
0000
0000
0000
0000
0000
0000
0000
0000
0000
0000
0000
0000
0000
0000
0000
0000
0000
0000
0000
0000
0000
0000
0000
0000
0000
0000
0000
0000
0000
0000
0000
0000
0000
0000
0000
0000
0000
0000
0000
0000
0000
0000
0000
0000
0000
0000
0000
0000
0000
0000
0000
0020
0000
0000
0000
0000
0000
0000
0000
0000
0000
0000
0000
0000
0000
0000
0000
0000
0000
0000
0000
0000
0000
0000
0000
0000
0000
0000
0000
0000
0000
0000
0000
0000
0000
0000
0000
0000
0000
0000
0000
0030
0000
0000
0000
0000
0000
0000
0000
0000
0000
0000
0000
0000
0000
0000
0000
,
0000
0000
0000
0000
0000
0000
0000
0000
0000
0000
0000
0000
0000
0000
0000
0002
0000
0000
0000
0000
0000
0000
0000
0000
0000
0000
0000
0003
0000
0000
0000
0000
0000
0000
0000
0000
0000
0000
0000
0000
0000
0000
0000
0000
0000
0000
0200
0000
,
0000
0000
0300
0020
0000
0000
0030
0000
,
0000
0000
0000
0000
0000
2000
0000
0000
0000
0000
0000
0000
0000
0000
0000
0000
0000
0000
0000
0000
0000
0000
0000
0000
0000
0000
0000
0000
0000
0000
0000
0000
0000
0000
0000
0000
0000
0000
0000
0000
0000
0000
0000
0000
0000
0000
0000
0000
,
0000
0000
0000
0000
0000
0000
0000
0000
0000
0000
0000
0000
0000
0000
0000
0000
0000
0000
0000
0000
0000
0000
3000
0000
0000
0000
0000
0000
0000
0000
0000
0000
0000
0000
0000
0000
0000
0000
0000
0000
0000
0000
0000
0000
0000
0000
0000
0000
0000
0000
0000
0000
0000
000M
0000
0000
0000
0000
0000
0000
0000
0000
0000
0000
0000
0000
0000
0000
0000
0000
0000
0000
0000
0000
0000
0000
0000
0000
0000
0000
0000
0000
0000
0000
0000
0000
0000
0000
0000
0000
0000
0000
0000
0000
0000
0000
;

//--------------- dance-single - ThreeFish ----------------
#NOTES:
     dance-single:
     ThreeFish:
     Hard:
     8:
     0,0,0,0,0:
0000
0000
0000
0000
,
0000
0000
0000
0000
,
0000
0000
0000
0000
,
0000
0000
0000
0000
,
0000
0000
0000
0000
,
0000
0000
0000
0000
,
0000
0000
0000
0000
,
0000
0000
0000
0000
,
1000
0000
1002
0000
1000
0003
1000
0100
,
0010
0001
0100
0000
0100
0000
0100
0000
,
0100
0000
0010
1000
0100
1000
0010
0100
,
0001
0010
0100
1000
0000
0100
0000
0010
,
0001
0100
0010
0000
0010
0000
0010
1000
,
0100
0010
0001
0000
0001
0000
0001
0000
,
0001
0000
1000
0010
0100
0000
0001
0000
,
0010
0100
1000
0001
0000
0010
0000
0001
,
0100
0000
0101
0000
0001
0010
0100
1000
,
0000
0000
1100
0000
0100
0010
0001
1000
,
0000
0000
1001
0000
0001
0100
0010
0001
,
0000
0010
0000
1000
0000
0001
0000
0010
,
0000
0000
0011
0000
0001
0100
0010
1000
,
0000
0100
0000
0010
0000
0001
0000
1000
,
0000
0010
0000
0100
0000
0001
0000
0010
,
0000
0000
0000
0000
0000
0000
0000
0000
0001
0000
0000
0100
0000
0000
0010
0000
,
1000
0000
1000
0000
0100
0010
0000
0001
,
0000
0000
0001
0000
0000
0000
1000
0000
0010
0000
0000
1000
0000
0000
0001
0000
,
0100
0000
0100
0000
0010
1000
0000
0100
,
0000
0000
0100
0000
0000
0000
0010
0000
0001
0000
0000
0010
0000
0000
0100
0000
,
1000
0000
1000
0010
0100
0001
0000
0010
,
0000
0000
0010
0000
0000
0000
0100
0000
1000
0000
0000
0100
0000
0000
0010
0000
,
0001
0000
0001
0000
1000
0010
0000
0100
,
0000
0100
0000
0001
0010
0001
0100
0010
,
0120
0000
1030
0000
2100
3100
0000
0010
,
0000
0000
0010
0000
0001
0000
0100
0000
0210
0000
0000
0310
0000
0000
1000
0000
,
0100
0000
0000
0000
0100
0000
0000
0000
0100
0000
0000
0000
0210
0000
0000
0310
0000
0000
0000
0000
0000
0001
0000
0000
,
0000
0001
1000
0010
1010
0010
1000
0100
,
0020
0000
0031
0100
0201
0301
0000
0010
,
0000
0000
0010
0000
0100
0000
1000
0000
2001
0000
0000
3001
0000
0000
0100
0000
,
0010
0000
0010
0000
1020
1030
0000
0001
,
0000
0001
0010
0000
0021
0031
0100
0001
,
0100
0000
0010
0000
0000
1000
0100
0010
,
0100
1000
0001
0100
0010
1000
0001
0000
,
0010
0100
1000
0100
0010
0100
1000
0010
,
0100
0001
0010
0100
1000
0000
0001
0000
,
0100
0000
0120
0000
0130
0000
0001
1000
,
0100
0010
0000
0000
0001
0000
0100
0000
0010
1000
0000
0000
0001
0000
0000
0000
,
1000
0100
0010
0001
0010
0100
1000
0010
,
0100
0001
0000
0001
1000
0000
0100
0000
0001
0000
0100
0000
1000
0000
0001
0000
,
0100
0000
0000
0000
0101
0000
0000
0000
0001
0010
0000
0010
0100
0000
2000
0000
,
3100
0000
0000
0000
1100
0000
0000
0000
1000
0001
0000
0001
0100
0000
0020
0000
,
1030
0000
0000
0000
1010
0000
0000
0000
0010
0100
0000
0100
0001
0000
0010
0000
,
0100
1000
0000
1000
0010
0000
0100
0000
0001
0010
0000
0010
0100
0000
2000
0000
,
3001
0000
0000
0000
1001
0000
0000
0000
0001
0000
0010
0100
1000
0000
0000
0000
,
0001
0000
0010
0100
1000
0000
0001
0100
0001
0000
0010
0100
1000
0000
0001
0000
,
1000
0000
0010
0000
0100
0000
0001
0000
1000
0000
0100
0000
0010
0000
0001
0100
,
0010
0000
1000
0100
0000
0100
1000
0000
0001
0000
0100
0000
0010
0000
1000
0000
,
2010
0000
3100
0000
0210
0310
0000
0001
,
0000
0000
0001
0000
0010
0000
0100
0000
1200
0000
0000
1300
0000
0000
0010
0000
,
0100
0000
0100
0000
0201
0301
0000
1000
,
0000
1000
0100
0010
0120
0130
1000
0001
,
0100
0000
0001
0010
0021
0031
0000
0100
,
0000
0000
0010
0000
1000
0000
0001
0000
1002
0000
0000
1003
0000
0000
0100
0000
,
0010
0000
1000
0000
2010
3010
0000
0100
,
0000
1000
0010
0100
0101
0001
0010
0100
,
0120
0000
0000
0030
0001
0000
0000
0000
0102
0000
0103
0000
0000
0000
0010
0000
,
0000
0000
0010
0000
1000
0000
0100
0000
0210
0000
0000
0310
0000
0000
0001
0000
,
0100
0000
0000
0000
0100
0000
0000
0000
0100
0000
0000
0000
0210
0000
0000
0310
0000
0000
0000
0000
0000
1000
0000
0000
,
0000
1000
0001
0010
0011
0010
0001
0100
,
0020
0000
1030
0100
1200
1300
0000
0010
,
0000
0000
0010
0000
0100
0000
0001
0000
1001
0000
0000
1000
0000
0000
0100
0000
,
0010
0000
0010
0000
0021
0031
0000
1000
,
0000
1000
0010
0000
1010
0000
1000
0000
,
0100
0000
0100
0000
0000
0010
0000
0001
,
0000
0001
1000
0000
0010
0000
0010
0000
,
0100
0000
0100
0000
0000
0001
0000
0010
,
0000
0100
1000
0001
0100
0001
0010
0100
,
1000
0000
1000
0000
0000
0010
0000
0100
,
0000
0100
0001
0000
1000
0000
1000
0000
,
0100
0000
0100
0000
0000
0010
0000
0001
,
0000
0100
0000
0100
0010
0000
0010
0000
,
1000
0000
0000
0000
0000
0000
0000
0000
0000
0000
0000
0000
0000
0000
0000
0000
0000
0000
0000
0000
0000
0000
0000
0000
0000
0000
2200
0000
0000
0000
0000
0000
0000
0000
0000
0000
0000
0000
0000
0000
0000
0000
0000
0000
0000
0000
3300
0000
0000
0000
0000
0000
0200
0000
0000
0000
0000
0000
0000
0000
0000
0000
0000
0000
0300
0000
0000
0000
0000
0000
0000
0000
0000
0000
0000
0000
0000
0000
0000
0000
0010
0000
0000
0000
0000
0000
0000
0001
0000
0000
0000
0000
0000
0000
0200
0000
,
0000
0000
0000
0000
0000
0000
0000
0000
0000
0000
0000
0300
0000
0000
0000
0000
0000
0000
0000
0000
0000
0000
0000
0000
0200
0000
0000
0020
0000
0000
0000
0000
0000
0000
0000
0000
0000
0000
0000
0000
0000
0000
0000
0000
0000
0000
0000
0000
0000
0000
0000
0300
0000
0000
0000
0000
0000
0000
0000
0030
0000
0000
0000
0000
0000
0000
0000
0000
0000
0000
0000
0000
0000
0000
0000
0000
0000
0000
0000
0000
0000
0020
0000
0000
0000
0000
0000
0000
0000
0000
0000
0000
0000
0000
0000
0000
0000
0000
0000
0000
0000
0000
0000
0000
0000
0000
0000
0000
0000
0030
0000
0000
0000
0000
0000
0000
0000
0000
0000
0000
0000
0000
0000
0000
0000
0000
0000
0000
0000
0000
0000
0000
0000
0000
0000
0000
2020
0000
0000
0000
0000
0000
0000
0000
0000
0000
0000
0000
0000
0000
0000
0000
0000
0000
0000
0000
0000
0000
0000
0000
0000
0000
0000
0000
3030
0000
0000
0000
0000
0000
0000
0000
0000
0000
0000
0000
0000
0000
0000
0000
0000
0000
0000
0000
0000
0000
0000
0000
0000
0000
0000
0000
,
2000
0000
0000
0000
0000
0000
0000
0000
0000
0000
0000
0000
0000
0000
0000
0000
0000
0000
0000
0000
0000
0000
0000
0000
0000
0000
0000
0000
0000
0000
0000
0000
3000
0000
0000
0000
0000
0000
0000
0000
0000
0000
0000
0000
0000
0000
0000
0000
0000
0000
0000
0000
0000
0000
0000
0000
0000
0000
0000
0000
2200
0000
0000
0000
0000
0000
0000
0000
0000
0000
0000
0000
0000
0000
0000
0000
0000
0000
0000
0000
0000
0000
0000
0000
0000
0000
0000
0000
0000
0000
0000
3300
0000
0000
0000
0000
0000
0000
0000
0000
0000
0000
0000
0000
0000
0000
0000
0000
0000
0000
0000
0000
0000
0000
0000
0000
0000
0000
0000
0000
0000
0000
0000
0020
0002
0000
0000
0000
0000
0000
0000
0000
0000
0000
0000
0000
0000
0000
0000
0000
0000
0000
0000
0000
0000
0000
0000
0000
0000
0000
0000
0000
0000
0000
0000
0030
0003
0000
0000
0000
0000
0000
0000
0000
0000
0000
0000
0000
0000
0000
0000
0000
0000
0000
0000
0000
0000
0000
0000
0000
0000
0000
0000
0000
0200
0000
0000
0000
0000
0000
0000
0000
,
0000
0000
0000
0000
0000
0000
0000
0000
0300
0000
0000
0000
0000
0000
0000
0000
0000
0000
0000
0000
0000
0000
0000
0000
0020
0000
0000
0000
0000
0000
0000
0000
0000
0000
0000
0000
0000
0030
0000
0000
0000
0000
0000
0000
0000
0000
0000
0000
0000
0000
0000
0000
0000
0000
0000
0000
0000
0000
0000
0000
0000
0000
0000
0000
,
0000
0000
0000
0000
0000
2001
0000
0000
0000
0000
0000
0000
0000
0000
0000
0000
0000
0000
0000
0000
0000
0000
0000
0000
0000
0000
0000
0000
0000
0000
0000
0000
0000
0000
0000
0000
0000
0000
0000
0000
0000
0000
0000
0000
0000
0000
0000
0000
,
0000
0000
0000
0000
0000
0000
0000
0000
0000
0000
0000
0000
0000
0000
0000
0000
0000
0000
0000
0000
0000
0000
0000
0000
0000
0000
0000
0000
0000
0000
0000
0000
0000
0000
0000
0000
0000
0000
0000
0000
0000
0000
3000
0000
0000
0000
0000
0000
0000
0000
0000
0000
0000
000M
0000
0000
0000
0000
0000
0000
0000
0000
0000
0000
0000
0000
0000
0000
0000
0000
0000
0000
0000
0000
0000
0000
0000
0000
0000
0000
0000
0000
0000
0000
0000
0000
0000
0000
0000
0000
0000
0000
0000
0000
0000
0000
;
