#VERSION:0.83;
#TITLE:waxing and wanding;
#SUBTITLE:;
#ARTIST:青龍;
#TITLETRANSLIT:;
#SUBTITLETRANSLIT:;
#ARTISTTRANSLIT:Seiryu;
#GENRE:DANCE SPEED;
#CREDIT:;
#MUSIC:waxing and wanding.ogg;
#BANNER:waxing and wanding.png;
#BACKGROUND:waxing and wanding-bg.png;
#CDTITLE:./CDTitles/bm IIDX 13 DistorteD.png;
#SAMPLESTART:73.201;
#SAMPLELENGTH:15.000;
#SELECTABLE:YES;
#OFFSET:0.614;
#BPMS:0.000=191.000;
#STOPS:;
#TIMESIGNATURES:0.000=4=4;
#BGCHANGES:-1.600=waxing and wanding.mp4=1.000=0=0=0=StretchNoLoop====,
99999.000=-nosongbg-=1.000=0=0=0=StretchNoLoop====
;
#FGCHANGES:;

//--------------- dance-single - forcednature ----------------
#NOTEDATA:;
#STEPSTYPE:dance-single;
#DESCRIPTION:forcednature;
#DIFFICULTY:Beginner;
#METER:2;
#RADARVALUES:0,0,0,0,0;
#CREDIT:forcednature;
#NOTES:
0000
0000
0000
0000
,
0000
0000
0000
0000
,
0000
0000
0000
0000
,
0000
0000
0000
0000
,
0000
0000
0000
0000
,
1001
0000
0000
0000
,
0000
0000
0000
0000
,
0100
0000
0000
0000
,
0010
0000
0000
0000
,
0100
0000
0000
0000
,
0010
0000
0000
0000
,
1001
0000
0000
0000
,
0000
0000
0000
0000
,
1000
0000
0000
0000
,
0001
0000
0000
0000
,
1000
0000
0000
0000
,
0000
0000
0000
0000
,
0001
0000
0000
0000
,
1000
0000
0000
0000
,
0001
0000
0000
0000
,
0000
0000
0000
0000
,
0100
0000
0000
0000
,
0010
0000
0000
0000
,
1000
0000
0000
0000
,
0000
0000
0000
0000
,
0100
0000
0000
0000
,
0010
0000
0000
0000
,
0001
0000
0000
0000
,
0000
0000
0000
0000
,
0100
0000
0000
0000
,
0010
0000
0000
0000
,
1000
0000
0000
0000
,
0000
0000
0000
0000
,
0100
0000
0000
0000
,
0010
0000
0000
0000
,
0001
0000
0000
0000
,
0100
0000
0000
0000
,
0001
0000
0000
0000
,
0010
0000
0000
0000
,
0001
0000
0000
0000
,
0100
0000
0000
0000
,
0001
0000
0000
0000
,
0010
0000
0000
0000
,
1001
0000
0000
0000
,
0000
0000
0000
0000
,
0000
0000
0000
0000
,
0000
0000
0000
0000
,
0000
0000
0000
0000
,
0000
0000
0000
0000
,
0000
0000
0000
0000
,
0000
0000
0000
0000
,
1000
0000
0000
0000
,
0000
0000
0000
0000
,
0001
0000
0000
0000
,
0000
0000
0000
0000
,
0100
0000
0000
0000
,
0000
0000
0000
0000
,
0010
0000
0000
0000
,
0000
0000
0000
0000
,
1001
0000
0000
0000
,
0001
0000
0000
0000
,
0010
0000
0000
0000
,
0001
0000
0000
0000
,
1000
0000
0000
0000
,
0010
0000
0000
0000
,
1000
0000
0000
0000
,
0100
0000
0000
0000
,
0010
0000
0000
0000
,
0001
0000
0000
0000
,
0100
0000
0000
0000
,
0010
0000
0000
0000
,
1000
0000
0000
0000
,
0001
0000
0000
0000
,
0010
0000
0000
0000
,
0100
0000
0000
0000
,
1000
0000
0000
0000
,
0000
0000
0000
0000
,
0001
0000
0000
0000
,
0100
0000
0000
0000
,
0001
0000
0000
0000
,
0000
0000
0000
0000
,
1000
0000
0000
0000
,
0100
0000
0000
0000
,
1000
0000
0000
0000
,
0010
0000
0000
0000
,
0100
0000
0000
0000
,
0001
0000
0000
0000
,
1001
0000
0000
0000
,
0110
0000
0000
0000
,
1000
0000
0001
0000
,
0100
0000
0020
0000
,
0000
0000
0030
0000
;

//--------------- dance-single - forcednature ----------------
#NOTEDATA:;
#STEPSTYPE:dance-single;
#DESCRIPTION:forcednature;
#DIFFICULTY:Easy;
#METER:7;
#RADARVALUES:0,0,0,0,0;
#CREDIT:forcednature;
#NOTES:
0000
0000
0000
0000
,
0000
0000
0000
0000
,
0000
0000
0000
0000
,
0000
0000
0000
0000
,
0000
0010
0010
0010
,
0010
0000
0000
0000
,
0000
0000
0000
0000
,
1001
0000
0110
0000
,
1000
0001
0001
1000
,
0010
0010
0010
0100
,
0110
0000
0000
0000
,
1000
0000
0001
0000
2000
0000
0000
3000
,
0010
0010
0010
0000
,
0100
0000
0001
0000
0200
0000
0000
0300
,
0010
1000
0001
0100
,
0001
0000
0010
0000
0002
0000
0000
0003
,
1000
1000
1000
0000
,
0010
0000
0100
0000
0020
0000
0000
0030
,
1000
0001
0010
0010
,
0100
1000
0100
0010
,
0100
1000
0001
0000
,
0100
0000
0010
0000
0200
0000
0000
0300
,
0001
1000
0001
0010
,
0100
1000
0001
0010
,
0001
1000
0100
0000
,
1000
0000
0010
0000
2000
0000
0000
3000
,
0001
0100
0010
0010
,
1000
0000
0001
0010
,
0001
0000
1000
0010
,
1000
0000
0100
0010
,
0100
0000
1000
0001
,
0100
0000
0010
1000
,
0010
0000
0100
0001
,
0100
0000
0001
0010
,
0001
0000
1000
0100
,
1000
0010
1000
0001
,
0100
0001
0010
0001
,
0100
0010
1000
0001
,
0010
0100
0010
0000
,
0001
0100
0010
1000
,
0100
0010
0100
1000
,
0001
0100
0010
1000
,
0100
0010
0100
0000
,
1001
0000
0000
0000
,
0000
0000
0000
0000
,
0000
0000
0000
0000
,
0000
0000
0000
0000
,
0000
0000
0000
0000
,
0000
0000
0000
0000
,
0000
0000
0000
0000
,
0000
0000
0000
0000
,
0001
0000
0100
0000
,
0010
0000
1000
0000
,
0001
0000
0010
0000
,
0100
1000
0100
0000
,
1000
0000
0010
0000
,
0100
0000
0001
0000
,
0100
0000
0010
0000
,
1000
0001
1000
0000
,
0010
0100
0010
1000
,
0001
0010
0001
1000
,
0010
0100
0010
1000
,
0001
0010
0001
0000
,
1000
0100
0010
0100
,
1000
0001
0100
0001
,
0010
0100
1000
0001
,
0100
0100
0100
0000
,
0001
0010
0001
1000
,
0010
1000
0100
0010
,
0001
0100
0001
1000
,
0100
0010
0100
0000
,
1000
0001
0010
0001
,
1000
0010
1000
0100
,
0010
0001
0010
0100
,
1000
1000
1000
0000
,
0010
0000
0100
0000
0020
0000
0000
0030
,
1000
1000
1000
0000
,
0001
0000
0100
0000
0002
0000
0000
0003
,
0010
0100
1000
0001
,
1000
0000
0010
0000
2000
0000
0000
3000
,
0100
0100
0100
0000
,
0010
0000
0001
0000
0020
0000
0000
0030
,
0100
1000
1000
1000
,
0010
0100
0001
0100
,
0010
1000
0001
0010
,
0100
1000
0001
0100
,
0010
1000
0001
0010
,
0110
0100
1000
0010
,
0110
0100
0001
0010
,
1001
0100
1001
0010
,
1001
0110
1001
0000
;

//--------------- dance-single - forcednature ----------------
#NOTEDATA:;
#STEPSTYPE:dance-single;
#DESCRIPTION:forcednature;
#DIFFICULTY:Medium;
#METER:10;
#RADARVALUES:0,0,0,0,0;
#CREDIT:forcednature;
#NOTES:
0000
0000
0000
0000
,
0000
0000
0000
0000
,
0000
0000
0000
0000
,
0000
0000
0000
0000
,
0000
0110
0110
0110
,
1001
0000
0000
0000
,
0000
0000
0000
0000
,
1001
0000
0110
0000
,
1001
0110
1001
0110
,
1001
0000
1001
0000
0100
0010
0100
0010
,
0100
0000
0000
0000
,
1000
0001
0000
0001
0020
0000
0000
0030
,
0100
1000
0100
0000
0100
1000
0100
0000
,
0010
0001
0000
0001
2000
0000
0000
3000
,
0010
0100
0110
1001
,
0001
0010
0000
0100
2000
0000
0000
3000
,
0001
0100
0001
0000
0001
0100
0001
0000
,
1000
0010
0000
0100
0002
0000
0000
0003
,
0010
0100
0010
0000
0110
0000
0100
0000
,
1000
0001
1000
0000
0010
0000
0100
0000
,
0001
0000
0010
0000
0100
1000
0000
0000
,
0100
0010
0000
0010
0002
0000
0000
0003
,
0100
0010
0100
0000
0110
0000
1001
0000
,
0001
0100
0001
0000
1000
0000
0010
0000
,
1000
0000
0100
0000
0010
0001
0000
0000
,
0100
0010
0000
0010
2000
0000
0000
3000
,
0001
0010
0001
0000
1001
0000
0110
0000
,
1001
0000
1000
0010
0000
1000
0100
0000
,
0010
0000
0001
0100
0000
0001
0010
0000
,
0100
0000
1000
0001
0000
0100
0010
0000
,
1000
0100
1000
0000
0010
0000
0100
0000
,
0001
0000
0010
0100
0000
0010
0001
0000
,
1000
0000
0010
0100
0000
0001
1000
0000
,
0100
0000
1000
0001
0000
0100
0010
0000
,
1000
0001
1000
0000
0100
0000
0010
0001
,
0010
1000
0010
0001
,
1000
0010
1000
0000
0001
0100
0000
0000
,
0010
1000
0100
0001
,
0100
0010
0100
0010
0100
0000
0000
0000
,
0010
0001
1000
0010
,
0100
1000
0100
0000
0001
0100
0000
0000
,
0010
0001
0010
1000
,
0100
0010
0100
0010
0001
0000
0000
0000
,
1001
0000
0000
0000
,
0000
0000
0000
0000
,
0000
0000
0000
0000
,
0000
0000
0000
0000
,
0000
0000
0000
0000
,
0000
0000
0000
0000
,
0000
0000
0000
0000
,
0000
0000
0000
1000
,
0001
0100
0010
1000
,
0001
0010
0100
1000
,
0001
0100
0010
1000
,
0001
0100
0001
0100
0001
0000
0000
0000
,
1000
0010
0100
0001
,
1000
0010
1000
0000
,
0001
0010
0100
1000
,
0001
0010
0001
0010
0001
0000
0100
0000
,
0001
1000
0001
0000
0010
0001
0010
0000
,
0100
1000
0100
0000
0010
0001
0000
0000
,
0100
0001
0100
0000
0010
1000
0010
0000
,
1000
0001
1000
0001
1000
0000
0000
0000
,
0100
0010
0100
0000
1000
0001
1000
0000
,
0010
0100
0010
0000
1000
0001
0000
0000
,
0010
0001
0010
0000
0100
1000
0100
0000
,
0110
0110
0110
0000
,
1000
0010
1000
0000
0001
0010
0001
0000
,
0100
0010
0100
0000
0001
1000
0000
0000
,
0100
0010
0100
0000
1000
0010
1000
0000
,
0001
0010
0001
0010
0001
0000
0000
0000
,
0100
0001
0100
0000
0010
1000
0010
0000
,
1000
0100
1000
0000
0001
0010
0000
0000
,
0101
0010
1100
0010
,
1001
0110
1001
0000
,
1000
0100
0000
0010
0002
0000
0000
0003
,
1000
0100
1000
0000
1000
0100
1000
0000
,
0001
0100
0000
0010
2000
0000
0000
3000
,
0001
0011
1000
1010
,
0001
0010
0000
0001
0200
0000
0000
0300
,
0001
1000
0001
0000
0001
1000
0001
0000
,
1000
0010
0000
1000
0200
0000
0000
0300
,
0010
0110
0110
0100
,
1000
0010
0100
0000
0001
1000
0100
0000
,
0010
0001
1000
0000
0010
0100
0001
0000
,
0010
0100
1000
0000
0001
0100
0010
0000
,
1000
0001
1000
0001
1000
0000
0100
0000
,
0010
0001
1000
0000
0010
0100
0001
0000
,
1000
0100
0010
0000
0001
1000
0010
0000
,
0100
0001
1000
0000
0100
1000
0001
0000
,
1001
0110
1001
0000
;

//--------------- dance-single - forcednature ----------------
#NOTEDATA:;
#STEPSTYPE:dance-single;
#DESCRIPTION:forcednature;
#DIFFICULTY:Hard;
#METER:13;
#RADARVALUES:0,0,0,0,0;
#CREDIT:forcednature;
#NOTES:
0000
0000
0000
0000
,
0000
0000
0000
0000
,
0000
0000
0000
0000
,
0000
0000
0000
0000
,
0000
0110
0110
0110
,
1001
0000
0000
0000
,
0000
0000
0000
0000
,
1001
0000
0110
0000
,
1001
0110
1001
0110
,
1001
0000
0000
0000
1001
0000
0000
0000
0001
0000
1000
0000
0001
1000
0001
1000
,
0100
0000
0000
0000
,
0010
0001
0100
0001
2000
0000
0000
3000
,
0100
1000
0001
1000
0100
1000
0001
1000
,
0000
0100
1000
0010
0200
0000
0000
0300
,
0001
0010
0100
0000
0011
0000
1100
0000
,
0000
1000
0001
1000
0020
0000
0000
0030
,
1000
0001
0010
0001
1000
0001
0010
0001
,
0000
0100
0010
1000
0020
0000
0000
0030
,
0100
0001
0010
0000
0110
0000
1000
0001
,
1000
0100
0010
0100
1000
0010
0100
0001
,
0010
0001
0100
0010
1000
0001
0000
0000
,
1000
0100
0010
0001
0200
0000
1000
0000
,
0301
0010
0100
0000
1001
0000
0001
0100
,
0010
1000
0100
1000
0010
0100
0001
0010
,
0001
0100
1000
0100
0010
1000
0000
0000
,
0100
0010
0001
0100
0020
0000
0001
0000
,
1030
0100
0001
0000
0110
0000
1001
0000
,
0110
0000
1000
0100
0000
0010
0001
1000
,
0001
0000
0100
0010
0000
1000
0100
0010
,
0001
0000
0100
0010
0000
0100
0001
1000
,
0000
0100
1000
0010
1000
0100
0010
0001
,
0100
0000
0001
1000
0000
0100
0010
0001
,
0100
0000
0010
1000
0000
0100
1000
0010
,
0100
0000
0001
0010
0000
0100
0010
0001
,
0000
1000
0010
0100
0001
1000
0100
1000
,
0010
1000
0100
0010
0001
0100
0010
0100
,
1000
0100
0001
0010
0100
1000
0000
1000
,
0010
0100
0010
1000
0100
0010
0001
0100
,
0010
0100
1000
0100
0001
0000
0010
0100
,
0001
0100
0010
0001
1000
0010
1000
0001
,
1000
0100
0001
0100
0010
0001
0000
0001
,
0100
0010
1000
0001
0010
0100
1000
0001
,
0100
1000
0100
0001
0100
0000
0010
0000
,
1001
0000
0000
0000
,
0000
0000
0000
0000
,
0000
0000
0000
0000
,
0000
0000
0000
0000
,
0000
0000
0000
0000
,
0000
0000
0000
0000
,
0000
0000
0000
0000
,
0000
0000
0000
0000
0000
0000
0001
0100
,
0010
1000
0001
1000
0100
0010
0001
0100
,
0001
0010
0001
0100
0010
1000
0100
1000
,
0010
1000
0100
0010
0001
0100
0010
1000
,
0001
0010
0100
0010
1000
0000
0010
0100
,
1000
0001
1000
0010
0001
0010
0100
0001
,
1000
0100
0001
0100
0010
0001
0000
0001
,
0100
0010
1000
0100
1000
0010
1000
0001
,
0100
1000
0100
0001
0100
0000
0010
1000
,
0001
0010
0001
0100
0010
1000
0100
0010
,
0100
1000
0001
0100
1000
0100
0010
1000
,
0001
1000
0010
0001
0010
0100
0001
1000
,
0100
0001
0100
0010
0001
0000
1000
0010
,
0100
0001
0100
0010
1000
0010
0001
0010
,
0100
1000
0100
0001
1000
0100
0010
1000
,
0010
0001
1000
0001
0100
0010
0001
0010
,
0100
0000
0110
0000
1001
0000
1000
0100
,
1000
0010
0001
0010
1000
0100
0001
0100
,
0010
1000
0010
0001
0100
1000
0100
0001
,
1000
0100
0001
0100
0010
1000
0010
0001
,
0100
1000
0100
0001
0100
0000
0010
1000
,
0100
0010
1000
0010
0001
1000
0001
0100
,
1000
0100
0010
1000
0001
0010
1000
0010
,
0100
1000
0001
0100
1000
0100
0010
1000
,
0100
0110
1001
0000
,
1000
0100
1000
0010
2000
0000
0100
0000
,
3010
0001
0010
1000
0010
0001
0010
0000
,
0100
0001
0010
0001
0200
0000
1000
0000
,
0310
0110
0100
1001
,
0001
0100
0001
0010
0002
0000
0100
0000
,
0013
1000
0010
0001
0010
1000
0010
0000
,
0100
1000
0010
1000
0200
0000
0001
0000
,
0310
0000
0110
0000
0110
0000
1000
0001
,
0100
1000
0100
0001
0010
1000
0010
0100
,
1000
0010
0100
1000
0100
0001
1000
0010
,
1000
0100
0001
1000
0010
0001
0100
0001
,
0010
1000
0010
0001
0010
0000
0100
1000
,
1001
0001
0100
1000
0100
0001
0010
0100
,
0110
0010
0001
1000
0010
0100
0000
0010
,
0110
0100
0001
0010
0110
0100
1000
0010
,
0101
0010
1100
0010
1001
0000
0000
0000
;

//--------------- dance-single - forcednature ----------------
#NOTEDATA:;
#STEPSTYPE:dance-single;
#DESCRIPTION:forcednature;
#DIFFICULTY:Challenge;
#METER:16;
#RADARVALUES:0,0,0,0,0;
#CREDIT:forcednature;
#NOTES:
0000
0000
0000
0000
,
0000
0000
0000
0000
,
0000
0000
0000
0000
,
0000
0000
0000
0000
,
0000
1001
1100
0101
,
1001
0000
0000
0000
,
0000
0000
0000
0000
,
0110
0000
1001
0000
,
0110
1001
0110
1001
,
0110
0000
0000
0000
1001
0000
0000
0000
1000
0000
0001
0000
1000
0001
1000
0001
,
0100
0000
0000
0000
,
0001
0000
0010
0100
0010
0000
0001
0000
2000
0000
0000
0000
0010
0000
3000
0000
,
1000
0010
1000
0000
0001
0000
0100
0000
0010
1000
0010
0000
0100
0000
0001
0000
,
0010
0000
0100
1000
0100
0000
0010
0000
0002
0000
0000
0000
0100
0000
0003
0000
,
0010
0001
0010
0000
0100
0000
0000
0000
0110
0000
0000
0000
1001
0000
0000
0000
,
1000
0000
0010
0100
0010
0000
1000
0000
0002
0000
0000
0000
0010
0000
0003
0000
,
1000
0100
1000
0000
0001
0000
0010
0000
0100
1000
0100
0000
0010
0000
0001
0000
,
1000
0000
0010
0100
0010
0000
1000
0000
0002
0000
0000
0000
0010
0000
0003
0000
,
0001
0100
0001
0000
0010
0000
0000
0000
0110
0000
0000
0000
0100
0000
1000
0000
,
0010
0100
1000
0001
0010
0100
0001
1000
,
0100
0001
1000
0010
0001
1000
0000
0000
,
0001
0000
0100
0001
0100
0000
0010
0100
0010
0000
1000
0010
1000
0000
0001
1000
,
0001
0000
0010
0001
0010
0000
0100
0010
0100
0000
1000
0100
1000
0000
0001
0000
,
0100
1000
0001
0010
0100
0001
1000
0100
,
0001
1000
0010
0001
0100
0010
0000
0000
,
0001
0000
0010
0100
0010
0000
1000
0010
1000
0000
0001
1000
0001
0000
0010
0001
,
0010
0000
0100
0010
0100
0000
1000
0100
1000
0000
0000
0000
1001
0000
0000
0000
,
0001
0000
0100
0001
0100
0000
0010
0000
0000
0000
1000
0000
0100
0000
0001
0000
,
0100
0000
0010
0001
0010
0000
0100
0000
0000
0000
1000
0000
0010
0000
0001
0000
,
0010
0000
1000
0010
1000
0000
0001
0000
0000
0000
0010
0000
0100
0000
1000
0000
,
0000
0001
0100
1000
0001
0010
1000
0001
,
0010
0000
0100
1000
0100
0000
0010
0000
0000
0000
0001
0000
0100
0000
1000
0000
,
0100
0000
0001
0100
0001
0000
1000
0000
0000
0000
0100
0000
0010
0000
1000
0000
,
0010
0000
0001
1000
0001
0000
0100
0000
0000
0000
0010
0000
0001
0000
0010
0000
,
1000
0100
0001
1000
0010
0001
0100
0001
,
0101
0100
0110
0010
1010
1000
1001
0001
,
0011
0010
0110
0100
1100
1000
1001
0001
,
0101
0100
0110
0010
1010
1000
1001
0001
,
0011
0100
1010
0100
1001
0000
0001
1000
,
1010
0010
0110
0100
0101
0001
1001
1000
,
1100
0100
0110
0010
0011
0001
0101
0100
,
0110
0010
1010
1000
1001
0001
0011
0010
,
1100
0010
0101
0010
1001
0000
0100
0000
,
1001
0000
0000
0000
,
0000
0000
0000
0000
,
0000
0000
0000
0000
,
0000
0000
0000
0000
,
0000
0000
0000
0000
,
0000
0000
0000
0000
,
0000
0000
0000
0000
,
0000
0000
0000
0000
0000
0000
1000
0100
,
0010
0001
0100
0010
0001
1000
0100
0010
,
0001
0010
1000
0001
0010
1000
0001
0100
,
0010
0100
1000
0010
0100
1000
0001
0010
,
0100
1000
0100
0001
0100
0000
0020
2030
,
3200
0302
2003
3020
0032
0203
0320
0032
,
0023
2030
3002
0203
2300
3200
0300
0020
,
2030
3200
0302
2003
3020
0230
2300
3020
,
0230
2300
3200
0302
0203
0300
0010
1000
,
1001
0000
0001
0010
0001
0000
0010
0000
0100
0000
1000
0100
1000
0000
0100
0000
,
0010
0000
0010
0001
1000
0000
0010
0000
0100
0001
0100
0000
0001
0000
0010
0000
,
0001
0000
1000
0010
1000
0000
0001
0000
0010
0000
0001
0100
0001
0000
1000
0000
,
0010
0100
0010
0000
1000
0001
1000
0000
0100
0000
0000
0000
0010
0000
0001
0000
,
1000
0000
0010
0100
0010
0000
0100
0000
0001
0000
1000
0100
1000
0000
0010
0000
,
0100
0000
0100
0001
1000
0000
0100
0000
0010
0001
0010
0000
0001
0000
1000
0000
,
0010
0100
0010
0100
0001
0000
1000
0000
0100
0010
0100
0010
0001
0000
1000
0000
,
0001
0100
0001
0000
1000
0100
1000
0000
1001
0000
0000
0000
0001
0000
0100
0000
,
0010
0000
1000
0001
0100
0000
0010
0000
1000
0000
0001
0010
0100
0000
1000
0000
,
0100
0000
0100
0010
0001
0000
0100
0000
0010
1000
0001
0000
0010
0000
0100
0000
,
1000
0000
0001
0100
0010
0000
1000
0000
0100
0000
0010
0001
1000
0000
0010
0000
,
1000
0001
0100
0000
0001
1000
0100
0000
0010
0000
0000
0000
0100
0000
1000
0000
,
0001
0000
0100
0010
1000
0000
0001
0000
0100
0000
0001
0010
0100
0000
0010
0000
,
0001
0000
0001
0100
0010
0000
1000
0000
0001
0010
0100
0000
1000
0000
0001
0000
,
0100
0001
0100
0001
1000
0000
0100
0000
0010
0001
0010
0001
1000
0000
0010
0000
,
0100
0001
0010
0000
0100
1000
0010
0000
2002
0000
0000
0000
3003
0000
0000
0000
,
0001
0001
1000
1000
,
0010
0100
0010
0110
,
1000
1000
0001
0001
,
0010
0110
0100
0110
,
1000
0001
1000
0001
,
0100
0010
0100
0110
,
0001
1000
0001
1000
,
0100
0000
1001
0000
1001
0000
1000
0010
,
0100
0001
0100
0010
1000
0000
0001
1000
0100
0000
0010
0001
1000
0000
0010
0000
,
1000
0100
0010
0001
0010
0000
0100
1000
0001
0000
0100
0010
1000
0000
0001
0000
,
0010
0100
0010
0001
1000
0000
0001
0100
0010
0000
1000
0001
0010
0000
0100
0000
,
1000
0010
1000
0010
0100
0000
0001
1000
0200
0000
0000
0000
0310
0000
0001
0000
,
1000
0010
1000
0010
0100
0001
0100
0000
0001
0010
0100
0000
1000
0001
0100
0000
,
0001
0010
0001
0010
0100
1000
0100
0000
1000
0010
0100
0000
0001
1000
0100
0000
,
1000
0010
0100
0001
0100
0010
1000
0000
0001
0010
0100
1000
0100
0010
0001
0000
,
0100
0001
1000
0000
0100
1000
0001
0000
1001
0000
0000
0000
0000
0000
0000
0000
;

//--------------- dance-double - forcednature ----------------
#NOTEDATA:;
#STEPSTYPE:dance-double;
#DESCRIPTION:forcednature;
#DIFFICULTY:Easy;
#METER:7;
#RADARVALUES:0,0,0,0,0;
#CREDIT:forcednature;
#NOTES:
00000000
00000000
00000000
00000000
,
00000000
00000000
00000000
00000000
,
00000000
00000000
00000000
00000000
,
00000000
00000000
00000000
00000000
,
00000000
00001000
00001000
00010000
,
00001000
00000000
00000000
00000000
,
00000000
00000000
00000000
00000000
,
01000000
00000000
00010000
00000000
,
00100000
00010000
01000000
00010000
,
00100000
00100000
00001000
00010000
,
00001000
00000000
00000000
00000000
,
00010000
00000000
00000100
00000000
00020000
00000000
00000000
00030000
,
00000010
00000010
00000010
00000000
,
00001000
00000000
00000001
00000000
00002000
00000000
00000000
00003000
,
00000100
00000010
00000110
00000000
,
00000001
00000000
00000100
00000000
00000002
00000000
00000000
00000003
,
00001000
00001000
00001000
00000000
,
00000100
00000000
00010000
00000000
00000200
00000000
00000000
00000300
,
00010000
00001000
00011000
00000000
,
01000000
00010000
01000000
00100000
,
10000000
00100000
01000000
00000000
,
00010000
00000000
00010000
00000000
00020000
00000000
00000000
00030000
,
00100000
00001000
00010000
00000000
,
00000010
00001000
00000010
00000100
,
00000001
00000100
00000010
00000000
,
00001000
00000000
00001000
00000000
00002000
00000000
00000000
00003000
,
00000100
00010000
00001000
00000000
,
00011000
00000000
00010000
00001000
,
01000000
00000000
00010000
10000000
,
00100000
00000000
10000000
01000000
,
00100000
00010000
00100000
00000000
,
00001000
00000000
00010000
00000010
,
00001000
00000000
00000001
00001000
,
00000100
00000000
00000010
00000001
,
00001000
00000001
00000100
00000000
,
00000010
00000000
00001000
00000000
,
00000010
00010000
00001000
00000000
,
01000000
00010000
01000000
00000000
,
00100000
10000000
00100000
00000000
,
10000000
00000000
00010000
00000000
,
00100000
00010000
00100000
00000000
,
00001000
00010000
00001000
00000000
,
00010000
00000100
00010000
00000000
,
00011000
00000000
00000000
00000000
,
00000000
00000000
00000000
00000000
,
00000000
00000000
00000000
00000000
,
00000000
00000000
00000000
00000000
,
00000000
00000000
00000000
00000000
,
00000000
00000000
00000000
00000000
,
00000000
00000000
00000000
00000000
,
00000000
00000000
00000000
00000000
,
00010000
00000000
00000100
00000000
,
00001000
00000000
00000010
00000000
,
00010000
00000000
00001000
00000000
,
01000000
00000000
00000000
00000000
,
00010000
00000000
00100000
00000000
,
00001000
00000000
00010000
00000000
,
00000010
00000000
00001000
00000000
,
00000100
00000000
00000000
00000000
,
00000010
00000001
00000010
00000000
,
00000100
00001000
00000100
00000000
,
00010000
00001000
01000000
00010000
,
01000000
00100000
10000000
00000000
,
00010000
00100000
00010000
00000000
,
10000000
00100000
10000000
00000000
,
10010000
00000000
01100000
00000000
,
00010000
00010000
00010000
00000000
,
01000000
00001000
00010000
00000000
,
00000010
00010000
00001000
00000000
,
00010000
00000100
00001000
00000000
,
00000001
00000100
00000010
00000000
,
00001000
00000100
00010000
00000000
,
00001000
01000000
00010000
00000000
,
10010000
00000000
01100000
00000000
,
10000000
10000000
10000000
00000000
,
01000000
00000000
00100000
00000000
00020000
00000000
00000000
00030000
,
01000000
00001000
00010000
00000000
,
00000100
00000000
00001000
00000000
00000020
00000000
00000000
00000030
,
00000100
00000010
00001001
00000010
,
00001000
00000000
00000100
00000000
00020000
00000000
00000000
00030000
,
00001000
01000000
00010000
00000000
,
00100000
00000000
01000000
00000000
20000000
00000000
00000000
30000000
,
00100000
01000000
01000000
01000000
,
00010000
01000000
00001000
00010000
,
00000100
00001000
00000100
00000010
,
00000001
00001000
00000010
00010000
,
00001000
00100000
00010000
01000000
,
01100000
00100000
10000000
01000000
,
01100000
00100000
00010000
01000000
,
00011000
00100000
00011000
00000010
,
00000110
00001001
00000110
00000000
;

//--------------- dance-double - forcednature ----------------
#NOTEDATA:;
#STEPSTYPE:dance-double;
#DESCRIPTION:forcednature;
#DIFFICULTY:Medium;
#METER:10;
#RADARVALUES:0,0,0,0,0;
#CREDIT:forcednature;
#NOTES:
00000000
00000000
00000000
00000000
,
00000000
00000000
00000000
00000000
,
00000000
00000000
00000000
00000000
,
00000000
00000000
00000000
00000000
,
00000000
00010000
00011000
00001000
,
00011000
00000000
00000000
00000000
,
00000000
00000000
00000000
00000000
,
01001000
00000000
00010100
00000000
,
00100000
00001000
00010000
00000010
,
00001000
00000000
00000100
00000000
00010000
00001000
01000000
00000000
,
01100000
00000000
00000000
00000000
,
00100000
10000000
00000000
00010000
00200000
00000000
00000000
00300000
,
01000000
10000000
01000000
00000000
01000000
10000000
01000000
00000000
,
00100000
00001000
00000000
00010000
00002000
00000000
00000000
00003000
,
01000000
00010000
01000000
00000000
00001000
00000000
00011000
00000000
,
00010000
00000100
00000000
00001000
00000200
00000000
00000000
00000300
,
00000010
00000001
00000010
00000000
00000010
00000001
00000010
00000000
,
00000100
00010000
00000000
00001000
00020000
00000000
00000000
00030000
,
00001000
01000000
00001000
00000000
01010000
00000000
10000000
00000000
,
01000000
00100000
00010000
00000000
00100000
00001000
00010000
00000000
,
00000010
00001000
00000100
00000000
00000010
00000001
00000000
00000000
,
00000100
00000001
00000000
00001000
00000020
00000000
00000000
00000030
,
00010000
00001000
00010000
00000000
00001000
00000000
01001000
00000000
,
01000000
00010000
10000000
00000000
01000000
00100000
00010000
00000000
,
01000000
00001000
00010000
00000000
00000100
00001000
00000000
00000000
,
00000010
00000100
00000000
00000001
00000020
00000000
00000000
00000030
,
00000100
00001000
00000100
00000000
00010000
00000000
00011000
00000000
,
00001000
00000000
01000000
00010000
00000000
10000000
00100000
00000000
,
10000000
00000000
01000000
00100000
00000000
00010000
01000000
00000000
,
00001000
00000000
00010000
00000100
00000000
00001000
00000010
00001000
,
00000000
00000001
00000010
00000000
00000100
00001000
00000100
00000000
,
00010000
00000000
00001000
01000000
00000000
00010000
00100000
00000000
,
00010000
00000000
01000000
00100000
00000000
10000000
00010000
00000000
,
10000000
00000000
01000000
00100000
00000000
00010000
00100000
00010000
,
00000000
01000000
00001000
00000000
00010000
00000000
00011000
00000000
,
00001000
00010000
00000100
00000000
00001000
00000100
00000010
00000000
,
00000100
00001000
00000001
00000000
00000100
00000010
00000000
00000000
,
00001000
00000100
00010000
00000000
00001000
01000000
00010000
00000000
,
00100000
01000000
00100000
01000000
00100000
00000000
00000000
00000000
,
00010000
10000000
00100000
00000000
10000000
00010000
00100000
00000000
,
01000000
00100000
00010000
00000000
01000000
00001000
00000000
00000000
,
00010000
00000100
00001000
00000000
00000010
00001000
00000001
00000000
,
00000010
00000100
00000010
00000100
00000010
00000000
00000000
00000000
,
00011000
00000000
00000000
00000000
,
00000000
00000000
00000000
00000000
,
00000000
00000000
00000000
00000000
,
00000000
00000000
00000000
00000000
,
00000000
00000000
00000000
00000000
,
00000000
00000000
00000000
00000000
,
00000000
00000000
00000000
00000000
,
00000000
00000000
00000000
00010000
,
00001000
00010000
00100000
01000000
,
00100000
10000000
00010000
00000000
,
00100000
01000000
00100000
00001000
,
00010000
00010000
00000010
00001000
,
00000100
00000010
00000100
00001000
,
00000001
00000100
00000001
00000000
,
00000010
00000100
00000010
00000001
,
00001000
00001000
00000010
00010000
,
00011000
00000000
00001000
00000000
00100000
00010000
00100000
00000000
,
01000000
10000000
01000000
00000000
00100000
00010000
00000000
00000000
,
01000000
00000000
00001000
00000000
00010000
00000100
00010000
00000000
,
00000100
00001000
00000100
00000000
00000010
00000000
00000001
00000000
,
00001000
00000000
00000010
00000000
00010000
00001000
00010000
00000000
,
00001000
01000000
00001000
00000000
00100000
00010000
00000000
00000000
,
11000000
00100000
01010000
00100000
,
01010000
01001000
00011000
00010000
,
00000100
00001000
00000100
00000000
00000010
00000001
00000010
00000000
,
00000100
00010000
00001000
00000000
00100000
00010000
00000000
00000000
,
01000000
00010000
01000000
00000000
00100000
10000000
00100000
00000000
,
10000000
01000000
10000000
01000000
10000000
00000000
00010000
00000000
,
01000000
00001000
01000000
00000000
00010000
01000000
00010000
00000000
,
00100000
00010000
00100000
00000000
00001000
00010000
00000000
00000000
,
00010010
00001000
00010010
00000100
,
00001001
00000110
00001001
00000000
,
00000001
00000010
00000100
00001000
,
00010000
00100000
01000000
10010000
,
10000000
00100000
01000000
00010000
,
00001000
00000110
00000001
00000110
,
00000001
00000100
00001000
00010000
,
01000000
10000000
00100000
10010000
,
10000000
01000000
00010000
00001000
,
00000100
00001001
00001001
00000001
,
00000010
00000100
00001000
00000000
00000100
00000010
00000001
00000000
,
00001000
00000010
00010000
00000000
00001000
01000000
00010000
00000000
,
00100000
00010000
10000000
00000000
01000000
10000000
00100000
00000000
,
01000000
00010000
01000000
00010000
01000000
00000000
00001000
00000000
,
00010000
00000100
00001000
00000000
00000010
00010000
00001000
00000000
,
00100000
00010000
01000000
00000000
00001000
00010000
00000100
00000000
,
00001000
00000001
00000010
00000000
00000100
00001000
00000001
00000000
,
00000100
00000010
00000100
00000010
00000100
00000000
00000000
00000000
;

//--------------- dance-double - forcednature ----------------
#NOTEDATA:;
#STEPSTYPE:dance-double;
#DESCRIPTION:forcednature;
#DIFFICULTY:Hard;
#METER:14;
#RADARVALUES:0,0,0,0,0;
#CREDIT:forcednature;
#NOTES:
00000000
00000000
00000000
00000000
,
00000000
00000000
00000000
00000000
,
00000000
00000000
00000000
00000000
,
00000000
00000000
00000000
00000000
,
00000000
00011000
00010100
01001000
,
00011000
00000000
00000000
00000000
,
00000000
00000000
00000000
00000000
,
00010010
00000000
00101000
00000000
,
00001100
00010010
00101000
01010000
,
00011000
00000000
00000000
00000000
00011000
00000000
00000000
00000000
00001000
00000000
00010000
00000000
00001000
00010000
00001000
00010000
,
00001000
00000000
00000000
00000000
,
00000010
00000100
00001000
00000100
00020000
00000000
00000000
00030000
,
00001000
00100000
01000000
00100000
00001000
00100000
01000000
00100000
,
00000000
00001000
00010000
00000010
00002000
00000000
00000000
00003000
,
00000100
00000010
00000001
00000000
00000101
00000000
00001010
00000000
,
00000000
00000010
00010000
00001000
00020000
00000000
00000000
00030000
,
00000010
00000100
00001000
00000100
00000010
00000100
00001000
00000100
,
00000000
00000010
00010000
00001000
00200000
00000000
00000000
00300000
,
01000000
10000000
00100000
00000000
01100000
00000000
01000000
00010000
,
00100000
00001000
00010000
00000010
00000100
00001000
00000100
00000001
,
00000010
00000100
00010000
00001000
00100000
01000000
00000000
00000000
,
10000000
00100000
00010000
00100000
02000000
00000000
10000000
00000000
,
03010000
01000000
00001000
00000000
00011000
00000000
00010000
00000100
,
00001000
00000010
00000100
00001000
00000100
00000001
00000010
00000100
,
00010000
00001000
00100000
01000000
00100000
00010000
00000000
00000000
,
01000000
00100000
10000000
00010000
00200000
00000000
01000000
00000000
,
00310000
00100000
00001000
00000000
00011000
00000000
00010010
00000000
,
00001010
00000000
00000010
00000100
00000000
00001000
00000100
00000001
,
00001000
00000000
00000100
00010000
00000000
00001000
00100000
01000000
,
10000000
00000000
00010000
01000000
00000000
00001000
00010000
00000010
,
00000000
00001000
00000100
00000001
00000100
00000010
00000001
00000100
,
00000010
00000000
00010000
00001000
00000000
00100000
00001000
00010000
,
00100000
00000000
10000000
00010000
00000000
00100000
01000000
10000000
,
00100000
00000000
01000000
10000000
00000000
01000000
00010000
00100000
,
00000000
01000000
10000000
01000000
00010000
00001000
00000100
00000001
,
00000010
00000100
00010000
00001000
01000000
00010000
00100000
00001000
,
00010000
00100000
10000000
00010000
00100000
01000000
00000000
00100000
,
00001000
00010000
00000010
00000100
00001000
00000100
00000001
00000010
,
00000100
00000001
00000100
00001000
00000100
00000000
00010000
00001000
,
01000000
00010000
00100000
00010000
10000000
00100000
10000000
01000000
,
00010000
00001000
00000010
00000100
00001000
00000010
00000000
00000010
,
00000100
00001000
00000100
00000001
00000010
00000100
00010000
00001000
,
01000000
00010000
01000000
10000000
01000000
00000000
00100000
00000000
,
10010000
00000000
00000000
00000000
,
00000000
00000000
00000000
00000000
,
00000000
00000000
00000000
00000000
,
00000000
00000000
00000000
00000000
,
00000000
00000000
00000000
00000000
,
00000000
00000000
00000000
00000000
,
00000000
00000000
00000000
00000000
,
00000000
00000000
00000000
00000000
00000000
00000000
00001000
00010000
,
00000100
00001000
00000010
00001000
00000100
00000010
00000001
00000100
,
00000001
00000010
00000100
00010000
00001000
00100000
01000000
10000000
,
00100000
10000000
01000000
00100000
00010000
01000000
00001000
00010000
,
00001000
00000010
00000100
00000010
00000001
00000000
00000100
00000001
,
00000100
00000010
00001000
00000010
00010000
00001000
00100000
00010000
,
00100000
01000000
10000000
00010000
01000000
00100000
00000000
00100000
,
01000000
00010000
00100000
00001000
00010000
00000010
00001000
00000010
,
00000100
00001000
00000100
00000001
00000100
00000000
00000010
00010000
,
00001000
00100000
00010000
00100000
01000000
00100000
00010000
10000000
,
00100000
10000000
01000000
00010000
01000000
00100000
00001000
00010000
,
00000010
00001000
00000100
00000010
00000001
00000100
00000010
00001000
,
00000100
00010000
00001000
00010000
00100000
00000000
01000000
00100000
,
10000000
00010000
00100000
01000000
00100000
00001000
00010000
00000010
,
00000100
00000001
00000010
00000100
00000010
00000001
00001000
00000010
,
00010000
00001000
00100000
00001000
00010000
00100000
10000000
00100000
,
01000000
00000000
01100000
00000000
10010000
00000000
10000000
01000000
,
00010000
00001000
00010000
00100000
00010000
00001000
00000010
00000100
,
00001000
00000010
00000001
00000010
00000100
00000001
00000010
00000100
,
00010000
00001000
00100000
01000000
00100000
00001000
00010000
00100000
,
10000000
01000000
00010000
00001000
00000100
00000000
00000010
00001000
,
00000100
00000010
00000001
00000100
00001000
00010000
01000000
10000000
,
00100000
00010000
00100000
10000000
00010000
00100000
01000000
00100000
,
00001000
00010000
00000100
00000010
00001000
00000010
00000001
00000100
,
00001000
00010100
00101000
00000000
,
00001000
00010000
00100000
01000000
00200000
00000000
10000000
00000000
,
01300000
10000000
01000000
00010000
01000000
10000000
01000000
00000000
,
00010000
00100000
00001000
00010000
00000200
00000000
00000010
00000000
,
00001300
00010010
00001000
00110000
,
01000000
00010000
00100000
00001000
00020000
00000000
00100000
00000000
,
00031000
00000010
00000001
00000010
00001000
00000010
00000001
00000000
,
00000100
00000010
00001000
00000010
00020000
00000000
00000100
00000000
,
00031000
00000000
00011000
00000000
00011000
00000000
00010000
00100000
,
10000000
01000000
00010000
00001000
00000010
00000100
00010000
00001000
,
00000100
00000001
00000010
00000100
00010000
00001000
00100000
01000000
,
00010000
00001000
01000000
00100000
10000000
01000000
00100000
00001000
,
00010000
00000010
00000100
00000010
00000001
00000000
00000010
00001000
,
00010000
01000000
00010000
00100000
01000000
00010000
00000100
00010000
,
00001000
00000100
00000010
00001000
00010000
01000000
00000000
00100000
,
10000000
01000000
00010000
00001000
00000010
00000001
00000100
00001000
,
00010000
01000000
00100000
00001000
00010000
00000000
00000000
00000000
;

//--------------- dance-double - forcednature ----------------
#NOTEDATA:;
#STEPSTYPE:dance-double;
#DESCRIPTION:forcednature;
#DIFFICULTY:Challenge;
#METER:16;
#RADARVALUES:0,0,0,0,0;
#CREDIT:forcednature;
#NOTES:
00000000
00000000
00000000
00000000
,
00000000
00000000
00000000
00000000
,
00000000
00000000
00000000
00000000
,
00000000
00000000
00000000
00000000
,
00000000
00010100
00010010
01001000
,
00101000
00000000
00000000
00000000
,
00000000
00000000
00000000
00000000
,
00010100
00000000
01001000
00000000
,
00101000
01010000
00001100
00010010
,
00011000
00000000
00000000
00000000
00011000
00000000
00000000
00000000
00001000
00000000
00010000
00000000
00001000
00010000
00001000
00010000
,
00001000
00000000
00000000
00000000
,
01000000
00010000
00100000
01000000
20000000
00000000
00100000
30000000
,
00010000
01000000
00010000
00000000
00100000
00000000
00001000
00000000
01000000
00010000
01000000
00000000
00001000
00000000
00100000
00000000
,
00010000
01000000
00001000
00010000
00000200
00000000
00001000
00000300
,
00000010
00000001
00000010
00000000
00000100
00000000
00000000
00000000
00010100
00000000
00000000
00000000
01001000
00000000
00000000
00000000
,
01000000
00010000
10000000
01000000
00200000
00000000
00001000
00300000
,
00000100
00010000
00000100
00000000
00001000
00000000
00000010
00000000
00010000
00000100
00010000
00000000
00000010
00000000
00001000
00000000
,
00000001
00000010
00000100
00010000
00002000
00000000
00100000
00003000
,
01000000
00010000
01000000
00000000
00100000
00000000
00000000
00000000
01100000
00000000
00000000
00000000
01000000
00000000
00010000
00000000
,
10000000
00100000
10000000
01000000
00010000
00001000
00000100
00000001
,
00000010
00001000
00000010
00000001
00000100
00000010
00000000
00000000
,
00001000
00000100
00010000
00001000
02000000
00000000
10000000
03000000
,
00010000
00100000
00010000
00000000
01000000
00000000
00000000
00000000
00011000
00000000
00000000
00000000
00000100
00000000
00001000
00000000
,
00000010
00010000
00001000
00000010
00000100
00010000
00001000
00000100
,
00001000
01000000
00010000
00100000
10000000
00100000
00000000
00000000
,
01000000
10000000
01000000
00010000
00002000
00000000
00000100
00003000
,
00010000
00001000
00010000
00000000
00000010
00000000
00000000
00000000
00000110
00000000
00000000
00000000
00001001
00000000
00000000
00000000
,
00001000
00000000
00000100
00001000
00000100
00000000
00010000
00000000
00000000
00000000
00001000
00000000
01000000
00000000
00010000
00000000
,
01000000
00000000
00100000
10000000
00100000
00000000
10000000
00000000
00000000
00000000
01000000
00000000
00100000
00000000
00001000
00000000
,
00010000
00000000
00000100
00010000
00000100
00000000
00001000
00000000
00000000
00000000
00000010
00000000
00000100
00000000
00000001
00000000
,
00000000
00000010
00001000
00010000
00100000
00010000
00001000
00010000
,
01000000
00000000
00100000
00010000
00100000
00000000
01000000
00000000
00000000
00000000
10000000
00000000
00010000
00000000
01000000
00000000
,
00001000
00000000
00010000
00001000
00010000
00000000
00000100
00000000
00000000
00000000
00001000
00000000
00000010
00000000
00000100
00000000
,
00000001
00000000
00000010
00000100
00000010
00000000
00000001
00000000
00000000
00000000
00000100
00000000
00001000
00000000
00010000
00000000
,
00001000
01000000
00010000
10000000
01000000
00010000
00001000
00010000
,
00000010
00000100
00001000
00010000
00000100
00000010
00001000
00010000
,
00100000
01000000
00001000
00010000
01000000
00100000
00001000
00010000
,
00100000
10000000
01000000
00010000
00001000
00000100
00000001
00000010
,
00000100
00010000
00100000
00001000
00000100
00000000
00010000
00001000
,
00000100
00001000
00010000
01000000
00100000
00001000
00010000
00000010
,
00000100
00001000
00010000
00100000
10000000
00010000
00100000
01000000
,
00100000
00001000
00000010
00001000
00010000
00100000
00010000
00000010
,
00000100
00001000
01000000
00010000
00100000
00000000
01000000
00000000
,
10010000
00000000
00000000
00000000
,
00000000
00000000
00000000
00000000
,
00000000
00000000
00000000
00000000
,
00000000
00000000
00000000
00000000
,
00000000
00000000
00000000
00000000
,
00000000
00000000
00000000
00000000
,
00000000
00000000
00000000
00000000
,
00000000
00000000
00000000
00000000
00000000
00000000
10000000
01000000
,
00100000
00010000
00001000
00000100
00000010
00000001
00000100
00001000
,
00010000
00001000
00000010
00000100
00010000
00001000
01000000
00010000
,
00001000
00000010
00000100
00001000
00010000
00100000
10000000
01000000
,
00010000
00001000
00010000
00100000
00010000
00000000
00000200
00002300
,
00003020
00020030
00032000
00203000
02300000
03020000
00032000
02003000
,
03200000
00320000
00032000
00003020
00000230
00020300
00030000
00002000
,
00003200
00000302
00000023
00000230
00020300
00032000
02003000
03020000
,
00230000
20300000
30200000
00320000
00230000
00300000
00001000
00010000
,
00000010
00000000
00001000
00000010
00001000
00000000
00000100
00000000
00000010
00000000
00000001
00000010
00000001
00000000
00000100
00000000
,
00000010
00000000
00000010
00010000
00001000
00000000
00100000
00000000
00010000
10000000
00010000
00000000
01000000
00000000
00001000
00000000
,
00010000
00000000
00000100
00001000
00000100
00000000
00010000
00000000
00001000
00000000
01000000
00010000
01000000
00000000
00100000
00000000
,
10000000
01000000
10000000
00000000
00010000
01000000
00010000
00000000
00100000
00000000
00000000
00000000
00001000
00000000
00010000
00000000
,
00000010
00000000
00001000
00000010
00001000
00000000
00000100
00000000
00000010
00000000
00000001
00000010
00000001
00000000
00000100
00000000
,
00000010
00000000
00000010
00010000
00001000
00000000
00100000
00000000
00010000
01000000
00010000
00000000
10000000
00000000
01000000
00000000
,
00100000
00001000
00100000
00001000
00010000
00000000
00000100
00000000
00001000
00000010
00001000
00000010
00010000
00000000
00000100
00000000
,
00001000
00000010
00001000
00000000
00000100
00001000
00000100
00000000
00010000
00000000
00000000
00000000
00001000
00000000
01000000
00000000
,
00010000
00000000
10000000
01000000
00100000
00000000
00010000
00000000
01000000
00000000
00001000
00010000
00000100
00000000
00001000
00000000
,
00000010
00000000
00000010
00000100
00000001
00000000
00000010
00000000
00000100
00010000
00001000
00000000
01000000
00000000
00010000
00000000
,
00100000
00000000
01000000
10000000
00010000
00000000
01000000
00000000
00001000
00000000
00010000
00000100
00001000
00000000
00000010
00000000
,
00000100
00000001
00000010
00000000
00000100
00001000
00000010
00000000
00010000
00000000
00000000
00000000
00001000
00000000
00100000
00000000
,
00010000
00000000
10000000
00100000
01000000
00000000
00001000
00000000
00010000
00000000
00000100
00001000
00000010
00000000
00000100
00000000
,
00000001
00000000
00000001
00000010
00000100
00000000
00001000
00000000
00000010
00010000
00001000
00000000
00100000
00000000
00010000
00000000
,
01000000
00010000
01000000
00010000
10000000
00000000
01000000
00000000
00100000
00001000
00100000
00001000
00010000
00000000
00000010
00000000
,
00000100
00000001
00001000
00000000
00000100
00010000
00001000
00000000
00022000
00000000
00000000
00000000
00033000
00000000
00000000
00000000
,
01000000
00010000
00100000
00010000
,
01000000
00010000
00100000
00011000
,
00000100
00001000
00000010
00001000
,
00000001
00000000
00000010
00000000
,
00000100
00010000
01000000
00010000
,
00000100
00010000
01000000
00000000
,
00100000
00001000
00000010
00001000
,
00100000
00000000
00011000
00000000
00011000
00000000
00000010
00001000
,
00000001
00000010
00000100
00000010
00000001
00000000
00001000
00000010
00010000
00000000
00001000
01000000
00010000
00000000
00100000
00000000
,
01000000
10000000
00010000
10000000
00100000
00000000
01000000
00001000
00010000
00000000
00000100
00001000
00000010
00000000
00000100
00000000
,
00000001
00000010
00000001
00001000
00000010
00000000
00010000
00001000
00100000
00000000
00010000
00100000
01000000
00000000
10000000
00000000
,
00010000
01000000
00010000
01000000
00001000
00000000
00010000
00000100
00002000
00000000
00000000
00000000
00003010
00000000
00000100
00000000
,
00000001
00000010
00000100
00001000
00000010
00000000
00010000
00001000
01000000
00000000
00010000
00100000
01000000
00000000
00100000
00000000
,
00010000
10000000
00100000
01000000
00010000
00000000
00100000
00001000
00010000
00000000
00000010
00001000
00000100
00000000
00000010
00000000
,
00000001
00000100
00000010
00001000
00000010
00000000
00010000
00000000
00001000
00100000
00010000
00100000
01000000
00000000
10000000
00000000
,
00010000
01000000
00001000
00000000
00010000
00000100
00001000
00000000
00001001
00000000
00000000
00000000
00000000
00000000
00000000
00000000
;
