#VERSION:0.83;
#TITLE:uən;
#SUBTITLE:;
#ARTIST:少年ラジオ;
#TITLETRANSLIT:uen;
#SUBTITLETRANSLIT:;
#ARTISTTRANSLIT:Shounen radio;
#GENRE:RINASCITA;
#CREDIT:;
#MUSIC:uen.ogg;
#BANNER:uen.png;
#BACKGROUND:uen-bg.png;
#CDTITLE:./CDTitles/pnm portable 2.png;
#SAMPLESTART:70.394;
#SAMPLELENGTH:15.000;
#SELECTABLE:YES;
#OFFSET:1.269;
#BPMS:0.000=200.000;
#STOPS:;
#TIMESIGNATURES:0.000=4=4;
#BGCHANGES:0.000=../BGAs/27em.mp4=1.000=0=0=0=StretchNoLoop====,
99999.000=-nosongbg-=1.000=0=0=0=StretchNoLoop====
;
#FGCHANGES:;

//--------------- dance-single - forcednature ----------------
#NOTEDATA:;
#STEPSTYPE:dance-single;
#DESCRIPTION:forcednature;
#CREDIT:forcednature;
#DIFFICULTY:Beginner;
#METER:6;
#RADARVALUES:0,0,0,0,0;
#NOTES:
0000
0000
0000
0000
,
0000
0000
0000
0000
,
0000
0000
0000
0000
,
0000
0000
0000
0000
,
0001
0000
0000
0000
,
0000
0000
0000
0000
,
1000
0000
0000
0000
,
0000
0000
0000
0000
,
0010
0000
0010
0000
,
0100
0000
0001
0000
,
0010
0000
0010
0000
,
0100
0000
1000
0000
,
0002
0000
0000
0000
,
0003
0000
0000
0000
,
0200
0000
0000
0000
,
0300
0000
0000
0000
,
0010
0000
0010
0000
,
1000
0000
0000
0000
,
0100
0000
0100
0000
,
1000
1000
0001
0000
,
0020
0000
0000
0000
,
0030
0000
0000
0000
,
0002
0000
0000
0000
,
0003
0000
0000
0000
,
0200
0000
0000
0000
,
0300
0000
0000
0000
,
0020
0000
0000
0000
,
0030
0000
1000
0000
,
1000
0000
0100
0000
,
1000
0000
0000
0000
,
0001
0000
0100
0000
,
0001
0000
0000
0000
,
0010
0000
0100
0000
,
1000
0000
0000
0000
,
0001
0000
0100
0000
,
0010
0000
1000
0000
,
0002
0000
0000
0000
,
0003
0000
0000
0000
,
0020
0000
0000
0000
,
0030
0000
0000
0000
,
0200
0000
0000
0000
,
0300
0000
0000
0000
,
1000
0000
0000
0000
,
0001
0000
0001
0000
,
0100
0000
0000
0000
,
0010
0000
1000
0000
,
0010
0000
0000
0000
,
1000
0000
0100
0000
,
1000
0000
0000
0000
,
0010
0000
0100
0000
,
0001
0000
0000
0000
,
0010
0000
0100
0000
,
2000
0000
3000
0000
,
0000
0000
0000
0000
,
0000
0000
0000
0000
,
0000
0000
0000
0000
,
0001
0000
0001
0000
,
0100
0000
0001
0000
,
0010
0000
0100
0000
,
1000
0000
0000
0000
,
0010
0010
0000
0100
,
0000
0001
0000
0000
,
0010
0010
0000
0100
,
0000
1000
0000
0000
,
0001
0001
0001
0000
,
0100
0000
0001
0000
,
1000
0000
0010
0000
,
1001
0000
0000
0000
,
1000
0000
1000
0000
,
0100
1000
0000
0000
,
0001
0000
0001
0000
,
0100
0001
0000
0000
,
0010
0010
0000
0010
,
0100
0100
0000
0100
,
1000
0000
0001
0000
,
0100
0010
0100
0000
,
0001
0000
0010
0000
,
0001
0000
0010
0000
,
0100
0000
1000
0000
,
0100
0000
1000
0000
,
0010
0000
0100
0000
,
0001
0000
1000
0000
,
0001
0000
0100
0000
,
0010
0000
0000
0000
,
1000
1000
1000
0000
,
0100
0000
0010
0000
,
0001
0001
0001
0000
,
0100
0000
0010
0000
,
1000
0000
1001
0000
,
0010
0000
0110
0000
,
0001
1000
0001
0000
,
0100
0000
0010
0000
,
2000
0000
0000
0000
,
3000
0000
0000
0000
,
0001
0000
0000
0000
,
0100
0000
0000
0000
,
0020
0000
0000
0000
,
0000
0000
0030
0000
;

//--------------- dance-single - forcednature ----------------
#NOTEDATA:;
#STEPSTYPE:dance-single;
#DESCRIPTION:forcednature;
#CREDIT:forcednature;
#DIFFICULTY:Easy;
#METER:10;
#RADARVALUES:0,0,0,0,0;
#NOTES:
0000
0000
0000
0000
,
0000
0000
0000
0000
,
0000
0000
0000
0000
,
0000
0000
0000
0000
,
2000
0000
3002
0000
,
0203
0000
0302
0000
,
2003
0000
3020
0000
,
2030
0000
0002
3003
,
1000
0100
1000
0010
,
1000
0100
0010
1001
,
0001
0100
0001
0010
,
0001
0100
0010
1001
,
2000
0000
0000
3000
,
0200
0000
0000
0300
,
0020
0000
0000
0030
,
0002
0000
0100
0103
,
0001
1000
0010
1000
,
0001
0100
0010
0100
,
0001
1000
0100
1000
,
0001
0000
0010
0000
0100
0010
0100
0000
,
2000
0000
3002
0000
,
0203
0000
0000
0300
,
0020
0000
2030
0000
,
3200
0000
0320
0000
,
0032
0000
0000
0003
,
0200
0000
0000
0300
,
0020
0000
2030
0000
,
3001
0001
0001
0000
,
0100
0010
1000
0010
,
0100
0001
0010
0000
,
0100
1000
0001
1000
,
0100
0010
0001
0000
,
0100
0001
1000
0010
,
1000
0001
0010
0000
,
0100
1000
0010
0100
,
0001
0000
0010
0000
0001
1000
0001
0000
,
0200
0000
0000
0300
,
0020
0000
0000
0030
,
2000
0000
0000
3000
,
0002
0000
0000
0003
,
0020
0000
0000
0030
,
0200
0000
0000
0300
,
1000
1000
0001
0001
,
0100
0000
0001
0000
0100
0010
0100
0000
,
0010
0000
1000
0010
0000
0000
1000
0000
,
0100
1000
0001
0010
,
0100
0000
0010
0001
0000
0000
0100
0000
,
0001
1000
0100
1000
,
0010
0000
0100
0010
0000
0000
1000
0000
,
0100
0010
0100
1000
,
0001
0000
0100
0001
0000
0000
0010
0000
,
0001
1000
0010
2000
,
3200
0320
0030
0000
,
0000
0000
0000
0000
,
0000
0000
0000
0000
,
0000
0000
0000
0000
0000
0001
1000
0000
,
1000
1000
0010
0010
,
0100
0001
0010
0100
,
2000
0001
0001
3001
,
0100
0000
0010
0000
0100
0010
0000
0000
,
1000
0100
1001
1000
,
0001
0010
0110
0001
,
1000
0010
1001
0001
,
0100
0010
0110
1000
,
0001
0000
0010
0001
0010
0000
0001
0000
,
1000
0000
0010
1000
0010
0000
0100
0000
,
0001
0000
0000
0010
0000
0000
0100
0000
,
1000
0001
0000
0001
1000
0000
0010
0000
,
1000
0100
1001
0001
,
0010
0001
1001
0100
,
1000
0010
0110
0001
,
0010
0000
0100
0000
1000
0100
1000
0000
,
0010
0000
0000
0110
0000
0001
0000
0000
,
1000
0000
0000
1001
0000
0010
0000
0000
,
0001
0000
0001
0100
0000
0100
0010
0000
,
1000
0000
0001
0000
0010
0100
0010
0000
,
0001
0000
0001
0000
0100
0001
0100
0000
,
0010
0000
1000
0000
0010
1000
0010
0000
,
1000
0000
0100
0000
1000
0100
1000
0000
,
0001
0000
0010
0000
0001
0010
0001
0000
,
0100
0110
0001
1001
,
0010
0110
1000
1001
,
0001
0010
0100
1000
,
0010
0100
0000
0100
0000
0100
0000
0000
,
0001
0010
0001
0000
0010
0001
0010
0000
,
0001
0100
0001
0000
0100
0001
0100
0000
,
0010
1000
0010
0000
1000
0010
1000
0000
,
0100
1000
0100
0000
1000
0100
1000
0000
,
0010
1000
0010
0000
0100
0001
0100
0000
,
0001
0010
0001
0000
1000
0100
1000
0000
,
0010
1001
0100
0110
,
0010
1001
0110
1001
,
2000
0000
0000
0000
,
3100
0000
1000
0000
,
0001
0000
0000
0001
0000
0000
0001
0000
,
0010
0000
0100
0000
,
2000
0000
0000
0000
,
0000
0000
3000
0000
;

//--------------- dance-single - forcednature ----------------
#NOTEDATA:;
#STEPSTYPE:dance-single;
#DESCRIPTION:forcednature;
#CREDIT:forcednature;
#DIFFICULTY:Medium;
#METER:13;
#RADARVALUES:0,0,0,0,0;
#NOTES:
0000
0000
0000
0000
,
0000
0000
0000
0000
,
0000
0000
0000
0000
,
0000
0000
0000
0000
,
2000
0000
3002
0000
,
0203
0000
0320
0000
,
2030
0000
3002
0000
,
0023
0000
0200
0330
,
0010
0001
0000
0100
0010
1000
0000
0100
,
0010
0001
0000
0100
0010
0000
1001
0000
,
1000
0100
0000
0010
0001
0100
0000
0010
,
1000
0100
1000
0000
0001
0100
0001
0100
,
0020
0000
0000
0030
,
2000
0000
0000
3000
,
0002
0000
0000
0000
0000
0000
0103
0100
,
0000
0010
0010
0000
1001
0000
1000
0001
,
0010
0000
0010
0001
0100
0000
0100
0010
,
1000
0000
1000
0100
0010
0000
0001
0100
,
0010
0000
0010
1000
0001
0000
0001
1000
,
0100
0010
0100
0010
0001
1000
0010
0000
,
0200
0000
0302
0000
,
0023
0000
0000
0030
,
0200
0000
2300
0000
,
3002
0000
0000
0003
,
0200
0000
0000
0300
,
0020
0000
0000
0030
,
1000
0000
0100
0000
0010
0000
0001
0010
,
0000
0001
0100
0000
0010
1000
0001
0000
,
0011
0000
1000
0100
0001
0000
0100
1000
,
0010
0000
1000
0001
0100
0000
0010
0000
,
1010
0000
0001
0100
1000
0000
0100
0001
,
0010
0000
0010
0001
0100
0000
0010
0000
,
0110
0000
0010
1000
0100
0000
1000
0001
,
0010
0000
0001
0100
1000
0000
0100
0000
,
1001
0000
0001
0010
0100
0000
1000
0010
,
0100
0001
0001
0000
0100
0010
1000
0000
,
0002
0000
0000
0000
0000
0000
0003
0010
,
0200
0000
0000
0300
,
2000
0000
0000
0000
0000
0000
3000
0010
,
0200
0000
0000
0300
,
0002
0000
0000
2003
,
3200
0010
0020
0330
,
0001
0000
0001
0100
0000
0100
0010
0000
,
1000
0001
1000
0000
0100
0000
0100
0000
,
0110
0000
0010
0001
0100
0000
0010
1000
,
0100
0000
1000
0001
0100
0001
1000
0000
,
0010
0000
1000
0100
0010
0000
0001
0100
,
0010
0000
0100
0001
0010
0001
1000
0000
,
0110
0000
0001
0010
0100
0000
1000
0010
,
0100
0000
0001
1000
0100
1000
0001
0000
,
0100
0010
1000
0000
0100
0010
0001
0000
,
0100
0010
1000
0010
0100
0000
0002
0000
,
0023
0230
0300
0000
,
0000
0000
0000
0000
,
0000
0000
0000
0000
,
0000
0000
0000
0000
0000
1000
0001
1000
,
0001
0100
0010
1000
,
0001
0010
0100
1000
,
0020
0100
0100
0130
,
0001
1000
0001
1000
0000
0001
0100
0010
,
0000
1000
0100
0001
0100
0010
0001
1000
,
0000
0001
0100
1000
0100
0010
1000
0001
,
0000
0010
0100
0001
0100
1000
0010
0100
,
0000
0001
1000
0100
1000
0010
0100
0000
,
0110
0000
0001
0010
0100
0000
0010
0001
,
1000
0000
0001
0100
1000
0000
0100
0001
,
0020
0000
0000
0230
0000
0000
2300
0000
,
3010
0100
0100
0001
1000
0010
1000
0100
,
0000
0001
0100
1000
0001
0010
0001
0100
,
0000
1000
0100
0001
1000
0010
1000
0100
,
0000
0010
1000
0010
0001
1000
0010
0100
,
0000
0010
0001
0010
1000
0001
0100
0000
,
0001
0010
0100
1100
0000
2020
0000
3030
,
1000
0010
0100
0101
0000
0022
0000
0033
,
0001
0001
1000
0001
0001
0100
0010
0000
,
1000
0100
0001
0000
0100
0000
0100
0000
,
0010
0001
0000
0001
0100
0010
0000
0010
,
1000
0100
0000
0100
1000
0001
1000
0000
,
0010
0100
0000
0100
0001
0010
0000
0010
,
0100
1000
0000
1000
0010
0100
0010
0000
,
1010
1100
0011
0101
,
1001
1010
1001
0011
,
0010
0100
1000
0000
0010
0100
0001
0000
,
0010
0001
0000
1001
0000
0110
0000
0000
,
1000
0100
1000
0100
0010
0100
0010
0100
,
1000
0001
0100
0001
0010
0001
1000
0000
,
0001
0100
0001
0100
0010
0100
0010
0100
,
0001
1000
0010
1000
0100
1000
0010
0000
,
1000
0100
1000
0100
0001
0100
0010
0001
,
1000
0010
1000
0010
0100
1000
0100
0000
,
0001
0010
0001
0100
0001
1000
0001
0100
,
0010
0000
1001
0000
1000
0100
0100
1000
,
0002
0000
0000
0000
,
0013
0000
0000
0010
0000
0000
0001
0000
,
0200
0000
0000
0010
0000
0000
0010
0000
,
0301
1000
0100
0010
,
0002
0000
0000
0000
,
0000
0000
0003
0000
;

//--------------- dance-single - forcednature ----------------
#NOTEDATA:;
#STEPSTYPE:dance-single;
#DESCRIPTION:forcednature;
#CREDIT:forcednature;
#DIFFICULTY:Hard;
#METER:16;
#RADARVALUES:0,0,0,0,0;
#NOTES:
0000
0000
0000
0000
,
0000
0000
0000
0000
,
0000
0000
0000
0000
,
0000
0000
0000
0000
,
2000
0000
3200
0000
,
0320
0000
0032
0000
,
2003
0000
3020
0000
,
0230
0001
0302
0003
,
0001
0001
0010
0001
1000
1000
0100
1000
,
0010
0010
0100
0001
1000
0000
1001
0000
,
1000
1000
0100
1000
0001
0001
0100
0001
,
0010
0000
0010
0000
0100
0000
0010
0000
0001
0000
1000
0001
1000
0000
0000
0000
,
0020
0000
0000
0000
,
0230
0000
0000
0000
,
0302
0000
0000
0000
0000
0000
1000
1000
,
0000
0100
0103
0000
0011
0000
0010
0001
,
0100
0000
0100
0010
1000
0010
0100
0001
,
0010
0000
0010
0100
1000
0100
0010
0001
,
1000
0000
0001
0010
0001
0100
0010
1000
,
0100
0000
1000
0000
1000
0000
0010
0000
0100
0000
0001
0100
0001
0000
0000
0000
,
0020
0032
0203
0000
,
0320
0000
0000
0030
,
2000
0000
3200
0000
,
0320
0000
0032
0000
,
0203
0000
0000
0320
,
2030
0000
0000
3000
,
0002
0023
0230
2300
,
3001
0000
0100
0000
0001
0000
0100
0000
0010
0000
1000
0000
0010
1000
0010
0000
,
0100
0001
0010
0000
0011
0000
0001
1000
,
0100
1000
0010
0000
1010
0000
1000
0001
,
0100
0000
1000
0100
0001
0000
0010
0001
,
1000
0010
0100
0001
0010
0001
0100
0000
,
0010
1000
0100
0000
0101
0000
0100
1000
,
0001
0010
0001
0000
1000
1000
0010
0000
,
0100
0001
0010
0001
0100
0000
0110
0000
,
0010
0000
1000
0000
1000
0000
0100
0000
1000
0000
0001
0000
0010
0001
0010
0000
,
0002
0000
0000
0000
0000
0000
0003
0100
,
0020
0000
0000
0030
,
2000
0000
0000
0000
0000
0000
3000
0100
,
0020
0000
0000
0030
,
0002
0000
0000
0203
,
0320
0000
0000
1000
2000
0000
0030
0000
,
3001
0100
0001
0100
0010
1000
0001
0000
,
0010
0000
0001
0000
0001
0000
1000
0000
0100
0010
0100
0000
0010
0100
0010
0000
,
0001
0100
0100
1000
0100
0100
0001
0000
,
1000
0000
0100
0000
0100
0000
0001
0000
0100
0000
1000
0000
0100
0010
0001
0000
,
1000
0010
0010
0001
0010
0010
1000
0000
,
0001
0010
1000
0010
0001
0000
1001
0000
,
1000
0010
0100
1000
0100
0001
1000
0010
,
1000
0000
0100
0000
0001
0000
0100
0000
0010
0000
0001
0000
0010
0001
1000
0000
,
0100
0100
1000
0010
0100
0001
0010
0001
,
0100
0000
0010
0000
1000
0010
1000
0000
0001
0000
0010
0000
0200
0000
0000
0000
,
2300
3020
0030
0000
,
0000
0000
0000
0000
,
0000
0000
0000
0000
,
0000
0000
0000
0000
0000
0100
0001
0100
,
0001
0000
0001
0010
0100
0000
0100
1000
,
0010
0000
0010
0100
0001
0000
0001
1000
,
0100
0010
0100
0010
0001
1000
0010
1000
,
0001
0000
0100
0010
0100
0010
0100
0010
0100
0010
0100
0010
0000
0000
0000
0000
,
1000
0000
0100
0000
0010
0000
0100
1000
0001
0000
0010
0000
0011
0000
0000
0000
,
0001
0000
0100
0000
0010
0000
0100
0001
1000
0000
0010
0000
0100
0000
0001
0000
,
0010
0000
0100
0000
1000
0000
0100
0010
0001
0000
1000
0000
0010
0000
0000
0000
,
0100
0000
0001
0000
0001
0000
0010
0000
0001
1000
0100
0000
1000
0100
1000
0000
,
0010
0000
0100
0000
0001
0000
0010
0001
0010
0000
0100
0000
1000
0000
0010
1000
,
0010
0000
0100
0000
0001
0000
1000
0100
1000
0000
0001
0000
0100
0000
0000
0000
,
0110
0000
0010
1000
0000
0100
0010
0000
,
0001
0000
0100
0000
0100
0000
0001
0000
1000
0010
1000
0000
0001
0010
0001
0000
,
1000
0000
0100
0000
0010
0000
0100
1000
0010
0000
0100
0000
0001
0000
0010
0000
,
0001
0000
0100
0000
0010
0000
0100
0001
0010
0000
0100
0000
1000
0000
0010
0000
,
1000
0000
0100
0000
0001
0000
0100
1000
0001
0000
0010
0000
0100
0000
1000
0000
,
0001
0000
0100
0000
1000
0000
0100
0001
1000
0000
0010
0000
0010
0000
0000
0000
,
1100
0100
0010
0012
0000
1000
1003
0000
,
0101
0100
0010
2010
0000
0001
3001
0000
,
1000
0000
0100
0000
0100
0000
1000
0000
0010
0100
0010
0000
0100
0000
0001
0000
,
0010
0000
0100
0000
0100
0000
0010
0000
0001
1000
0100
0000
1000
0001
0100
0000
,
0010
1000
0010
1000
0100
0100
0100
1000
,
0001
0001
0001
0010
0100
0100
1000
0001
,
0100
0000
0010
0100
0010
0000
0100
0000
0001
0000
0001
0000
0010
0000
0001
0000
,
1000
0000
0010
1000
0010
0000
1000
0000
0100
0000
0010
0000
0110
0000
0000
0000
,
0001
0000
0000
0001
0010
0000
0000
0100
0010
0000
0000
0001
0010
0000
0000
1000
,
0010
0000
0000
0001
1000
0000
0000
0100
1000
0000
0000
0010
0100
0000
0000
0000
,
0001
0000
0010
0000
0001
0000
0100
0010
1000
0000
0100
0000
1100
0000
0000
0000
,
1000
0000
1000
0000
0010
0000
1000
0000
0001
0100
0010
0000
1000
0100
0010
0000
,
0001
0000
0001
0000
0100
0001
0100
0000
0010
0100
0010
0000
1000
0100
1000
0000
,
0001
0000
0001
0000
0010
0100
0010
0000
0100
1000
0100
0000
1000
0010
1000
0000
,
0001
0000
0001
0000
0100
0001
0100
0000
0001
0010
0001
0000
1000
0010
1000
0000
,
0100
0000
0100
0000
0010
0100
1000
0000
0010
0100
0001
0000
0010
0001
0010
0000
,
0100
1000
0100
1000
0100
0000
1000
0000
0010
1000
0010
1000
0010
0000
1000
0000
,
0001
0100
0001
0100
0001
0000
0010
0000
0100
1000
0100
1000
0100
0000
0100
0000
,
0010
0001
0010
0000
0001
0100
0001
0000
1000
0100
1000
0000
0010
1000
0010
0000
,
0100
0000
0010
0000
0100
0010
1000
0000
0100
0010
0001
0000
1000
0010
0100
0001
,
2000
0000
0000
0000
,
3100
0010
0000
0010
0001
0000
0100
0000
,
0010
1000
0000
0001
0100
0000
0001
0000
,
0010
0100
0000
1000
0010
0000
0100
0000
,
0002
0000
0000
0000
,
0000
0000
0003
0000
;

//--------------- dance-single - forcednature ----------------
#NOTEDATA:;
#STEPSTYPE:dance-single;
#DESCRIPTION:forcednature;
#CREDIT:forcednature;
#DIFFICULTY:Challenge;
#METER:18;
#RADARVALUES:0,0,0,0,0;
#NOTES:
0000
0000
0000
0000
,
0000
0000
0000
0000
,
0000
0000
0000
0000
,
0000
0000
0000
0000
,
0002
0000
0023
0000
,
0230
0000
2300
0000
,
3002
0000
0203
0000
,
0320
0000
2030
0000
0200
0000
0000
3300
,
0001
0010
0100
0010
0001
0000
1000
0000
0001
0100
0010
0100
0001
0000
1000
0000
,
0100
0010
0001
1000
0010
0000
0100
0000
0110
0000
0000
0000
1001
0000
0000
0000
,
1000
0010
0100
0010
1000
0000
0001
0000
1000
0100
0010
0100
1000
0000
0001
0000
,
0100
0000
0010
1000
0100
0000
0010
0001
0100
0000
0000
0000
0110
0000
0000
0000
,
0002
0000
0000
0000
,
2003
0000
0000
0000
,
3200
0000
0000
0000
0000
0000
0010
0320
,
0000
0000
0031
0000
0001
0000
0100
0000
0101
0000
0000
0000
1000
0000
0010
1000
,
0010
0100
0000
0100
0001
0000
0010
0110
,
1000
0010
1000
0100
0001
0100
0000
0010
,
0002
0000
0000
0000
0100
0000
0000
0000
1000
0000
0000
0000
0013
0000
0001
1000
,
0200
0000
0010
0000
0310
0000
0100
0000
1000
0001
1000
0001
0100
0000
0000
0000
,
0020
1000
2000
0030
,
3200
0000
0010
0000
0301
0100
1000
0001
,
0020
0100
0032
0100
,
2003
0000
0010
0000
3001
0010
0100
1000
,
0020
0000
0001
0000
0100
0000
1030
0001
,
0200
0000
1000
0000
0010
0000
0301
1000
,
0002
0023
0230
2300
,
3010
0000
0100
0000
0100
0000
0010
0000
1000
0000
0001
0010
0100
0000
1000
0010
,
0100
0001
0011
0010
0001
0100
0101
0000
,
1010
1000
1100
0100
1000
0010
1010
0000
,
0001
0010
0011
0000
1000
0100
1100
0000
,
1001
0001
0101
1000
1010
0010
0110
0000
,
2001
0000
3100
0001
2000
0000
3010
0001
,
0200
0010
0320
1000
2030
0001
3002
0010
,
0013
0000
0011
1000
0100
0000
1001
0000
,
1000
0000
0010
1000
0010
0000
0100
0010
0100
0000
0001
0000
0011
0000
0010
0000
,
0200
0000
0000
0000
0000
0000
0300
1000
,
0020
0000
0000
0030
,
0200
0000
0000
0000
0000
0000
0300
0001
,
0020
0000
0000
0030
,
2001
0000
0000
3100
,
0120
0000
0001
0001
0002
0000
0030
0000
,
0103
0000
0100
0000
0001
0000
0010
0000
0010
0000
0001
0000
1000
0010
0100
0001
,
1000
0000
0100
0000
0010
0000
0001
0000
0100
0010
0100
0000
0100
0010
0100
0000
,
0001
0000
0010
0000
0100
0000
0010
0001
0100
0000
0010
0000
1000
0000
0001
0000
,
0100
0000
0010
0000
1000
0000
0100
0010
0100
0000
0010
0001
1000
0001
1000
0000
,
0010
0000
0100
0000
0001
0000
0010
0100
1000
0000
0010
0000
0100
0000
0001
0010
,
0001
0000
0100
0000
0100
0000
0001
0000
1000
0010
1000
0000
1010
0000
0000
0000
,
0001
0000
0010
0000
0100
0000
0010
0001
1000
0000
0010
0000
0100
0000
0010
1000
,
0001
0000
0100
0001
0100
0000
0010
0000
1000
0000
0000
0000
1100
0000
0000
0000
,
0001
0000
0010
0000
0010
0000
0001
1000
0100
0000
1000
0000
1010
0000
0000
0000
,
0001
0000
0100
0000
0001
1000
0010
0000
0100
0010
0100
0010
0200
0000
0000
0000
,
0302
0023
0030
0000
,
0000
0000
0000
0000
,
0000
0000
0000
0000
,
0000
0000
0000
0000
0000
0100
0100
1000
,
0020
0000
0130
0001
0020
0000
0130
1000
,
0020
0000
0000
1030
0100
1000
0100
0010
0100
0010
0001
1000
,
0020
0000
0100
0000
0130
0000
0010
1000
,
0001
0000
0010
0100
1000
0100
0010
0100
1000
0001
0020
0000
0000
0000
0030
0000
,
0001
0000
0100
0000
0001
1000
0010
1000
0001
0100
0010
1000
0001
0000
0000
0000
,
1000
0000
0100
0000
1000
0001
0010
0001
1000
0100
0010
0001
0010
0100
1000
0000
,
0001
0000
0100
0000
0010
1000
0001
1000
0010
0100
0001
1000
0010
0000
0000
0000
,
1000
0100
1000
0100
1000
0000
0001
0000
0011
0000
0010
0000
1001
0000
0000
0000
,
0001
0000
0001
0100
0010
1000
0010
0000
1000
0000
1000
0100
0010
0001
0010
0000
,
0100
0000
1000
0001
0100
0010
1000
0000
0010
0100
0001
0000
0010
0100
1000
0000
,
0002
0000
0100
0000
0103
0000
0001
1000
0010
1000
0010
0100
0001
0100
0010
0000
,
2000
0000
0100
0000
3100
0000
1000
0000
0001
0100
0010
0100
0001
0100
0010
0000
,
1000
0000
0010
0000
1000
0001
0100
0001
1000
0010
0100
0001
1000
0000
0000
0000
,
0001
0000
0010
0000
0001
1000
0100
1000
0001
0010
0100
1000
0100
0010
0001
0000
,
1000
0000
0010
0000
0100
0001
1000
0001
0100
0010
1000
0001
0100
0000
0000
0000
,
0001
0010
0001
0010
0001
0000
1000
0000
1100
0000
0100
0000
1001
0000
0000
0000
,
1010
0000
0000
0010
0100
0000
0102
0000
0010
0000
0013
0000
0001
1000
0100
0000
,
1100
0000
0000
0100
0010
0000
0012
0000
0000
0000
0103
0010
1000
0000
0100
0000
,
2000
0000
0010
0000
3010
0000
1000
0001
0100
0001
0100
0010
1000
0010
0100
0000
,
0002
0000
0010
0000
0013
0000
0001
0000
1000
0010
0100
0010
1000
0010
0100
0000
,
0001
0000
0001
0000
0010
0001
0010
0000
0100
0000
0100
0000
1000
0100
1000
0000
,
0010
0000
0010
0000
0100
0001
1000
0000
0100
0000
0100
0000
1100
0000
0001
0000
,
0010
0000
0010
0000
0001
1000
0010
0000
0100
0000
0100
0000
0001
1000
0100
0000
,
0010
0001
0010
0001
0010
0000
0000
0000
1100
0000
0100
0000
1001
0000
0000
0000
,
1000
0010
0100
0000
0001
0010
0100
0000
0010
0001
1000
0000
0010
0100
0001
0000
,
1000
0100
0010
0000
0010
0100
1000
0000
1000
0010
0100
0000
0100
0001
0010
0000
,
0100
1000
0001
0000
0100
0001
1000
0000
0001
0010
1000
0000
0010
0001
1000
0000
,
0010
1000
0010
0100
0010
0000
1000
0001
0100
0010
0100
0000
0010
0100
0000
0000
,
0001
0010
0001
0010
0001
0010
0001
0010
0100
1000
0010
0000
0100
0001
0010
0000
,
0100
1000
0100
1000
0100
1000
0100
1000
0001
0100
0010
0000
1000
0100
0010
0000
,
0001
1000
0010
1000
0001
1000
0010
1000
0001
0100
0010
0000
1000
0100
0010
0000
,
0001
1000
0100
1000
0001
1000
0100
1000
0001
0010
0100
0000
1000
0010
0100
0000
,
0001
0010
0100
0010
0001
0100
0001
0000
1000
0010
0100
0010
1000
0100
1000
0000
,
0010
0100
0001
0010
0100
0010
0001
0000
0100
0010
1000
0100
0010
0100
1000
0000
,
0001
0010
0100
0000
0100
1000
0001
0000
1000
0010
0100
0000
0100
0001
1000
0000
,
0100
0010
0100
0010
0100
0000
0010
0001
1000
0000
1100
0000
0001
0100
0010
0000
,
2001
0000
0000
0100
0000
0000
3100
0000
,
1000
0010
0000
0010
0100
0001
0000
0001
,
0010
0100
0010
0001
0000
0100
0010
0000
,
1000
0100
1000
0100
0010
0001
1000
0020
,
0200
0000
0000
0000
0000
0000
0000
0300
,
0000
0000
0030
0000
;

//--------------- dance-double - forcednature ----------------
#NOTEDATA:;
#STEPSTYPE:dance-double;
#DESCRIPTION:forcednature;
#CREDIT:forcednature;
#DIFFICULTY:Easy;
#METER:10;
#RADARVALUES:0,0,0,0,0;
#NOTES:
00000000
00000000
00000000
00000000
,
00000000
00000000
00000000
00000000
,
00000000
00000000
00000000
00000000
,
00000000
00000000
00000000
00000000
,
00002000
00000000
00023000
00000000
,
00030020
00000000
00002030
00000000
,
00003002
00000000
00000023
00000000
,
00000230
00000000
00002000
00003300
,
00010000
00001000
00100000
00001000
,
00010000
00001000
01000000
01000000
,
00001000
00010000
00000010
00010000
,
00001000
00010000
00000100
00000100
,
00002000
00000000
00000000
00003000
,
00000020
00000000
00000000
00000030
,
00020000
00000000
00000000
00030000
,
00002000
00000000
01000000
01003000
,
00001000
00000000
00010000
00100000
,
10000000
00000000
00010000
01000000
,
00010000
00000000
10000000
01000000
,
10000000
00000000
00010000
00000000
00100000
00010000
00100000
00000000
,
00002000
00000000
00023000
00000000
,
00030020
00000000
00000000
00000030
,
00002000
00000000
00003200
00000000
,
00000320
00000000
00000032
00000000
,
00000203
00000000
00000000
00000300
,
00000020
00000000
00000000
00000030
,
00002000
00000000
00003200
00000000
,
00010300
00010000
00010000
00000000
,
00001000
01000000
00010000
00000000
,
01000000
00100000
10000000
00000000
,
01000000
10000000
00010000
00100000
,
00010000
00100000
00001000
00000000
,
00010000
00000100
00001000
00000000
,
00000100
00000010
00000001
00000000
,
00000100
00000001
00000100
00000010
,
00001000
00000000
00000010
00000000
00010000
00001000
00010000
00000000
,
00002000
00000000
00000000
00003000
,
00200000
00000000
00000000
00300000
,
00020000
00000000
00000000
00030000
,
20000000
00000000
00000000
30000000
,
00200000
00000000
00000000
00300000
,
02000000
00000000
00000000
03000000
,
00010000
00010000
00100000
00100000
,
00001000
00000000
00010000
00000000
00001000
00010000
00001000
00000000
,
00010000
00000000
00000100
00001000
00000000
00000000
00000100
00000000
,
00000010
00000001
00001000
00000010
,
00010000
00000000
00001000
00010000
00000000
00000000
00100000
00000000
,
01000000
00010000
01000000
00100000
,
10000000
00000000
01000000
10000000
00000000
00000000
00010000
00000000
,
00100000
00001000
00010000
00000010
,
00001000
00000000
00000100
00001000
00000000
00000000
00000001
00000000
,
00000100
00000001
00001000
00000020
,
00020030
00032000
00003000
00000000
,
00000000
00000000
00000000
00000000
,
00000000
00000000
00000000
00000000
,
00000000
00000000
00000000
00000000
00000000
00010000
00001000
00000000
,
00001000
00001000
01000000
01000000
,
00010000
10000000
00100000
10000000
,
02000000
00100000
00100000
03100000
,
01000000
00000000
10000000
00000000
01000000
10000000
00000000
00000000
,
00010000
00100000
00011000
00000000
,
00000010
00001000
00001001
00000000
,
00000001
00000010
00000100
00001000
,
00000100
00010000
00011000
00000000
,
01000000
00000000
00010000
01000000
00010000
00000000
10000000
00000000
,
00100000
00000000
10000000
00100000
10000000
00000000
00000000
00000000
,
00010000
00000000
00000000
00100000
00000000
00000000
00001000
00000000
,
00010000
00001000
00000000
00001000
00010000
00000000
00000000
00000000
,
00000100
00001000
00000110
00000000
,
00010000
00001000
00011000
00000000
,
01000000
00010000
10100000
00000000
,
00010000
00000000
00100000
00000000
00001000
00010000
00001000
00000000
,
00010000
00000000
00000000
00000100
00000000
00000100
00000000
00000000
,
00001000
00000000
00000000
00000010
00000000
00000010
00000000
00000000
,
00000100
00000000
00000001
00001000
00000001
00000000
00000010
00000000
,
00000100
00000000
00010000
00000000
00001000
00010000
00001000
00000000
,
00100000
00000000
00100000
00000000
00010000
00100000
00010000
00000000
,
01000000
00100000
10000000
00000000
,
01000000
00000000
01000000
00000000
10000000
01000000
10000000
00000000
,
00010000
00100000
00001000
00000000
,
00010000
00011000
00000100
00001000
,
00000010
00001001
00000001
00000100
,
00000010
00001000
00010000
01000000
,
00010000
10000000
00000000
10000000
00000000
10000000
00000000
00000000
,
01000000
10000000
01000000
00000000
10000000
00000000
00010000
00000000
,
00100000
00010000
00100000
00000000
00001000
00000000
00010000
00000000
,
00000010
00001000
00000010
00000000
00000100
00000000
00000001
00000000
,
00000010
00000001
00000010
00000000
00000100
00000000
00001000
00000000
,
00000100
00001000
00000100
00000000
00010000
00001000
00010000
00000000
,
00001000
00010000
00001000
00000000
01000000
00010000
01000000
00000000
,
00100000
10010000
01000000
01100000
,
10000000
01000000
00010000
00001000
,
00000020
00000000
00000000
00000000
,
00000031
00000000
00001000
00000000
,
00000100
00000000
00000000
00000100
00000000
00000000
00000100
00000000
,
00010000
00000000
00001000
00000000
,
00200000
00000000
00000000
00000000
,
00000000
00000000
00300000
00000000
;

//--------------- dance-double - forcednature ----------------
#NOTEDATA:;
#STEPSTYPE:dance-double;
#DESCRIPTION:forcednature;
#CREDIT:forcednature;
#DIFFICULTY:Medium;
#METER:13;
#RADARVALUES:0,0,0,0,0;
#NOTES:
00000000
00000000
00000000
00000000
,
00000000
00000000
00000000
00000000
,
00000000
00000000
00000000
00000000
,
00000000
00000000
00000000
00000000
,
00002000
00000000
00023000
00000000
,
00230000
00000000
20300000
00000000
,
32000000
00000000
03020000
00000000
,
00032000
00000000
00020000
00033000
,
00000100
00001000
00000000
00000010
00000100
00000001
00000000
00000010
,
00000100
00001000
00000000
00000010
00010000
00000000
00011000
00000000
,
00100000
00010000
00000000
01000000
00100000
10000000
00000000
01000000
,
00100000
00010000
00100000
00000000
00001000
00010000
00001000
00010000
,
00000200
00000000
00000000
00000300
,
00002000
00000000
00000000
00003000
,
00000002
00000000
00000000
00000000
00000000
00000000
00000103
00000100
,
00000000
00000010
00000010
00000000
00001001
00000000
00001000
00000100
,
00010000
00000000
00010000
00001000
00100000
00000000
00100000
00010000
,
01000000
00000000
00100000
10000000
00010000
00000000
00100000
01000000
,
10000000
00000000
10000000
00010000
00100000
00000000
00001000
00010000
,
00000100
00001000
00000100
00001000
00000010
00000100
00000001
00000000
,
00000020
00000000
00000230
00000000
,
00020300
00000000
00000000
00030000
,
00002000
00000000
00203000
00000000
,
00320000
00000000
00000000
00030000
,
20000000
00000000
00000000
30000000
,
00200000
00000000
00000000
00300000
,
01000000
00000000
00010000
00000000
00100000
00000000
00001000
00010000
,
00000000
00010000
00001000
00000000
00000010
00000000
00000100
00000000
,
00000110
00000000
00001000
00000100
00000001
00000000
00000100
00001000
,
00000001
00000100
00001000
00010000
,
00011000
00000000
00001000
00010000
00100000
00000000
01000000
00010000
,
10000000
01000000
00010000
00001000
,
00011000
00000000
00100000
00010000
01000000
00000000
00001000
00010000
,
00000010
00001000
00000100
00000001
,
00000110
00000000
00000001
00001000
00000010
00000000
00000100
00001000
,
00000000
00010000
00010000
00000000
00100000
10000000
00100000
00000000
,
20000000
00000000
00000000
00000000
00000000
00000000
30000000
01000000
,
00200000
00000000
00000000
00300000
,
00002000
00000000
00000000
00000000
00000000
00000000
00003000
00010000
,
00000200
00000000
00000000
00000300
,
00002000
00000000
00000000
00003020
,
00000230
00000001
00000002
00000303
,
00001000
00000000
00001000
00000010
00000000
00000010
00010000
00000000
,
00001000
00100000
00010000
00000000
01000000
00000000
01000000
00000000
,
01100000
00000000
00100000
10000000
01000000
00000000
00100000
00010000
,
01000000
00000000
00001000
00010000
00001000
00010000
00001000
00000000
,
00000010
00000000
00000100
00001000
00000010
00000000
00000100
00000001
,
00000010
00000000
00001000
00010000
00001000
00010000
00001000
00000000
,
00011000
00000000
01000000
00010000
10000000
00000000
01000000
10000000
,
00010000
00000000
00100000
00010000
00100000
00001000
00010000
00000000
,
00001010
00000000
00000010
00001000
00000100
00001000
00000001
00000000
,
00000100
00000010
00001000
00000010
00000100
00000000
00002000
00000000
,
00023000
00230000
00300000
00000000
,
00000000
00000000
00000000
00000000
,
00000000
00000000
00000000
00000000
,
00000000
00000000
00000000
00000000
00000000
10000000
00010000
10000000
,
00010000
00100000
00001000
00010000
,
00000100
00001000
00000010
00000100
,
00000002
00000010
00000010
00000013
,
00000001
00001000
00000001
00001000
00000000
00000010
00000100
00001000
,
00000000
00010000
00001000
00010000
00100000
00000000
01000000
00010000
,
00000000
10000000
01000000
00100000
01000000
00000000
10000000
00010000
,
00000000
00100000
00001000
00010000
00001000
00000000
00000010
00000100
,
00000000
00001000
00000010
00001000
00000001
00000100
00000001
00000000
,
00000110
00000000
00001000
00000100
00010000
00000000
00001000
00100000
,
00010000
00000000
01000000
00100000
10000000
00000000
01000000
00000000
,
00020000
00000000
00000000
00032000
00000000
00000000
00003010
00000000
,
00001000
00010000
00010000
00000100
00001000
00000000
00000010
00000100
,
00000000
00000001
00000010
00001000
00010000
00000000
00000010
00001000
,
00000000
00010000
01000000
00010000
00100000
01000000
10000000
01000000
,
00000000
00100000
00010000
00100000
00001000
00000000
00010000
00000100
,
00000000
00001000
00000010
00010000
00001000
00000000
00011000
00000000
,
00100000
00010000
01000000
01100000
00000000
20020000
00000000
30030000
,
00010000
00100000
00001000
00011000
00000000
00020200
00000000
00030300
,
00000100
00000100
00001000
00000010
00000010
00001000
00000001
00000000
,
00000100
00001000
00010000
00000000
00100000
00000000
00100000
00000000
,
01000000
00010000
00000000
00010000
10000000
00100000
00000000
00100000
,
10000000
01000000
00000000
01000000
00010000
00001000
00010000
00000000
,
00001000
00000010
00000000
00000010
00000001
00000100
00000000
00000100
,
00000010
00001000
00000000
00001000
00000100
00010000
00001000
00000000
,
00011000
00101000
00011000
00010010
,
00011000
01001000
00011000
00010100
,
00000100
00001000
00000010
00000000
00001000
00000100
00010000
00000000
,
00001000
00100000
00000000
00110000
00000000
10010000
00000000
00000000
,
10000000
01000000
10000000
01000000
00010000
01000000
00010000
00000000
,
00001000
00010000
00001000
00010000
00000100
00001000
00000100
00000000
,
00000010
00000001
00000010
00000001
00000100
00000010
00000100
00000000
,
00001000
00010000
00001000
00010000
00100000
01000000
00100000
00000000
,
10000000
01000000
00010000
00000000
00001000
00100000
00010000
00000000
,
01000000
00001000
00010000
00000000
00000010
00001000
00000100
00000000
,
00000010
00000001
00000010
00000001
00001000
00000100
00000001
00000000
,
00000100
00000000
00001001
00000000
00000001
00000100
00000100
00001000
,
00020000
00000000
00000000
00000000
,
00130000
00000000
00000000
00100000
00000000
00000000
10000000
00000000
,
02000000
00000000
00000000
00100000
00000000
00000000
00100000
00000000
,
13000000
00010000
00100000
00001000
,
00020000
00000000
00000000
00000000
,
00000000
00000000
00030000
00000000
;

//--------------- dance-double - forcednature ----------------
#NOTEDATA:;
#STEPSTYPE:dance-double;
#DESCRIPTION:forcednature;
#CREDIT:forcednature;
#DIFFICULTY:Hard;
#METER:16;
#RADARVALUES:0,0,0,0,0;
#NOTES:
00000000
00000000
00000000
00000000
,
00000000
00000000
00000000
00000000
,
00000000
00000000
00000000
00000000
,
00000000
00000000
00000000
00000000
,
00020000
00000000
00032000
00000000
,
00003020
00000000
00000032
00000000
,
00002003
00000000
00003020
00000000
,
00000230
00000001
00000302
00000003
,
00001000
00001000
00000000
00000100
00010000
00010000
00000000
00001000
,
00100000
00100000
00000000
00010000
01000000
00000000
10010000
00000000
,
10000000
10000000
00000000
00010000
01000000
01000000
00000000
00001000
,
00010000
00000000
00010000
00000000
00000000
00000000
00000010
00000000
00001000
00000000
00000001
00001000
00000001
00000000
00000000
00000000
,
00000020
00000000
00000000
00000000
,
00000230
00000000
00000000
00000000
,
00020300
00000000
00000000
00000000
00000000
00000000
00001000
00001000
,
00000000
00000010
00030010
00000000
00011000
00000000
00100000
00010000
,
01000000
00000000
01000000
00100000
10000000
00000000
10000000
01000000
,
00010000
00000000
00010000
00001000
00100000
00001000
00010000
00000100
,
00001000
00000000
00000010
00000100
00000001
00000010
00000100
00000000
,
00001000
00000000
00000010
00000000
00000010
00000000
00010000
00000000
00001000
00000000
00010000
00001000
00010000
00000000
00000000
00000000
,
00200000
20300000
32000000
00000000
,
03020000
00000000
00000000
00030000
,
00002000
00000000
00003020
00000000
,
00000032
00000000
00000203
00000000
,
00002300
00000000
00000000
00023000
,
00230000
00000000
00000000
00300000
,
20000000
32000000
03200000
00320000
,
01030000
00000000
00001000
00000000
01000000
00000000
00001000
00000000
00010000
00000000
00000000
00000000
00000010
00000000
00001000
00000010
,
00001000
00000001
00000100
00000000
00000110
00000000
00000010
00000000
,
00001000
00000100
00010000
00000000
00011000
00000000
00100000
00010000
,
01000000
00000000
00100000
00000000
10000000
01000000
00010000
00000000
,
00001000
00000010
00000001
00000000
00000011
00000000
00001000
00000100
,
00000010
00000000
00000100
00010000
00001000
00000000
01000000
00000000
,
00010000
10000000
00100000
00000000
10000000
01000000
00010000
00000000
,
00001000
00100000
00010000
00100000
00001000
00000000
00011000
00000000
,
00000010
00000000
00001000
00000000
00001000
00000000
00000001
00000000
00000100
00000000
00000010
00000000
00001000
00000010
00001000
00000000
,
00000002
00000000
00000000
00000000
00000000
00000000
00000003
00000010
,
00000200
00000000
00000000
00000300
,
00020000
00000000
00000000
00000000
00000000
00000000
00030000
00001000
,
00200000
00000000
00000000
00300000
,
00020000
00000000
00000000
20030000
,
30200000
00000000
00000000
01000000
02000000
00000000
00300000
00000000
,
03010000
10000000
00010000
10000000
01000000
00010000
00001000
00000000
,
00100000
00000000
00010000
00000000
00010000
00000000
00100000
00000000
00001000
00010000
00001000
00000000
00010000
00001000
00010000
00000000
,
00000100
00001000
00001000
00000001
00000010
00000010
00000100
00000000
,
00001000
00000000
00000010
00000000
00000010
00000000
00010000
00000000
00001000
00000000
00100000
00000000
00010000
00100000
00010000
00000000
,
10000000
01000000
01000000
00100000
00010000
00010000
01000000
00000000
,
00001000
00010000
00001000
00010000
00000010
00000000
00001001
00000000
,
00000001
00000100
00001000
00010000
00000010
00001000
00000010
00000000
,
00010000
00000000
00001000
00000000
00100000
00000000
00010000
00000000
10000000
00000000
01000000
00000000
10000000
00010000
00100000
00000000
,
00001000
00001000
00010000
00000010
00010000
00010000
00001000
00100000
,
00010000
00000000
01000000
00000000
00010000
10000000
00010000
00000000
10000000
00000000
00100000
00000000
02000000
00000000
00000000
00000000
,
03002000
00023000
00030000
00000000
,
00000000
00000000
00000000
00000000
,
00000000
00000000
00000000
00000000
,
00000000
00000000
00000000
00000000
00000000
00000100
00001000
00000100
,
00001000
00000000
00001000
00000001
00000010
00000000
00000010
00001000
,
00010000
00000000
01000000
10000000
00100000
10000000
00010000
00000000
,
10000000
01000000
10000000
01000000
00010000
00001000
00010000
00001000
,
00000010
00000000
00000100
00000010
00000100
00000010
00000100
00000010
00000100
00000010
00000100
00000010
00000000
00000000
00000000
00000000
,
00000001
00000000
00000100
00000000
00000010
00000000
00001000
00000010
00010000
00000000
00001000
00000000
00011000
00000000
00000000
00000000
,
00100000
00000000
00010000
00000000
00100000
00000000
01000000
10000000
00010000
00000000
00100000
00000000
00001000
00000000
00010000
00000000
,
00000010
00000000
00001000
00000000
00000010
00000000
00000100
00000001
00001000
00000000
00000100
00000000
00010000
00000000
00000000
00000000
,
00001000
00000000
00100000
00000000
00100000
00000000
00010000
00000000
00100000
01000000
10000000
00000000
01000000
10000000
01000000
00000000
,
00100000
00000000
00010000
00000000
00100000
00000000
00010000
00100000
00001000
00000000
00010000
00000000
00000010
00000000
00001000
00000010
,
00001000
00000000
00000001
00000000
00000010
00000000
00000100
00000010
00000100
00000000
00001000
00000000
00000010
00000000
00000000
00000000
,
00001001
00000000
00000001
00000100
00000000
00001000
00010000
00000000
,
00100000
00000000
01000000
00000000
01000000
00000000
00100000
00000000
10000000
00010000
10000000
00000000
00010000
00100000
01000000
00000000
,
10000000
00000000
01000000
00000000
10000000
00000000
00100000
01000000
00010000
00000000
00100000
00000000
00010000
00000000
00100000
00000000
,
00001000
00000000
00010000
00000000
00000010
00000000
00001000
00000010
00000100
00000000
00000001
00000000
00000010
00000000
00000001
00000000
,
00001000
00000000
00000100
00000000
00000001
00000000
00000100
00001000
00000100
00000000
00010000
00000000
00001000
00000000
00100000
00000000
,
00010000
00000000
00010000
00000000
00010000
00000000
01000000
00100000
10000000
00000000
00000000
00000000
10010000
00000000
00000000
00000000
,
10000000
01000000
00010000
00002000
00000000
00100000
00103000
00000000
,
00001000
00010000
00000010
00000200
00000000
00001000
00001300
00000000
,
00000100
00000000
00000001
00000000
00000001
00000000
00001000
00000000
00000010
00001000
00000010
00000000
00010000
00000000
00001000
00000000
,
00100000
00000000
00010000
00000000
00010000
00000000
00100000
00000000
01000000
10000000
01000000
00000000
10000000
00010000
00100000
00000000
,
01000000
10000000
01000000
10000000
00100000
00100000
00100000
00000000
,
00010000
00010000
00010000
00001000
00000010
00000010
00000010
00000000
,
00000100
00000000
00001000
00000100
00001000
00000000
00000001
00000000
00000010
00000000
00000010
00000000
00000010
00000000
00000000
00000000
,
00000001
00000000
00000100
00000001
00000100
00000000
00000010
00000000
00001000
00000000
00000100
00000000
00001100
00000000
00000000
00000000
,
00010000
00000000
00000000
00010000
00001000
00000000
00000000
00100000
00010000
00000000
00000000
01000000
00100000
00000000
00000000
10000000
,
01000000
00000000
00000000
00010000
01000000
00000000
00000000
00010000
00001000
00000000
00000000
00000010
00000100
00000000
00000000
00000000
,
00001000
00000000
00000001
00000000
00000100
00000000
00000001
00001000
00000001
00000000
00000010
00000000
00000100
00000000
00000000
00000000
,
00010000
00001000
00000000
00011000
00000000
00100000
00110000
00000000
,
01000000
00000000
00010000
00000000
01000000
00010000
01000000
00000000
00100000
00000000
10000000
00000000
01000000
10000000
01000000
00000000
,
00010000
00000000
00001000
00000000
00100000
00010000
00100000
00000000
00001000
00010000
00001000
00000000
00010000
00000100
00010000
00000000
,
00000100
00000000
00001000
00000000
00000100
00000010
00000001
00000000
00000100
00000000
00000001
00000000
00000100
00000010
00001000
00000000
,
00000100
00000000
00010000
00000000
00001000
00010000
00001000
00000000
00100000
00010000
00100000
00000000
01000000
00000000
10000000
00000000
,
00100000
10000000
00100000
10000000
00100000
00000000
01000000
00000000
00010000
00100000
00010000
00100000
00001000
00000000
00010000
00000000
,
00000010
00001000
00000010
00001000
00000010
00000000
00000100
00000000
00000001
00000010
00000001
00000010
00000100
00000000
00001000
00000000
,
00000010
00001000
00000010
00000000
00010000
00000000
00001000
00000000
00100000
00010000
00100000
00000000
00001000
00000000
00010000
00000000
,
00100000
00000000
01000000
00000000
00010000
10000000
00100000
00000000
10000000
00010000
00100000
00000000
01000000
10000000
01000000
10000000
,
00020000
00000000
00000000
00000000
,
00130000
01000000
00000000
01000000
00010000
00000000
00001000
00000000
,
00000010
00000100
00000000
00001000
00000010
00000000
00000100
00000000
,
00001000
00000100
00000000
00000001
00001000
00000000
00000010
00000000
,
00020000
00000000
00000000
00000000
,
00000000
00000000
00030000
00000000
;

//--------------- dance-double - forcednature ----------------
#NOTEDATA:;
#STEPSTYPE:dance-double;
#DESCRIPTION:forcednature;
#CREDIT:forcednature;
#DIFFICULTY:Challenge;
#METER:18;
#RADARVALUES:0,0,0,0,0;
#NOTES:
00000000
00000000
00000000
00000000
,
00000000
00000000
00000000
00000000
,
00000000
00000000
00000000
00000000
,
00000000
00000000
00000000
00000000
,
00002000
00000000
00023000
00000000
,
00230000
00000000
20300000
00000000
,
32000000
00000000
03020000
00000000
,
00032000
00003020
00000002
00000033
,
00000001
00000100
00000001
00000100
00001000
00000000
00010000
00000000
00001000
00010000
00001000
00010000
00000010
00000000
00001000
00000000
,
00000001
00000010
00000001
00000010
00001000
00000000
00010000
00000000
00011000
00000000
00000000
00000000
01100000
00000000
00000000
00000000
,
10000000
01000000
10000000
01000000
00010000
00000000
00001000
00000000
00010000
00001000
00010000
00001000
00100000
00000000
00010000
00000000
,
01000000
00000000
00100000
10000000
01000000
00000000
00100000
00010000
10000000
00000000
01000000
00000000
00010000
00000000
00001000
00000000
,
00000020
00000000
00000000
00000000
,
00000032
00000000
00000000
00000000
,
00000203
00000000
00000000
00000000
00000000
00000000
00001300
00002000
,
00000000
00000000
00013000
00000000
00010000
00000000
00100000
00000000
01100000
00000000
00000000
00000000
10000000
00000000
00100000
10000000
,
00100000
01000000
00000000
01000000
00010000
00000000
00100000
01000000
,
00000000
00010000
00001000
00000010
00000100
00001000
00000000
00000001
,
00000020
00000000
00000000
00000000
00001000
00000000
00000000
00000000
00000100
00000000
00000000
00000000
00000031
00000000
00000010
00000100
,
00001000
00000000
00000010
00000000
00000010
00000000
00010000
00000000
00001000
00010000
00001000
00010000
00001000
00000000
00000000
00000000
,
00200000
00010000
00020000
00300000
,
02030000
00000000
00100000
00000000
13000000
01000000
00010000
00100000
,
00002000
00100000
00023000
00000010
,
00032000
00000000
00000100
00000000
00013000
00000010
00001000
00000001
,
00000200
00000000
00001000
00000000
00000010
00000000
00000301
00001000
,
00000020
00000000
00000100
00000000
00001000
00000000
00010030
00001000
,
00200000
00320000
02030000
23000000
,
31000000
00000000
00010000
00000000
00010000
00000000
00100000
00000000
00001000
00000000
00010000
00000100
00001000
00000000
00000010
00000100
,
00000001
00000010
00000001
00000100
00001000
00010000
00100000
00000000
,
00010000
00001000
00000100
00001000
00010000
01000000
00100000
00000000
,
00001000
00010000
00100000
00000000
00010000
00001000
00000010
00000000
,
00000001
00000100
00010000
00001000
00000010
00010000
00001000
00000000
,
01020000
00000000
00130000
00010000
00002000
00000000
00003010
00001000
,
00010000
01000000
10000000
01000000
00010000
00100000
01000000
00010000
,
00001000
00000000
00011000
00000010
00001000
00000000
00000101
00000000
,
00000001
00000000
00000010
00000001
00000010
00000000
00000100
00000010
00000100
00000000
00010000
00000000
00001000
00000000
00100000
00000000
,
00020000
00000000
00000000
00000000
00000000
00000000
00030000
01000000
,
00200000
00000000
00000000
00300000
,
20000000
00000000
00000000
00000000
00000000
00000000
30000000
01000000
,
00020000
00000000
00000000
00030000
,
00012000
00000000
00000000
00003020
,
00000032
00000000
00000100
00000100
00000200
00000000
00000303
00000000
,
00001000
00000000
00000010
00000000
00000001
00000000
00000010
00000000
00001000
00000000
00000100
00000000
00010000
00001000
00010000
00001000
,
00100000
00000000
00010000
00000000
01000000
00000000
00010000
00000000
10000000
00100000
10000000
00000000
10000000
00100000
10000000
00000000
,
01000000
00000000
00010000
00000000
00001000
00000000
00100000
00010000
00100000
00000000
00001000
00000000
00010000
00000000
00000100
00000000
,
00010000
00000000
00001000
00000000
00000010
00000000
00000001
00001000
00000100
00000000
00010000
00001000
00010000
00001000
00010000
00000000
,
00100000
00000000
01000000
00000000
00010000
00000000
00100000
01000000
10000000
00000000
01000000
00000000
00010000
00000000
00001000
00010000
,
00001000
00000000
00000010
00000000
00000010
00000000
00000100
00000000
00001000
00000010
00001000
00000000
00000001
00000100
00000001
00000000
,
00000010
00000000
00001000
00000000
00010000
00000000
00000100
00010000
00001000
00000000
00100000
00000000
00010000
00000000
01000000
00100000
,
10000000
00000000
01000000
10000000
01000000
00000000
00010000
00000000
00001000
00000000
00000000
00000000
00011000
00000000
00000000
00000000
,
00000010
00000000
00001000
00000000
00001000
00000000
00000001
00000100
00000010
00000000
00001000
00000000
00000100
00000000
00010000
00000000
,
01000000
00000000
00100000
00000000
00010000
10000000
00100000
00000000
01000000
00010000
01000000
00010000
20000000
00000000
00000000
00000000
,
32000000
03020000
00030000
00000000
,
00000000
00000000
00000000
00000000
,
00000000
00000000
00000000
00000000
,
00000000
00000000
00000000
00000000
00000000
00000010
00000010
00000001
,
00000200
00000000
00001300
00010000
00200000
00000000
00310000
00001000
,
00000020
00000000
00000000
00000031
00000100
00001000
00010000
01000000
10000000
00100000
01000000
00010000
,
00200000
00000000
01000000
00000000
01000000
00000000
01300000
00100000
,
00001000
00000000
00010000
00001000
00010000
00001000
00010000
00001000
00010000
00000000
00000200
00000000
00000000
00000000
00000300
00000000
,
00001000
00000000
00000010
00000000
00000100
00000001
00000100
00000010
00001000
00000000
00000100
00010000
00001000
00000000
00010000
00000000
,
00100000
00000000
01000000
00000000
00010000
10000000
00100000
10000000
00010000
00000000
00100000
01000000
10000000
00000000
01000000
00000000
,
00010000
00000000
00001000
00000000
00000010
00000001
00001000
00000100
00001000
00000000
00000001
00000100
00001000
00000000
00010000
00000000
,
00100000
01000000
00100000
01000000
00100000
00000000
00000000
00000000
01010000
00000000
01000000
00000000
10010000
00000000
00000000
00000000
,
10000000
01000000
00010000
00000000
01000000
00000000
10000000
00000000
00010000
00100000
01000000
00000000
00010000
00000000
00001000
00000000
,
00000010
00000100
00001000
00000000
00000001
00000000
00000100
00000000
00001000
00010000
00100000
00000000
01000000
00000000
00010000
00000000
,
00200000
00000000
00001000
00000000
00301000
00000000
00020000
00000000
00000100
00000000
00030100
00000000
00001000
00000001
00001000
00000001
,
00000200
00000000
00000010
00000000
00000310
00000000
00000100
00000000
00000001
00001000
00000100
00001000
00000100
00010000
00001000
00000000
,
00100000
00000000
00010000
00000000
10000000
00100000
01000000
00100000
10000000
00000000
01000000
00010000
00001000
00000000
00100000
00000000
,
00010000
00000000
00100000
00000000
00001000
00000010
00000100
00000010
00000001
00000000
00000100
00000001
00001000
00000000
00000010
00000000
,
00010000
00000000
00001000
00000000
00100000
00010000
10000000
01000000
00010000
00000000
00001000
00100000
00010000
00000000
00001000
00000000
,
00000100
00000010
00000100
00000010
00000100
00000000
00000000
00000000
00001010
00000000
00000010
00000000
00001001
00000000
00000000
00000000
,
00000001
00000100
00000000
00000010
00000100
00000000
00002000
00000000
00023000
00000000
00130000
00000000
01000000
00010000
01000000
00010000
,
10000000
01000000
00000000
00100000
01000000
00000000
00020000
00000000
00032000
00000000
00003010
00000000
00000100
00001000
00000100
00001000
,
00000002
00000000
00000100
00000000
00000103
00000000
00001000
00000010
00010000
00001000
00010000
00001000
00100000
00010000
00100000
00000000
,
02000000
00000000
10000000
00000000
13000000
00000000
01000000
00000000
00100000
00010000
00100000
00000000
00001000
00010000
00001000
00000000
,
00000010
00000000
00000010
00000000
00000001
00000000
00000100
00000000
00001000
00000000
00001000
00000000
00010000
00001000
00010000
00000000
,
00100000
00000000
00100000
00000000
10000000
00000000
01000000
00000000
00010000
00000000
00010000
00000000
00001000
00010000
00001000
00000000
,
00000100
00000000
00000100
00000000
00000001
00000010
00000001
00000000
00001000
00000000
00001000
00000000
00000100
00010000
00001000
00000000
,
00100000
00010000
00100000
00010000
00100000
00000000
00000000
00000000
11000000
00000000
01000000
00000000
10010000
00000000
00000000
00000000
,
00010000
00100000
01000000
00000000
00100000
00000000
00001000
00000000
00010000
00000100
00001000
00000000
00000001
00000000
00000100
00000000
,
00000010
00001000
00000100
00000000
00000010
00000001
00000100
00000000
00000010
00001000
00000001
00000000
00000100
00000000
00001000
00000000
,
00010000
00000010
00001000
00000000
00000100
00010000
00001000
00000000
00100000
00010000
01000000
00000000
00100000
10000000
00010000
00000000
,
00100000
01000000
00100000
01000000
00100000
00000000
01000000
00000000
10000000
00100000
10000000
00000000
00100000
10000000
00000000
00000000
,
00010000
00100000
00010000
00100000
00010000
00100000
00010000
00100000
00001000
00000000
00010000
00000000
00000010
00000000
00001000
00000000
,
00000001
00000010
00000001
00000010
00000001
00000010
00000001
00000010
00000100
00000000
00001000
00000000
00000001
00000000
00000100
00000000
,
00001000
00010000
00001000
00010000
00001000
00010000
00001000
00010000
00100000
00000000
10000000
00000000
01000000
00000000
00010000
00000000
,
00001000
00100000
00010000
00100000
00001000
00100000
00010000
00100000
00001000
00000000
00010000
00000000
00000100
00000000
00000000
00000000
,
00001000
00000010
00001000
00000010
00000100
00000001
00000100
00000000
00001000
00010000
00001000
00010000
00001000
00100000
00010000
00000000
,
10000000
00100000
10000000
00100000
01000000
00010000
01000000
00000000
00001000
00010000
00001000
00010000
00000100
00001000
00000100
00000000
,
00000010
00000001
00000100
00000000
00001000
00000000
00010000
00000000
00100000
10000000
01000000
00000000
00010000
00000000
00001000
00000000
,
00100000
00010000
00100000
00010000
00100000
00000000
00001000
00010000
00000100
00000000
00001000
00000000
00000001
00000100
00000010
00001000
,
00000002
00000000
00000000
00000010
00000000
00000000
00000013
00000000
,
00000001
00000100
00000000
00000100
00001000
00010000
00000000
00010000
,
00100000
01000000
00100000
10000000
00000000
10000000
01000000
00000000
,
00010000
00001000
00010000
00001000
00000010
00000100
00001000
00000002
,
00000200
00000000
00000000
00000000
00000000
00000000
00000000
00000300
,
00000000
00000000
00000003
00000000
;
