#VERSION:0.83;
#TITLE:tripping contact;
#SUBTITLE:;
#ARTIST:kors k vs teranoid;
#TITLETRANSLIT:;
#SUBTITLETRANSLIT:;
#ARTISTTRANSLIT:;
#GENRE:FREEFORM;
#CREDIT:;
#MUSIC:tripping contact.ogg;
#BANNER:tripping contact.png;
#BACKGROUND:tripping contact-bg.png;
#CDTITLE:./CDTitles/bm IIDX 13 DistorteD.png;
#SAMPLESTART:62.317;
#SAMPLELENGTH:15.000;
#SELECTABLE:YES;
#OFFSET:0.938;
#BPMS:0.000=182.000;
#STOPS:340.000=0.659;
#TIMESIGNATURES:0.000=4=4,
340.000=2=4,
342.000=4=4
;
#BGCHANGES:0.000=../BGAs/10te.mp4=1.000=0=0=0=StretchNoLoop====,
99999.000=-nosongbg-=1.000=0=0=0=StretchNoLoop====
;
#FGCHANGES:;

//--------------- dance-single - forcednature ----------------
#NOTEDATA:;
#STEPSTYPE:dance-single;
#DESCRIPTION:forcednature;
#DIFFICULTY:Beginner;
#METER:5;
#RADARVALUES:0,0,0,0,0;
#CREDIT:forcednature;
#NOTES:
0000
0000
0000
0000
,
0000
0000
0000
0000
,
0000
0000
0000
0000
,
0000
0000
0000
0000
,
0000
0000
0000
0000
,
1000
0000
0000
0000
,
0001
0000
0000
0000
,
0100
0000
0100
0000
,
0010
0000
0000
0000
,
1001
0000
0000
0000
,
1000
0000
0000
0000
,
0100
0000
0000
0000
,
1000
0000
0000
0000
,
0001
0000
0000
0000
,
0100
0000
0000
0000
,
0001
0000
0001
0000
,
0010
0000
0100
0000
,
1000
0000
0000
0000
,
0000
0000
0000
0000
,
0001
0000
0000
0000
,
0000
0000
0000
0000
,
0100
0000
0000
0000
,
0000
0000
0000
0000
,
0010
0000
0000
0000
,
1000
0000
0000
0000
,
0001
0000
0000
0000
,
0010
0000
0000
0000
,
0001
0000
0000
0000
,
0100
0000
0100
0000
,
0001
0000
0000
0000
,
1000
0000
0000
0000
,
0001
0000
0000
0000
,
0010
0000
0000
0000
,
1001
0000
0000
0000
,
0000
0000
0000
0000
,
0100
0100
0000
0000
,
0000
0000
0000
0000
,
1001
0000
0000
0000
,
0000
0000
0000
0000
,
0010
0010
0000
0000
,
0000
0000
0000
0000
,
1001
0000
0000
0000
,
0110
0000
0000
0000
,
1001
0000
0000
0000
,
0110
0000
1001
0000
,
1000
0000
1000
0000
,
0001
0000
0001
0000
,
1000
0001
1000
0001
,
0100
0000
0000
0000
,
0110
0000
0000
0000
,
0010
0000
1000
0000
,
0001
0000
1000
0000
,
0100
0000
0010
0000
,
0110
0000
0000
0000
,
0100
0000
1000
0000
,
0001
0000
1000
0000
,
0010
0000
0100
0000
,
1001
0000
0000
0000
,
0001
0000
0010
0000
,
0001
0000
1000
0000
,
0001
0000
0100
0000
,
0110
0000
0000
0000
,
0000
0000
0000
0000
,
1001
0000
0100
0000
,
0010
0010
0010
0000
,
1001
0000
0000
0000
0000
0000
0000
0010
,
0000
0000
0000
0100
,
0000
0000
0000
0000
0000
0000
0000
0000
0000
0000
0000
0000
0000
0100
0000
0000
0000
0000
0000
0000
0000
0000
0000
0000
0000
0000
0000
0000
0000
0000
0000
0000
0000
0000
0000
0000
0000
0000
0000
0000
0001
0000
0000
0000
0000
0000
0000
0000
0000
0000
0000
0000
0000
0000
0000
0000
0001
0000
0000
0000
0000
0000
0000
0000
,
0000
1000
0000
1000
0000
0001
0000
0000
,
1000
1000
1000
0000
,
1000
0000
1000
0000
,
0010
0010
0010
0000
,
0010
0000
0010
0000
,
0100
0100
0100
0000
,
0100
0000
0100
0000
,
0001
0001
0001
0000
,
0001
0000
0001
0000
,
0010
0010
0010
0000
,
0100
0010
0100
0000
,
1000
1000
1000
0000
,
0001
1000
0001
0000
,
0100
0100
0100
0000
,
0010
0100
0010
0000
,
1000
1000
1000
0000
,
0001
1000
0001
0000
,
0020
0030
0000
0000
0000
0000
0000
0000
0100
0000
0000
0000
0000
0000
0000
0000
,
1000
0000
0100
0000
,
0010
0000
0001
0000
,
1000
0000
0001
0000
,
0000
0000
0100
0000
,
0010
0000
1000
0000
,
0010
0000
0100
0000
,
0100
0000
0001
0001
,
1000
1000
0001
0000
;

//--------------- dance-single - forcednature ----------------
#NOTEDATA:;
#STEPSTYPE:dance-single;
#DESCRIPTION:forcednature;
#DIFFICULTY:Easy;
#METER:8;
#RADARVALUES:0,0,0,0,0;
#CREDIT:forcednature;
#NOTES:
0000
0000
0000
0000
,
0000
0000
0000
0000
,
0000
0000
0000
0000
,
0000
0000
0000
0000
,
0000
0000
0000
0000
,
1001
0000
0001
0100
,
1001
0000
1000
0100
,
0010
0010
0100
0100
,
0220
0000
0330
0000
,
1000
0000
0001
0100
,
0001
0000
1000
0100
,
1000
0000
0010
0100
,
0010
1000
0001
0000
,
1001
0000
0001
1000
,
0100
0000
1000
0001
,
0100
0100
0010
0010
,
1000
0001
1000
0001
,
0020
0000
0000
0000
,
0000
0000
0030
0000
,
0200
0000
0000
0000
,
0000
0000
0300
0000
,
2000
0000
0000
0000
,
0000
0000
3000
0000
,
0002
0000
0000
0000
,
0100
0000
0103
0000
,
1001
0000
1000
0000
,
0100
1000
0100
0000
,
0010
0100
0010
0000
,
0001
0000
0001
0000
,
0100
0000
0001
0000
,
1000
0100
1000
0000
,
0001
0100
0001
0000
,
0010
0100
0010
0000
,
2002
0000
0000
0000
,
0000
0000
3003
0000
,
0010
0220
0000
0000
,
0000
0000
0330
0000
,
2002
0000
0000
0000
,
0000
0000
3003
0000
,
0100
0220
0000
0000
,
0000
0000
0330
0000
,
2002
0000
3003
0000
,
0220
0000
0330
0000
,
2002
0000
3003
0000
,
0220
0330
2002
3003
,
1000
1000
1000
0000
,
0001
0001
0001
0000
,
0100
0010
0100
0010
,
2002
0000
0000
3003
,
1000
0100
1000
0010
,
1000
0001
0010
0000
,
0001
0100
0001
0010
,
0001
1000
0010
0000
,
1000
0100
0010
0001
,
0010
0100
1000
0000
,
0001
0100
0010
1000
,
0010
0100
0001
0000
,
0010
0100
1000
0010
,
0100
0010
1000
0000
,
0010
0100
0001
0010
,
0100
0010
0001
0000
,
2002
0000
0000
0000
,
3003
0000
0100
0000
,
0110
0000
1001
0000
,
1000
1000
0001
0001
,
0200
0000
0000
0000
0300
0000
0000
0200
,
0000
0000
0000
0300
0000
0000
0200
0000
,
0300
0000
0000
0000
0000
0000
0000
0000
0000
0000
0000
0000
0000
0200
0000
0000
0000
0000
0000
0000
0000
0000
0000
0000
0000
0000
0000
0000
0000
0300
0000
0000
0000
0000
0000
0000
0000
0000
0000
0000
0010
0000
0000
0000
0000
0000
0000
0000
0000
0000
0000
0000
0000
0000
0000
0000
0010
0000
0000
0000
0000
0000
0000
0000
,
0000
0010
0000
0010
0000
0010
0000
0000
,
1000
0000
0001
0000
1000
0001
1000
0000
,
0001
1000
0000
0000
,
0010
0000
0100
0000
0010
0100
0010
0000
,
0100
0010
0000
0000
,
1000
0000
0001
0000
1000
0001
1000
0000
,
0001
0001
0010
0000
,
0001
0000
1000
0000
0001
1000
0001
0000
,
0100
0010
0200
0000
,
0301
0000
1000
0000
0001
1000
0001
0000
,
1000
0001
0100
0010
,
1000
0000
0001
0000
1000
0001
1000
0000
,
0001
1000
0100
0010
,
0001
0000
0100
0000
0001
0100
0001
0000
,
0010
0010
0100
0100
,
1000
0000
0100
0000
1000
0100
1000
0000
,
0010
0010
0100
0001
,
2000
3000
0000
0000
0000
0000
0000
0000
0100
0000
0000
0000
0010
0000
0000
0000
,
0100
1000
0001
0100
,
0010
1000
0001
0010
,
0001
1000
0010
0100
,
0001
1000
1001
0001
,
0010
0100
1000
0001
,
1000
0010
1001
0000
,
0110
0000
1000
0001
,
1000
0001
1000
0000
2002
0000
0000
0000
,
0000
0000
0000
0000
,
0000
0000
3003
0000
;

//--------------- dance-single - forcednature ----------------
#NOTEDATA:;
#STEPSTYPE:dance-single;
#DESCRIPTION:forcednature;
#DIFFICULTY:Medium;
#METER:12;
#RADARVALUES:0,0,0,0,0;
#CREDIT:forcednature;
#NOTES:
0000
0000
0000
0000
,
0000
0000
0000
0000
,
0000
0000
0000
0000
,
0000
0000
0000
0000
,
0000
0000
0000
0000
0000
0000
0000
0001
,
1000
0000
1000
0000
0100
0000
0010
0001
,
1000
0000
1000
0000
0010
0000
0100
0001
,
0010
0100
0000
0100
1000
0100
0000
0010
,
0002
0000
0000
0000
1000
1000
0003
0000
,
0001
0100
0000
0010
0000
1000
0001
0000
,
1000
0100
0000
0010
0000
0001
1000
0000
,
0010
0100
0000
0001
0000
0010
0100
0000
,
0010
0001
0000
0100
0000
0001
1000
1000
,
0010
1000
0000
0100
0000
0010
0100
0000
,
1000
0010
0000
0100
0000
0001
0010
0000
,
0100
1000
0100
0000
0010
0001
0010
0000
,
0001
0100
0001
0100
0010
1000
0010
0000
,
2001
0000
0000
0000
,
0000
0000
0000
0000
,
3200
0000
0000
0000
,
0000
0000
0320
0000
,
0032
0000
0000
0000
,
0000
0000
0000
0000
,
0203
0000
0000
0000
,
0010
0000
0000
0010
0000
0000
0010
0000
0000
0310
0000
0000
0110
0000
0000
0000
,
0001
0001
0100
0000
0010
1000
0010
0100
,
0000
0001
1000
0000
0001
0001
0010
0000
,
0100
1000
0100
0000
0010
0100
0000
0100
,
1000
0001
1000
0000
0010
0100
0010
0000
,
1000
0001
0010
0000
0001
0000
0100
0001
,
0000
1000
0010
0000
1000
1000
0100
0000
,
0010
0001
0010
0000
0100
1000
0001
0000
,
0100
0100
0010
0000
1000
0001
0010
0000
,
2002
0000
0000
0000
,
0000
0000
0000
3003
,
0110
0220
0000
0000
,
0000
0000
0000
0330
,
2002
0000
0000
0000
,
0000
0000
0000
3003
,
0110
0220
0000
0000
,
0000
0000
0000
0330
,
2020
0000
3030
0000
,
0022
0000
0033
0000
,
2200
0000
3300
0000
,
0202
0303
2002
3003
,
1000
0100
1000
0100
0010
0001
0010
0000
,
0001
0100
0001
0100
0010
1000
0010
0000
,
0100
0001
0100
0001
1000
0100
1000
0100
,
0020
0000
0000
0030
,
0100
1000
0001
0000
0100
0010
1000
0000
,
0001
0010
0100
1000
0100
0010
0001
0000
,
0100
0001
1000
0000
0010
0100
0001
0000
,
1000
0100
0010
0100
1000
0001
0100
0000
,
0010
1000
0001
0000
0010
0100
0010
0000
,
0001
1000
0010
0100
0001
1000
0100
0000
,
0010
0100
1000
0000
0001
0100
0010
0000
,
1000
0001
0010
0001
0100
0010
1000
0000
,
0001
0010
0100
0010
0001
1000
0010
0000
,
0100
0001
1000
0100
1000
0010
0100
0000
,
0001
1000
0100
0010
0001
1000
0010
0000
,
0100
0001
1000
0001
0010
0100
1000
0000
,
2002
0000
0000
0000
,
0000
0000
3003
0000
0010
0100
0000
0000
,
0110
0000
1001
0000
,
1000
1000
0001
0001
0100
0100
0010
0000
,
0110
0000
0000
0000
0000
0000
0000
1001
,
0000
0000
0000
0010
,
0000
0000
0000
0000
0000
0000
0000
0000
0000
0000
0000
0000
0000
0010
0000
0000
0000
0000
0000
0000
0000
0000
0000
0000
0000
0000
0000
0000
0000
0000
0000
0000
0100
0000
0000
0000
0000
0000
0000
0000
0110
0000
0000
0000
0000
0000
0000
0000
0000
0000
0000
0000
0000
0000
0000
0000
0110
0000
0000
0000
0000
0000
0000
0000
,
0000
1000
0000
1000
0000
0001
0000
0001
,
0010
0100
0010
0100
1000
0001
0100
0000
,
0010
1000
0001
0000
0010
0100
1000
0100
,
0010
0001
0010
0001
1000
0010
0100
0000
,
0001
1000
0100
0000
1000
0010
0100
0001
,
0010
0001
0010
0001
1000
0010
0100
0000
,
0001
0000
0001
0010
0000
0010
0100
0000
1000
0000
0001
0000
,
0100
0010
1000
0010
0100
0001
1000
0000
,
0100
0010
0001
0100
0010
0001
0010
1000
,
0001
1000
0100
1000
0001
0100
0010
0000
,
1000
0001
0010
0000
0001
0100
0010
1000
,
0001
0010
0001
0100
0010
1000
0001
0000
,
0010
0100
1000
0000
0010
0100
1000
0100
,
0001
1000
0001
0010
0100
1000
0001
0000
,
0100
0000
0100
0010
0000
0010
1000
0000
0001
0000
0010
0000
,
0100
1000
0100
1000
0001
0100
0001
0100
,
0010
1000
0001
0010
0100
0001
0100
1000
,
0020
0030
0000
0000
0000
0000
0000
0000
0100
0000
0001
0000
0010
0000
0001
0000
,
1000
0010
0100
0000
0001
1000
0100
0010
,
0001
1000
0010
0100
0001
1000
0100
1000
,
0001
0100
0010
0000
1000
0001
0010
0100
,
0010
0001
0100
0010
1000
0100
1000
0001
,
0100
0010
1000
0000
0001
0010
0001
1000
,
0010
0100
0001
0000
1000
1000
0100
1000
,
0001
0001
0100
0001
0010
0100
0010
0100
,
1000
0001
0100
0000
2002
0000
0000
0000
,
0000
0000
0000
0000
,
0000
0000
3003
0000
;

//--------------- dance-single - forcednature ----------------
#NOTEDATA:;
#STEPSTYPE:dance-single;
#DESCRIPTION:forcednature;
#DIFFICULTY:Hard;
#METER:17;
#RADARVALUES:0,0,0,0,0;
#CREDIT:forcednature;
#NOTES:
0000
0000
0000
0000
,
0000
0000
0000
0000
,
0000
0000
0000
0000
,
0000
0000
0000
0000
,
0000
0000
0000
0000
0000
0000
0000
0000
0000
0000
0000
0000
0000
1000
0001
1000
,
0001
0100
0010
1000
,
1001
0000
1000
0000
0100
0000
0010
0001
,
1001
0000
1000
0001
0010
0000
0001
1000
0010
0000
0100
0001
1000
0000
0100
1000
,
0020
0000
0000
0000
0100
0000
0000
0000
1000
0000
1000
0000
0030
0000
0010
0100
,
0001
0000
0010
0100
1000
0010
0100
0000
,
0001
0010
0001
0100
0010
1000
0100
0100
,
0010
0000
0001
1000
0010
0100
0001
0000
,
1000
0100
1000
0010
0100
0000
0001
0100
,
0101
0000
0100
0001
1000
0001
0010
0000
,
1001
0000
1000
0010
0100
0001
0010
0001
,
0100
0100
0001
0001
1000
1000
0100
0100
,
0010
0001
0010
0001
1000
0010
1000
0010
0100
0000
0001
1000
0010
0000
1000
0001
,
0020
0000
0000
0000
,
0000
0000
0000
0000
,
0230
0000
0000
0000
,
0000
0000
2300
0000
,
3002
0000
0000
0000
,
0000
0000
0000
0000
,
0203
0000
0000
0000
,
0010
0000
0000
0010
0000
0000
0010
0000
0000
0310
0000
0000
0110
0000
0000
0000
,
1001
0000
0000
1000
0100
0000
0000
0010
0100
0000
0000
1000
0001
1000
0010
0000
,
0100
0000
0100
0000
0001
0000
1000
0100
1000
0100
0010
0000
0001
0000
0000
0000
,
0100
0000
0000
0100
0001
0000
0000
0001
1000
0000
0010
0000
0010
0000
0000
0000
,
0100
0000
0100
0000
0001
0000
0000
0001
1000
0000
0000
1000
0100
0000
0000
0000
,
0010
0000
0010
0000
0001
0000
0000
0001
0100
0000
0000
0100
0010
1000
0010
0000
,
0100
0000
0100
0000
0001
0000
0000
1000
0100
1000
0100
0000
0010
0000
0000
0010
,
0001
0000
0001
0000
0100
0000
0100
0000
0010
1000
0010
0000
1000
0000
1000
0000
,
0100
0000
0100
0000
0100
0000
0010
0000
0010
0000
0001
1000
0001
0100
0010
1000
,
0002
0000
0000
0000
,
0000
0000
0000
0003
,
1001
2002
0000
0000
,
0000
0000
0000
3003
,
0220
0000
0000
0000
,
0000
0000
0000
0000
0000
0330
0000
0010
,
0110
2002
0000
0000
,
0000
0000
0000
3003
,
2100
0001
0010
3001
,
0102
1000
0010
1003
,
2010
0001
0100
3001
,
0012
0000
0000
0000
0103
0000
0000
0000
2010
0000
0000
0000
3100
0000
1000
0001
,
1000
0000
0100
0000
1000
0000
0010
0000
1000
0000
0100
0000
1000
0000
0010
0100
,
0001
0000
0100
0010
1000
0000
0100
0010
0001
0000
0010
0100
1000
0000
0001
0100
,
0010
1000
0100
1000
0001
0010
0001
0100
0010
1000
0001
0010
0100
1000
0001
0100
,
0020
0000
0000
0000
0001
0000
0000
0100
0000
0000
1000
0000
0000
0000
0030
0000
,
0010
0100
0010
0000
1000
0001
0010
0100
0000
0010
0001
0000
1000
0001
1000
0010
,
0000
0100
0001
0000
1000
0100
0010
0100
0000
0010
0001
0000
1000
0001
0100
0010
,
0000
0100
0001
0000
1000
0010
1000
0001
0000
0010
0001
0000
0010
0100
1000
0100
,
0000
1000
0010
0000
0100
0010
0100
0001
0000
1000
0010
0000
0100
0000
0001
0000
,
1000
0001
1000
0000
0100
0010
0001
0010
0000
0001
1000
0000
0001
0100
0010
1000
,
0000
0100
1000
0000
0001
0100
0001
0010
0000
0100
0010
0000
0001
1000
0001
0100
,
0000
0010
1000
0000
0100
1000
0001
1000
0000
0010
0100
0000
0001
0100
0010
1000
,
0000
0001
1000
0000
0100
0010
0001
0010
0000
0100
1000
0000
0001
0000
1000
0000
,
0010
0100
0010
0000
1000
0001
0010
0001
0000
0100
0001
0000
1000
0100
0010
0100
,
0000
0010
0001
0000
1000
0001
0100
0010
0000
1000
0010
0000
1000
0001
0010
0001
,
0000
0100
0001
0000
1000
0010
1000
0001
0000
0010
0100
0000
1000
0100
0010
0001
,
0000
1000
0001
0000
0100
0001
0100
0010
0000
1000
0010
0000
1000
0000
0001
0000
,
2002
0000
0000
0000
,
0000
0000
3003
0000
0010
0110
0000
0100
,
1001
0000
0110
0000
,
1000
0100
1000
0100
0010
0001
0010
0001
1000
0010
0100
0001
0010
0000
0000
0000
,
1001
0000
0000
0000
0000
0000
0000
1001
,
0000
0000
0000
1001
,
0000
0000
0000
0000
0000
0000
0000
0000
0000
0000
0000
0000
0000
1001
0000
0000
0000
0000
0000
0000
0000
0000
0000
0000
0000
0000
0000
0000
0000
0000
0000
0000
0010
0000
0000
0000
0000
0000
0000
0000
0110
0000
0000
0000
0000
0000
0000
0000
0000
0000
0000
0000
0000
0000
0000
0000
0110
0000
0000
0000
0000
0000
0000
0000
,
0000
0000
0001
1000
0000
0000
0010
0100
0000
0000
0001
1000
0000
0000
0100
0010
,
0100
0000
1000
0100
1000
0000
0001
0100
0001
0000
0010
0001
1000
0100
0010
0000
,
0100
0000
1000
0100
1000
0000
0010
1000
0002
0000
0023
0000
0230
0000
2300
0000
,
3001
0000
0100
0001
0100
0000
0010
0100
0010
0000
1000
0010
1000
0001
0010
0000
,
0100
0000
1000
0100
1000
0000
0100
0010
0002
0003
0001
0100
0020
0030
0010
1000
,
0001
0000
1000
0100
0010
0000
0100
0010
0001
0000
0010
0001
1000
0001
0100
0000
,
0010
1000
0100
0010
0001
0100
0010
0000
0020
0032
0023
2030
,
3001
0000
1000
0010
1000
0000
0001
0010
0001
0000
0100
0010
1000
0100
0010
0000
,
0100
0000
1000
0010
1000
0000
0100
1000
0002
0023
0032
0203
0320
2030
3200
2300
,
3010
0000
0100
0001
1000
0000
0001
0010
0100
0000
0010
0001
1000
0001
0100
0000
,
0010
0000
1000
0100
0010
0000
0100
1000
0002
0000
0203
0000
2300
0000
3200
0000
,
0310
0000
1000
0001
0010
0000
0001
0100
0010
0000
1000
0001
0010
0100
1000
0000
,
0001
0000
0100
0010
1000
0000
0100
0010
0002
0003
0001
0100
2000
3000
1000
0100
,
0010
0000
0100
0001
1000
0000
0100
0010
0001
0000
1000
0001
0100
0010
1000
0000
,
0001
0010
1000
0001
0100
1000
0010
0000
0020
0230
2300
3200
,
0301
0000
0010
0001
0010
0001
1000
0001
0100
0000
0010
1000
0010
1000
0001
1000
,
0100
0000
0010
0100
0010
0100
1000
0001
0200
0302
0023
0032
2003
3200
2300
3020
,
0230
0300
0000
0000
0000
0000
0000
0000
0001
1000
0001
0000
0010
0100
1000
0100
,
0000
0010
0001
0000
0100
0001
1000
0010
0000
1000
0100
0000
0010
0100
1000
0001
,
0000
0100
0010
0000
1000
0001
0010
0001
0000
0100
0010
0000
1000
0100
0010
0100
,
0000
0010
0001
0000
1000
0010
1000
0001
0000
0010
0100
0000
0010
0001
1000
0001
,
0000
0100
0010
0000
1000
0000
0001
0000
0010
0100
0010
0000
0001
1000
0010
0100
,
0001
1000
0001
0000
0010
0100
1000
0100
0010
0001
1000
0000
0001
0100
0010
1000
,
0010
0100
0001
0000
1000
0001
0010
0000
0011
0000
1000
0000
0100
0000
1000
0000
,
1010
0000
0001
0000
0100
0000
0001
0000
1000
0100
0010
0001
0100
0010
1000
0100
,
0010
0001
0100
0010
1000
0100
0010
0001
0200
0000
0000
0000
0000
0000
0000
0000
,
0000
0000
0000
0000
,
0000
0000
0300
0000
;

//--------------- dance-double - forcednature ----------------
#NOTEDATA:;
#STEPSTYPE:dance-double;
#DESCRIPTION:forcednature;
#DIFFICULTY:Easy;
#METER:9;
#RADARVALUES:0,0,0,0,0;
#CREDIT:forcednature;
#NOTES:
00000000
00000000
00000000
00000000
,
00000000
00000000
00000000
00000000
,
00000000
00000000
00000000
00000000
,
00000000
00000000
00000000
00000000
,
00000000
00000000
00000000
00000000
,
00011000
00000000
00001000
00000000
,
00011000
00000000
00010000
00000000
,
00000100
00001000
00000100
00000010
,
00000002
00000000
00000003
00000000
,
00001000
00000010
00001000
00000000
,
00000010
00010000
00001000
00000000
,
00100000
00001000
00100000
00000000
,
00010000
00100000
01000000
00000000
,
10000000
00010000
01000000
00100000
,
10000000
00100000
01000000
00000000
,
00001000
00010000
00000100
00001000
,
00000100
00010000
00001000
00000000
,
00021000
00000000
00000000
00000000
,
00000000
00000000
00000000
00000000
,
00030020
00000000
00000000
00000000
,
00000000
00000000
00000000
00000000
,
00002030
00000000
00000000
00000000
,
00000000
00000000
00000000
00000000
,
00003002
00000000
00000000
00000000
,
00000010
00000000
00000000
00000010
00000000
00000000
00000013
00000000
,
00000000
00000001
00000100
00000001
,
00000100
00000010
00001000
00000010
,
00000000
00010000
00001000
00100000
,
00010000
00100000
00001000
00010000
,
00000000
00001000
01000000
00010000
,
01000000
00100000
10000000
00100000
,
00000000
10000000
01000000
10000000
,
00010000
00100000
00010000
00000000
,
20020000
00000000
00000000
00000000
,
00000000
00000000
30030000
00000000
,
01100000
02200000
00000000
00000000
,
00000000
00000000
03300000
00000000
,
00022000
00000000
00000000
00000000
,
00000000
00000000
00033000
00000000
,
00000110
00000220
00000000
00000000
,
00000000
00000000
00000330
00000000
,
00002002
00000000
00003003
00000000
,
00000220
00000000
00000330
00000000
,
00022000
00000000
00033000
00000000
,
02200000
03300000
20020000
30030000
,
10000000
01000000
10000000
00000000
,
00010000
01000000
00010000
00000000
,
00100000
00001000
00010000
00000010
,
00002000
00000000
00003000
00000000
,
00000001
00000010
00000100
00000010
,
00000100
00001000
00000100
00010000
,
00001000
00100000
00010000
00100000
,
01000000
00000000
00100000
00000000
01000000
00000000
10000000
00010000
,
10000000
00100000
01000000
00100000
,
01000000
00001000
00010000
00001000
,
00010000
00000010
00001000
00000010
,
00000100
00000000
00000001
00000000
00001000
00000000
00000001
00001000
,
00000001
00000010
00000100
00000010
,
00000100
00001000
00000100
00010000
,
00001000
00100000
00010000
00100000
,
01000000
00000000
10000000
00000000
00010000
00000000
10000000
00010000
,
20000000
00000000
00000000
00000000
,
00000000
00000000
30100000
00000000
,
02200000
00000000
03300000
00000000
,
10000000
00010000
10000000
00010000
10000000
00000000
01000000
00000000
,
02200000
00000000
00000000
03300000
00000000
00000000
00000000
00022000
,
00000000
00000000
00000000
00033000
00000000
00000000
00000110
00000000
,
00000000
00000000
00000000
00000000
00000000
00000000
00000000
00000000
00000000
00000000
00000000
00000000
00000000
00000110
00000000
00000000
00000000
00000000
00000000
00000000
00000000
00000000
00000000
00000000
00000000
00000000
00000000
00000000
00000000
00000000
00000000
00000000
00000000
00000000
00000000
00000000
00000000
00000000
00000000
00000000
00001001
00000000
00000000
00000000
00000000
00000000
00000000
00000000
00000000
00000000
00000000
00000000
00000000
00000000
00000000
00000000
00001001
00000000
00000000
00000000
00000000
00000000
00000000
00000000
,
00000000
00000002
00000000
00001000
00000000
00001000
00000000
00001003
,
00000000
00000001
00000100
00001000
,
00010000
00000000
01000000
00000000
10000000
00100000
10000000
00100000
,
00000000
10000000
01000000
00010000
,
00001000
00000000
00000100
00000000
00000001
00000010
00000001
00000010
,
00000000
00000001
00000100
00001000
,
00010000
00000000
00000000
01000000
00000000
00000000
10000000
00000000
00100000
00000000
10000000
00000000
,
01000000
00010000
00001000
00000100
,
00000001
00000000
00000010
00000000
00000100
00000010
00000100
00000010
,
00000001
00000100
00001000
00010000
,
01000000
00000000
10000000
00000000
00100000
10000000
00100000
00000000
,
10000000
01000000
00010000
00001000
,
00000100
00000000
00000001
00000000
00000010
00000001
00000010
00000000
,
00000001
00000100
00001000
00010000
,
01000000
00000000
00000000
10000000
00000000
00000000
00100000
00000000
10000000
00000000
00100000
00000000
,
10000000
01000000
00010000
00001000
,
00000100
00000000
00000001
00000000
00000010
00000100
00000010
00000100
,
00000020
00000030
00000000
00000000
00000000
00000000
00000000
00000000
00001001
00000000
00000000
00000000
00001000
00000000
00000000
00000000
,
00000100
00010000
00001000
01000000
,
00010000
10000000
10010000
00010000
,
00100000
01000000
00100000
00001000
,
00010000
00000100
00000110
00000010
,
00000001
00001000
00000010
00000100
,
00000010
00010000
00011000
00001000
,
00011000
00000000
00010000
00000000
00001000
00010000
00001000
00010000
,
00001000
00011000
00022000
00000000
,
00000000
00000000
00000000
00000000
,
00000000
00000000
00033000
00000000
;

//--------------- dance-double - forcednature ----------------
#NOTEDATA:;
#STEPSTYPE:dance-double;
#DESCRIPTION:forcednature;
#DIFFICULTY:Medium;
#METER:12;
#RADARVALUES:0,0,0,0,0;
#CREDIT:forcednature;
#NOTES:
00000000
00000000
00000000
00000000
,
00000000
00000000
00000000
00000000
,
00000000
00000000
00000000
00000000
,
00000000
00000000
00000000
00000000
,
00000000
00000000
00000000
00000000
00000000
00000000
00000000
00001000
,
00010000
00000000
00100000
00000000
10000000
00000000
01000000
00010000
,
01000000
00000000
10000000
00000000
00100000
00000000
00010000
00001000
,
01000000
00010000
00000000
00010000
00100000
01000000
00000000
01000000
,
00020000
00000000
00000000
00000000
00001000
00031000
00000000
00000000
,
00010000
00000100
00000000
00001000
00000000
00000100
00010000
00000000
,
00001000
01000000
00000000
00010000
00000000
01000000
00001000
00000000
,
00010000
00000010
00000000
00001000
00000000
00000010
00010000
00000000
,
00001000
00100000
00000000
00010000
00000000
00100000
00001000
00010000
,
00000100
00001000
00000000
00000010
00000000
00010000
00001000
00000000
,
01000000
00010000
00000000
00100000
00000000
00001000
00010000
00000000
,
00000010
00001000
00000010
00000000
00001000
00000100
00001000
00000000
,
00000001
00000100
00000001
00000100
00000010
00001000
00000010
00000000
,
00021000
00000000
00000000
00000000
,
00000000
00000000
00000000
00000000
,
00032000
00000000
00000000
00000000
,
00000000
00000000
02003000
00000000
,
03020000
00000000
00000000
00000000
,
00000000
00000000
00000000
00000000
,
20030000
00000000
00000000
00000000
,
00100000
00000000
00000000
00100000
00000000
00000000
00100000
00000000
00000000
30100000
00000000
00000000
10010000
00000000
00000000
00000000
,
00010000
00100000
01000000
00000000
00010000
00000000
00001000
00010000
,
01000000
00000000
00100000
00000000
00001000
00010000
00000100
00000000
,
00001000
00000010
00000001
00000000
00000010
00000000
00001000
00000001
,
00000100
00000000
00001000
00000000
00010000
00000010
00001000
00000000
,
00000010
00010000
00001000
00000000
00000010
00000000
00001000
00010000
,
01000000
00000000
00010000
00000000
00001000
00100000
00010000
00000000
,
10000000
00100000
00010000
00000000
00100000
00000000
01000000
00001000
,
00010000
00000000
00000010
00000000
00001000
00000100
00000001
00000000
,
00000220
00000000
00000000
00000000
,
00000000
00000000
00000000
00000000
00000000
00000330
00000000
00000000
,
00011000
00022000
00000000
00000000
,
00000000
00000000
00000000
00000000
00000000
00033000
00000000
00000000
,
02200000
00000000
00000000
00000000
,
00000000
00000000
00000000
00000000
00000000
03300000
00000000
00000000
,
00011000
00022000
00000000
00000000
,
00000000
00000000
00000000
00000000
00000000
00033000
00000000
00000000
,
00000110
00001000
00010000
01000000
,
01100000
00010000
00001000
00000100
,
00000110
00001000
00010000
00100000
,
01100000
00010000
00011000
00001000
,
00000110
00000000
00000001
00000100
00000001
00000000
00000100
00000010
,
00000100
00000000
00000010
00001000
00000010
00000000
00010000
00001000
,
00010000
02000000
00000000
23000000
00000000
30200000
00000000
00310000
,
00002000
00000000
00000000
00003000
,
00010000
00000100
00001000
00000001
00000010
00000100
00001000
00000000
,
00000001
00001000
00000010
00000000
00000110
00000000
00000101
00000000
,
00000001
00001000
00000010
00010000
00001000
00010000
00000100
00000000
,
00010000
00001000
00100000
00000000
00110000
00000000
01010000
00000000
,
01000000
00100000
10000000
00100000
01000000
00010000
00100000
00000000
,
01000000
00010000
00001000
00000000
00011000
00000000
00010100
00000000
,
00000100
00001000
00000001
00000100
00000001
00001000
00000010
00000000
,
00001000
00000100
00010000
00000000
00011000
00000000
01001000
00000000
,
01000000
00010000
00100000
01000000
00100000
00010000
10000000
00000000
,
00100000
01000000
00010000
00000000
00110000
00000000
01100000
00000000
,
01000000
10000000
00010000
01000000
00001000
00010000
00001000
00000000
,
00100000
00010000
00100000
00000000
00101000
00000000
00011000
00000000
,
00020020
00000000
00000000
00000000
,
00000000
00000000
00030030
00000000
00000010
00001000
00000000
00001000
,
00000200
00000300
00000020
00000030
,
00000001
00001000
00000100
00010000
00001000
01000000
00010000
00000000
,
20020000
00000000
00000000
00000000
00000000
30030000
00000000
02200000
,
00000000
00000000
03300000
00022000
,
00033000
00000000
00000000
00000000
00000000
00000000
00000000
00000000
00000000
00000000
00000000
00000000
00000000
00011000
00000000
00000000
00000000
00000000
00000000
00000000
00000000
00000000
00000000
00000000
00000000
00000000
00000000
00000000
00000000
00000000
00000000
00000000
00010000
00000000
00000000
00000000
00000000
00000000
00000000
00000000
00000100
00000000
00000000
00000000
00000000
00000000
00000000
00000000
00000000
00000000
00000000
00000000
00000000
00000000
00000000
00000000
00000110
00000000
00000000
00000000
00000000
00000000
00000000
00000000
,
00000000
00000020
00000030
00000020
00000030
00000020
00000030
00000020
,
00000031
00001000
00000001
00000100
00000010
00001000
00000010
00000000
,
00010000
00001000
01000000
00000000
00020000
00000000
20030000
00000000
,
31000000
00100000
00010000
00100000
01000000
00100000
00001000
00000000
,
00010000
00000100
00001000
00000000
00000002
00000000
00000203
00000000
,
00000310
00010000
00001000
00010000
00000100
00001000
00000100
00000000
,
00010000
00001000
01000000
00000000
00020000
00000000
00230000
00000000
,
01300000
10000000
00010000
01000000
00001000
00010000
00001000
00000000
,
00100000
00010000
01000000
00000000
00002000
00000000
00023000
00000000
,
00030010
00001000
00000100
00000010
00000100
00001000
00000001
00000000
,
00000100
00001000
00010000
00000000
00002000
00000000
00203000
00000000
,
00310000
01000000
00001000
00010000
00001000
00100000
00010000
00000000
,
01000000
00001000
00010000
00000000
00000200
00000000
00000320
00000000
,
00000031
00001000
00000100
00001000
00000010
00010000
00001000
00000000
,
01000000
00010000
00100000
00000000
01100000
00000000
10010000
00000000
,
00010000
01000000
00001000
00010000
00000100
00001000
00000100
00000000
,
00010000
00001000
00100000
00010000
10000000
01000000
00010000
00001000
,
00200000
00300000
00000000
00000000
00000000
00000000
00000000
00000000
00010000
00000000
01000000
00000000
00001000
00000000
00010000
00000000
,
00000010
00001000
00000100
00000000
00000010
00000001
00001000
00000000
,
00001010
00000000
00010010
00000000
00010000
00001000
00100000
00010000
,
00100000
00001000
00010000
00000000
00001000
01000000
00010000
00000000
,
01100000
00000000
10100000
00000000
10000000
01000000
00100000
01000000
,
10000000
00010000
00100000
00000000
00001000
00010000
00000010
00000000
,
00001010
00000000
00001100
00000000
00000100
00000010
00000001
00000010
,
00000100
00001000
00000001
00000000
00000100
00001000
00000100
00001000
,
00010000
00100000
00010000
00100000
20000000
00000000
00000000
00000000
,
00000000
00000000
00000000
00000000
,
00000000
00000000
30000000
00000000
;

//--------------- dance-double - forcednature ----------------
#NOTEDATA:;
#STEPSTYPE:dance-double;
#DESCRIPTION:forcednature;
#DIFFICULTY:Hard;
#METER:17;
#RADARVALUES:0,0,0,0,0;
#CREDIT:forcednature;
#NOTES:
00000000
00000000
00000000
00000000
,
00000000
00000000
00000000
00000000
,
00000000
00000000
00000000
00000000
,
00000000
00000000
00000000
00000000
,
00000000
00000000
00000000
00000000
00000000
00000000
00000000
00000000
00000000
00000000
00000000
00000000
00000000
00001000
00010000
00001000
,
00010000
00000000
00000100
00000000
00001000
00000010
00010000
00000000
,
00001000
00000000
01000000
00000000
00010000
00100000
00001000
00001000
,
00010000
00000000
00000010
00001000
00000010
00000000
00000100
00000010
00000100
00000000
00000001
00001000
00000100
00000000
00001000
00000001
,
00000020
00000000
00000000
00000000
00000100
00000000
00000000
00000000
00000001
00000000
00000001
00000000
00000030
00000000
00000010
00000100
,
00001000
00000000
00000010
00000100
00001000
01000000
00010000
10000000
,
00100000
00000000
10000000
01000000
00010000
01000000
00100000
00001000
,
00000010
00000000
00000100
00010000
00001000
00000010
00000001
00000100
,
00001000
00000000
00000100
00000001
00000010
00001000
00010000
00001000
,
00011000
00000000
00010000
01000000
10000000
00010000
01000000
00100000
,
10010000
00000000
10000000
01000000
00010000
00001000
00000100
00000001
,
00000010
00000100
00001000
00000100
00010000
00001000
01000000
00001000
,
00010000
00100000
00010000
00100000
10000000
00100000
10000000
00100000
01000000
00000000
00010000
10000000
01000000
00000000
10000000
00010000
,
00200000
00000000
00000000
00000000
,
00000000
00000000
00000000
00000000
,
00302000
00000000
00000000
00000000
,
00000000
00000000
00003020
00000000
,
00000032
00000000
00000000
00000000
,
00000000
00000000
00000000
00000000
,
00000203
00000000
00000000
00000000
,
00001000
00000000
00000000
00001000
00000000
00000000
00001000
00000000
00000000
00001300
00000000
00000000
00011000
00000000
00000000
00000000
,
00010000
00000000
01000000
00000000
10000000
00000000
01000000
00000000
00010000
00000000
00001000
00000000
00100000
00010000
00100000
00000000
,
00001000
00000000
00010000
00000000
00000010
00000000
00001000
00000100
00001000
00000000
00000100
00000010
00000001
00000000
00001000
00000000
,
00000010
00000000
00010000
00000000
00001000
00000000
00010000
00000000
00000100
00000000
00001000
00000000
00000010
00000100
00000010
00000000
,
00001000
00000000
00001000
00000000
00000100
00000000
00010000
00001000
00000000
01000000
00010000
00000000
10000000
00000000
00100000
10000000
,
00100000
00000000
01000000
00000000
00010000
00000000
00100000
00000000
01000000
00000000
00010000
00000000
00001000
00010000
00001000
00000000
,
00010000
00000000
00000100
00000000
00001000
00000000
00000001
00000000
00000010
00000100
00001000
00000000
00000001
00000000
00000100
00000010
,
00000100
00000000
00001000
00000000
00010000
00000000
00001000
00000000
01000000
00010000
01000000
00000000
00100000
00000000
10000000
00000000
,
00010000
00000000
00010000
00000000
00010000
00000000
00100000
00000000
01000000
00000000
10000000
00010000
01000000
00010000
01000000
00001000
,
00020000
00000000
00000000
00000000
,
00000000
00000000
00000000
00030000
,
00001100
00002200
00000000
00000000
,
00000000
00000000
00000000
00003300
,
00000022
00000000
00000000
00000000
,
00000000
00000000
00000000
00000000
00000000
00000033
00000000
00000100
,
00000110
00020200
00000000
00000000
,
00000000
00000000
00000000
00030000
,
00002300
00000100
00000001
00000010
,
00023000
01000000
10000000
00100000
,
00032000
00000100
00000001
00000010
,
00023000
00000000
00000000
00000000
01000000
00000000
00000000
00000000
00032000
00000000
00000000
00000000
00003100
00000000
00001000
00000001
,
00000010
00000000
00000100
00000000
00001000
00000000
00000100
00000000
00010000
00000000
00000100
00000000
00001000
00000000
00000100
00010000
,
00001000
00000000
00010000
00001000
00100000
00000000
00010000
00100000
01000000
00000000
00100000
01000000
10000000
00000000
01000000
00100000
,
00010000
00100000
00001000
00010000
00001000
01000000
00010000
01000000
00001000
00010000
00000100
00001000
00000100
00010000
00001000
00010000
,
00000020
00000000
00000000
00000000
00001000
00000000
00000000
00000100
00000000
00000000
00000001
00000000
00000000
00000000
00000030
00000000
,
00000010
00000000
00000100
00000000
00000001
00000100
00000010
00000100
00000000
00000010
00001000
00000000
00000100
00001000
00000100
00010000
,
00000000
00001000
00010000
00000000
00001000
00100000
00010000
00100000
00000000
01000000
00100000
00000000
01000000
00000000
10000000
00000000
,
00100000
00000000
10000000
00000000
00100000
01000000
00010000
01000000
00000000
00001000
00010000
00000000
00001000
00010000
00000010
00001000
,
00000000
00000010
00000100
00000000
00000001
00000100
00000001
00001000
00000000
00000100
00001000
00000000
00000100
00000000
00010000
00000000
,
00001000
00000000
00010000
00000000
00001000
00100000
00010000
00100000
00000000
01000000
00100000
00000000
01000000
10000000
00100000
10000000
,
00000000
00100000
01000000
00000000
00010000
01000000
00010000
00100000
00000000
00001000
00010000
00000000
00001000
00000000
00010000
00000000
,
00000100
00000000
00001000
00000000
00000100
00000010
00000100
00000010
00000000
00000100
00001000
00000000
00000100
00010000
00001000
00010000
,
00000000
00001000
00100000
00000000
00010000
00100000
01000000
00100000
00000000
01000000
10000000
00000000
00010000
00000000
10000000
00000000
,
00100000
00000000
01000000
00000000
00010000
01000000
00010000
00100000
00000000
00001000
00010000
00000000
00001000
00010000
00000100
00001000
,
00000000
00000100
00000010
00000000
00000001
00001000
00000010
00001000
00000000
00000010
00010000
00000000
00001000
00000000
00100000
00000000
,
00010000
00000000
01000000
00000000
00010000
00100000
01000000
00100000
00000000
01000000
10000000
00000000
00100000
10000000
00100000
01000000
,
00000000
00010000
01000000
00000000
00001000
00010000
00000100
00010000
00000000
00000100
00001000
00000000
00000100
00000000
00000010
00000000
,
00002002
00000000
00000000
00000000
,
00000000
00000000
00003003
00000000
00010000
00011000
00000000
01000000
,
10010000
00000000
01100000
00000000
,
10000000
00100000
10000000
00010000
01000000
00100000
01000000
00010000
00100000
00010000
00100000
00001000
00010000
00000000
00000000
00000000
,
00011000
00000000
00000000
00000000
00000000
00000000
00000000
00010100
,
00000000
00000000
00000000
00000110
,
00000000
00000000
00000000
00000000
00000000
00000000
00000000
00000000
00000000
00000000
00000000
00000000
00000000
00000110
00000000
00000000
00000000
00000000
00000000
00000000
00000000
00000000
00000000
00000000
00000000
00000000
00000000
00000000
00000000
00000000
00000000
00000000
00000000
00000100
00000000
00000000
00000000
00000000
00000000
00000000
00001001
00000000
00000000
00000000
00000000
00000000
00000000
00000000
00000000
00000000
00000000
00000000
00000000
00000000
00000000
00000000
00002001
00000000
00000000
00000000
00000000
00000000
00000000
00000000
,
00000000
00000100
00000000
00010000
00000000
00000100
00000000
00003001
,
00001000
00000000
00000100
00001000
00000100
00000000
00001000
00000100
00010000
00000000
00001000
00010000
00001000
01000000
00010000
00000000
,
01000000
00000000
00100000
10000000
00100000
00000000
10000000
00010000
00200000
00000000
02300000
00000000
03020000
00000000
00032000
00000000
,
00103000
00000000
00010000
00100000
00001000
00000000
00010000
00001000
00010000
00000000
00000100
00001000
00000100
00000010
00000001
00000000
,
00000100
00000000
00000001
00001000
00000010
00000000
00001000
00000010
00020000
00030000
00010000
00001000
00200000
00300000
00100000
00010000
,
10000000
00000000
00100000
10000000
01000000
00000000
10000000
01000000
00100000
00000000
01000000
00100000
00010000
00100000
00001000
00000000
,
00010000
00000100
00000010
00001000
00000010
00000100
00010000
00000000
00020000
00032000
00003020
00000032
,
00001003
00000000
00000001
00000100
00000001
00000000
00000100
00000010
00000100
00000000
00000010
00001000
00000010
00010000
00001000
00000000
,
00100000
00000000
00010000
00100000
01000000
00000000
00100000
01000000
00200000
00320000
00230000
00302000
00023000
00030020
00002030
00003020
,
00000130
00000000
00000010
00000100
00000010
00000000
00000100
00000010
00001000
00000000
00000010
00001000
00000010
00010000
00001000
00000000
,
00010000
00000000
00001000
00100000
00010000
00000000
00100000
01000000
20000000
00000000
32000000
00000000
03020000
00000000
02030000
00000000
,
03100000
00000000
01000000
00100000
00010000
00000000
00100000
00001000
00010000
00000000
00001000
00010000
00000010
00001000
00000010
00000000
,
00000100
00000000
00000010
00000100
00000001
00000000
00000100
00000001
00002000
00003000
00001000
00000100
00020000
00030000
00010000
00001000
,
00100000
00000000
00010000
00100000
01000000
00000000
00100000
01000000
10000000
00000000
01000000
10000000
00010000
10000000
00100000
00000000
,
01000000
10000000
01000000
00010000
00100000
00001000
00010000
00000000
00020000
00032000
00003020
00000230
,
00001300
00000000
00000100
00000010
00000100
00000010
00000001
00000010
00000100
00000000
00001000
00000100
00001000
00000100
00010000
00001000
,
00010000
00000000
00001000
01000000
00001000
01000000
00010000
01000000
00020000
02030000
03002000
00023000
00030200
00002300
00003200
00020300
,
00030020
00000030
00000000
00000000
00000000
00000000
00000000
00000000
00000100
00000001
00000100
00000000
00000001
00000010
00000100
00000010
,
00000000
00000100
00001000
00000000
00000100
00010000
00001000
00010000
00000000
00001000
00100000
00000000
00010000
00100000
01000000
00100000
,
00000000
01000000
10000000
00000000
00100000
00000000
00010000
00000000
00100000
00000000
10000000
00000000
00010000
01000000
00100000
01000000
,
00000000
00010000
01000000
00000000
00001000
00010000
00000100
00001000
00000000
00000100
00000010
00000000
00000001
00000010
00000001
00001000
,
00000000
00000100
00001000
00000000
00000100
00000000
00010000
00000000
00001000
00000000
01000000
00000000
00010000
01000000
00100000
01000000
,
00000000
00100000
10000000
00000000
00010000
10000000
01000000
10000000
00010000
00100000
00010000
00000000
00100000
00001000
00010000
00001000
,
00000000
00010000
00000010
00000000
00001000
00000010
00000100
00000010
00001000
00000000
00000100
00000000
00000010
00000000
00000100
00000000
,
00010000
00000000
00000010
00000000
00001000
00000000
00000010
00000000
00010000
00001000
01000000
00010000
01000000
00001000
00010000
00001000
,
00100000
00010000
00100000
01000000
10000000
00010000
00100000
00010000
02000000
00000000
00000000
00000000
00000000
00000000
00000000
00000000
,
00000000
00000000
00000000
00000000
,
00000000
00000000
03000000
00000000
;
