#VERSION:0.83;
#TITLE:tricky trick;
#SUBTITLE:;
#ARTIST:kamome sano;
#TITLETRANSLIT:;
#SUBTITLETRANSLIT:;
#ARTISTTRANSLIT:;
#GENRE:DUBSTEP;
#CREDIT:;
#MUSIC:tricky trick.ogg;
#BANNER:tricky trick.png;
#BACKGROUND:tricky trick-bg.png;
#CDTITLE:./CDTitles/SDVX III GRAVITY WARS.png;
#SAMPLESTART:72.712;
#SAMPLELENGTH:15.000;
#SELECTABLE:YES;
#OFFSET:0.000;
#BPMS:0.000=165.000
,37.000=82.500
,49.000=165.000
,57.000=82.500
,69.000=165.000
,77.000=82.500
,89.000=165.000
,97.000=82.500
,108.500=165.000
,144.000=82.500
,145.500=165.000
;
#STOPS:36.000=1.091
,105.000=0.364
,110.000=0.182
,145.500=0.182
;
#TIMESIGNATURES:0.000=4=4,
32.000=5=4,
37.000=4=4,
109.000=3=4,
112.000=4=4,
144.000=2=4,
146.000=4=4
;
#BGCHANGES:0.000=../BGAs/29cy.mp4=1.000=0=0=0=StretchNoLoop====,
99999.000=-nosongbg-=1.000=0=0=0=StretchNoLoop====
;
#FGCHANGES:;

//--------------- dance-single - forcednature ----------------
#NOTEDATA:;
#STEPSTYPE:dance-single;
#DESCRIPTION:forcednature;
#DIFFICULTY:Beginner;
#METER:1;
#RADARVALUES:0,0,0,0,0;
#CREDIT:forcednature;
#NOTES:
0000
0000
0000
0000
,
0000
0000
0000
0000
,
0000
0000
0000
0000
,
0000
0000
0000
0000
,
0000
0000
0000
0000
,
0000
0000
0000
0000
,
0001
0000
0000
0000
,
0100
0000
0000
0000
,
0020
0000
0000
0000
,
0030
1000
0000
0000
,
0000
0100
0000
0000
,
0000
1000
0000
0000
,
0000
0001
0000
0000
,
0000
0001
0000
0000
,
0000
0100
0000
0000
,
0000
0010
0000
0000
,
0000
1000
0000
0000
,
0000
0001
0000
0000
,
0000
0001
0000
0000
,
0000
0010
0000
0000
,
0000
0100
0000
0000
,
0000
1000
0000
0000
,
0000
0010
0000
0000
,
0000
0010
0000
0000
,
0000
0100
0000
0000
,
0000
0001
0000
0000
,
0000
1000
0000
0000
,
0100
0000
0000
0000
,
0100
0000
0000
0000
,
0010
0000
0000
0000
,
0000
0000
0000
0000
,
0000
0000
0000
0000
,
0000
0000
0000
0000
,
0001
0000
0000
0000
,
0001
0000
0000
0000
,
1000
0000
0000
0000
,
0010
0000
1001
0000
,
0000
0000
0000
0000
,
0000
0000
1000
0000
,
0000
0000
0100
0000
,
0000
0000
1000
0000
,
0000
0000
0001
0000
,
0000
0000
0100
0000
,
0000
0000
0001
0000
,
0000
0000
0010
0000
,
0000
0000
0000
0000
,
0000
0000
0100
0000
,
0000
0000
1000
0000
,
0000
0000
0010
0000
,
0000
0000
0100
0000
,
0000
0000
0001
0000
,
0000
0000
0010
0000
,
0000
0000
0100
0000
,
0000
0000
0000
0000
,
0000
0000
0010
0000
,
0000
0000
0001
0000
,
0000
0000
1000
0000
,
0000
0000
0010
0000
,
0000
0000
0100
0000
,
0000
0000
0001
0000
,
0000
0000
1000
0000
,
0000
0000
1000
0000
,
0000
0000
0100
0000
,
0000
0000
0100
0000
,
0000
0000
0010
0000
,
0000
0000
0010
0000
,
0000
0000
0001
0000
,
0000
0000
0100
0000
,
0000
1001
0000
0000
;

//--------------- dance-single - forcednature ----------------
#NOTEDATA:;
#STEPSTYPE:dance-single;
#DESCRIPTION:forcednature;
#DIFFICULTY:Easy;
#METER:7;
#RADARVALUES:0,0,0,0,0;
#CREDIT:forcednature;
#NOTES:
0000
0000
0000
0000
,
0000
0000
0000
0000
,
0000
0000
0000
0000
,
0000
0000
0000
0000
,
0000
0000
0000
0000
,
0000
0000
0000
0000
,
0001
0000
0000
0000
0000
0000
0000
0100
,
0000
0000
0000
0010
0000
0000
0000
2002
,
0000
0000
0000
0000
,
3003
0000
1000
0000
0100
0000
1000
1000
,
1000
0010
0100
0001
,
0100
0000
0010
0000
1000
0000
0001
0001
,
0010
0000
0001
0000
0000
0100
0000
0000
,
0001
0000
0000
0010
0000
0000
0100
0000
,
0000
0000
0110
0000
0001
0000
1000
1000
,
0010
0000
0100
0000
0001
0001
0010
0000
,
0001
0001
1000
0000
0010
0000
0100
0001
,
0100
0000
0010
0000
0000
1000
0000
0000
,
0100
0000
0000
1000
0000
0000
0001
0000
,
0000
0000
1001
0000
1000
1000
0100
0000
,
1000
0000
0010
0010
0100
0000
0001
1000
,
0001
0010
0110
1000
,
0001
0000
0100
0000
0000
0010
0000
0000
,
1000
0000
0000
0001
0000
0000
0100
0000
,
0000
0000
0110
0000
0001
0000
0010
0010
,
0001
0000
1000
0000
0010
0010
0100
0000
,
0001
0000
1010
0001
0000
0010
0010
0010
,
0000
0100
0000
0000
1000
0000
0010
0000
,
0010
1000
0001
0000
,
2000
0000
0000
0000
,
3200
0000
0320
0000
,
0032
0000
0000
0000
,
0203
0000
0320
0000
,
1030
1000
0001
0001
,
1000
0001
1000
0000
,
0010
0010
0100
0100
,
0002
0003
0000
2000
0000
0000
3000
0000
0001
0000
0000
0000
0010
0000
0000
0000
,
0100
0010
0001
1000
,
0100
0100
1000
0010
,
0100
0010
1000
0001
,
0100
0100
0001
0010
,
0100
0010
0001
1000
,
0100
0100
1000
0010
,
0100
0010
1000
0001
,
0100
0100
0001
1000
,
0100
0010
0100
1000
,
0001
0001
1000
0001
,
0100
0010
0100
0001
,
1000
1000
0001
0010
,
0100
1000
0010
0100
,
0001
0001
1000
0100
,
0010
0001
0100
0010
,
0220
0330
0001
1000
,
0100
0001
0100
1000
,
0001
0010
0001
0100
,
1000
0100
0001
1000
,
0010
1000
0100
0001
,
0100
1000
0001
0100
,
0001
1000
0010
0001
,
0010
1000
0001
0100
,
0020
0030
1000
0100
,
0001
0100
1000
1000
,
0010
1010
0001
0100
,
1000
0100
0001
0001
,
0010
0011
2000
0000
,
0010
0000
0001
0000
,
0100
3000
1000
1000
,
0001
0000
0001
0000
0200
0000
0000
0320
,
0000
1030
0000
0000
;

//--------------- dance-single - forcednature ----------------
#NOTEDATA:;
#STEPSTYPE:dance-single;
#DESCRIPTION:forcednature;
#DIFFICULTY:Medium;
#METER:11;
#RADARVALUES:0,0,0,0,0;
#CREDIT:forcednature;
#NOTES:
0000
0000
0000
0000
,
0000
0000
0000
0000
,
0000
0000
0000
0000
,
0000
0000
0000
0000
,
0000
0000
0000
0000
,
0000
0000
0000
0000
,
2002
0000
3003
0000
0000
0000
0000
0202
,
0000
0303
0000
2020
0000
3030
0000
2200
,
0000
3000
0000
0000
0020
0000
0000
0000
0000
0000
0000
0000
0000
0000
0000
0000
,
0330
0000
2001
0000
3010
0010
0100
0001
,
2000
0000
0000
0000
0000
0000
0000
0000
3100
0000
0000
0000
0010
0000
0000
0000
0001
0000
0000
0001
0000
0000
0000
0000
2000
0000
0000
0000
3020
0000
0000
0000
,
0230
0302
2003
0000
3100
0100
0010
0000
,
0001
0100
0110
0000
0010
1000
0000
1000
,
0100
0000
0010
0001
0000
0001
0100
0000
,
0110
0000
1002
0000
0103
0010
1000
0000
,
0001
0000
0000
0000
0010
0000
0000
0000
0200
0000
0000
0000
0000
0000
0000
0000
1300
0000
0000
1000
0000
0000
0000
0000
0001
0000
0000
0001
0000
0000
0000
0000
,
0200
0000
0320
0000
0030
0000
0000
0000
1000
0000
1000
0000
0001
0000
0010
0001
,
0010
0100
0210
0000
0000
1300
0000
0000
,
0120
0000
0000
0000
0000
0000
0031
0000
0000
0000
0000
0000
1000
0001
1000
0000
,
0001
0000
2000
0000
3010
1000
0001
0000
,
0010
0000
0000
0000
0001
0000
0000
0000
0200
0000
0000
0000
0000
0000
0000
0000
0310
0000
0000
0010
0000
0000
0000
0000
1000
0000
0000
1000
0000
0000
0000
0000
,
0002
0000
0000
0000
0023
0000
0000
0000
0230
0000
0000
0000
0000
0000
0000
0000
1300
0000
0000
0000
1000
0000
0000
0000
0001
0000
0000
0001
0000
0000
0000
0000
,
0100
0000
0000
0100
0000
0000
0000
0000
0010
0000
0000
0000
0000
0000
0000
0000
0010
0000
0000
0000
1000
0000
0000
0000
0000
0000
0000
0000
1000
0000
0000
0000
,
0100
0000
0010
0001
0000
0100
0001
0010
,
0100
0000
0000
0000
0120
0000
0000
0000
0031
0000
1000
0000
0010
0000
1000
0001
,
1000
0000
0000
0000
0100
0000
0000
0000
1000
0000
0000
0000
0010
0000
0000
0000
0100
0000
0000
0100
0000
0000
0000
0000
0001
0000
0000
0001
0000
0000
0000
0000
,
0010
0000
0100
0000
0010
0000
0000
0000
0110
0000
0000
0000
1000
0000
0000
0000
0001
0000
0000
0000
0100
0000
0000
0100
0000
0000
0000
0000
0010
0000
0000
0010
,
0000
1000
0000
0100
0110
0000
0001
0000
,
0101
0000
0110
0000
1000
0001
0010
0000
,
0210
0000
2300
0000
,
3002
0000
0023
0032
,
2003
0000
3020
0000
,
0230
0000
0302
2003
,
3100
0110
0010
0110
,
1000
1001
0001
1001
,
1000
0010
1000
0000
0001
0100
0001
0000
,
0020
0030
0000
0200
0000
0300
1001
0000
1000
0000
0100
0000
0010
0000
0000
0000
,
0001
0100
0010
0000
1000
0001
0010
0000
,
0100
0100
1000
0000
0001
1000
0010
0000
,
1000
0001
0010
0000
0001
0100
0010
0000
,
1000
1000
0001
0000
0010
0001
0100
0000
,
0010
1000
0001
0000
0010
0100
1000
0000
,
0001
0001
0100
0000
0010
1000
0001
0000
,
0010
0100
1000
0000
0010
0100
0001
0000
,
1000
1000
0100
0000
0010
0001
1000
0000
,
0010
0100
0001
0000
1000
0100
0001
0000
,
0100
0100
1000
0000
0001
0010
0100
0000
,
0001
0100
1000
0000
0001
0100
0010
0000
,
1000
1000
0100
0000
1000
0001
0100
0000
,
0001
0010
1000
0000
0010
0001
0100
0000
,
0010
0010
1000
0000
0001
0010
0100
0000
,
1000
0001
0100
0000
1000
0100
0001
0000
,
1000
0010
0020
0000
1030
0100
0001
0100
,
1000
0001
0011
0011
,
1100
0000
1100
0000
0001
0100
1000
0100
,
0001
1000
1010
1010
,
0101
0000
0101
0000
1000
0100
1000
0010
,
0001
0010
1010
1010
,
0101
0000
0101
0000
0001
0100
0001
0010
,
1000
0010
0011
0011
,
1000
0001
0100
0000
0010
1000
0100
0000
,
0001
0100
1000
0000
0001
0010
0100
0000
,
0110
0000
1001
0000
0001
0100
1000
0000
,
0100
0001
1000
0000
0001
0010
1000
0000
,
0010
0000
0110
0000
0200
1000
0000
2300
,
0000
0010
0000
3020
0000
0100
0000
0230
,
0000
0001
0000
0302
0000
0013
0001
0020
,
0000
0130
0010
0100
2000
0000
0000
3002
,
0000
0203
0300
0000
;

//--------------- dance-single - forcednature ----------------
#NOTEDATA:;
#STEPSTYPE:dance-single;
#DESCRIPTION:forcednature;
#DIFFICULTY:Hard;
#METER:15;
#RADARVALUES:0,0,0,0,0;
#CREDIT:forcednature;
#NOTES:
0000
0000
0000
0000
,
0000
0000
0000
0000
,
0000
0000
0000
0000
,
0000
0000
0000
0000
,
0000
0000
0000
0000
,
0000
0000
0000
0000
,
2002
0000
3003
0000
0000
0000
0000
2200
,
0000
3300
0000
0022
0000
0033
0000
0202
,
0000
0003
0000
0000
0020
0000
0000
0000
0000
0000
0000
0000
0000
0000
0000
0000
,
0330
0000
0000
0000
0000
0000
0000
0000
1002
0000
0000
0000
0000
0000
0000
0000
0013
0000
0000
0010
0000
0000
0001
0000
1000
0000
0000
0000
0100
1000
0100
1000
,
0100
0000
0000
0000
0010
0000
0001
0000
2000
0000
0000
0000
0000
0000
0000
0000
3010
0000
0000
0100
0000
0000
0001
0000
0020
0000
0100
0000
0230
0000
1000
0000
,
2300
0000
0001
0000
3002
0000
0100
0000
0203
0000
0000
0000
0000
0000
0000
0000
0310
0000
0000
0010
0000
0000
1000
0000
0001
0000
0000
0010
0000
0000
0100
0000
,
1000
0000
0000
0010
0000
0000
0100
0000
0102
0000
0000
0000
0000
0000
0000
0000
0013
0000
0000
0000
1000
0000
0000
0000
0010
0000
0000
0000
0001
0000
0000
0000
,
2000
0000
0000
0000
3010
0000
0001
0000
0010
0000
1000
0000
0001
0100
0000
0001
,
0000
0000
1000
0000
0000
0000
0000
0000
1020
0000
0000
0000
0000
0000
0000
0000
0130
0000
0000
0100
0000
0000
0001
0000
0010
0000
0000
0000
0001
1000
0001
1000
,
0001
0000
0000
0000
0100
0000
0010
0000
2000
0000
0000
0000
0000
0000
0000
0000
3001
0000
0000
0010
0000
0000
0100
0000
1000
0000
0000
0010
0000
0000
0100
0000
,
0001
0000
0000
0000
0010
0000
0000
0000
0001
0000
0000
0000
0010
0000
0000
0000
0100
0000
0000
0000
2000
0000
0000
0000
0000
0000
0000
0000
0000
0000
0000
0000
0000
0000
0000
0000
3010
0000
0000
0000
0000
0000
0000
0000
0000
0000
0000
0000
1000
0000
0000
0000
0000
0000
0000
0000
0000
1000
0000
0000
0000
0000
0000
0000
0000
0000
0001
0000
0000
0000
0000
0000
0100
0000
0000
0000
0000
0000
0000
0000
0000
0010
0000
0000
0000
0000
0000
0000
0000
0000
0010
0000
0000
0000
0000
0000
,
1000
0000
0000
0001
0000
0000
0010
0000
0002
0000
0000
0000
0000
0000
0000
0000
1003
0000
0000
0000
1100
0000
0000
0000
0000
0000
0000
0000
0000
0000
0000
0000
,
2000
0000
0000
0000
3001
0000
0101
0000
0000
0000
0010
0000
0110
0000
0000
0100
,
0000
0000
0000
0000
0001
0000
0000
0000
2000
0000
0000
0000
0000
0000
0000
0000
3100
0000
0000
0100
0000
0000
0010
0000
0001
0000
0000
0000
1000
0010
1000
0010
,
1000
0000
0000
0000
0001
0000
0000
0000
0020
0000
0000
0000
0000
0000
0000
0000
0130
0000
0000
0100
0000
0000
1000
0000
0001
0000
0000
0001
0000
0000
0100
0000
,
0020
0000
1000
0000
2030
0000
0001
0000
3001
0000
0000
0000
0001
0000
0100
0000
0010
0000
0000
0010
0000
0000
1000
0000
0001
0000
0000
0010
0000
0000
0100
0000
,
1000
0000
0000
0001
0000
0000
0100
0000
0020
0000
0000
0000
0000
0000
0000
0000
1030
0000
0000
0000
1001
0000
0000
0000
0000
0000
0000
0000
0001
0000
0000
0000
,
0020
0000
0000
0000
0031
0000
1001
0000
0000
0000
1000
0000
0010
0100
0000
0010
,
0000
0000
0100
0000
0000
0000
0000
0000
1002
0000
0000
0000
0000
0000
0000
0000
0013
0000
0000
0100
0000
0000
1000
0000
0100
0000
0000
0000
1000
0001
1000
0001
,
1000
0000
0000
0000
0010
0000
0100
0000
0001
0000
0000
0000
0010
0000
0100
0000
1000
0000
0000
0001
0000
0000
0100
0000
0001
0000
0000
1000
0000
0000
0100
0000
,
0010
0000
0000
0000
0000
0000
0000
0000
0000
0001
0000
0000
0010
0000
0000
0000
0000
0000
0000
0000
0000
0100
0000
0000
2000
0000
0000
3000
0000
0000
0000
0000
0000
0000
0000
0000
0001
0000
0000
0000
0000
0000
0000
0000
0000
0001
0000
0000
0000
0000
0000
0000
0000
0000
0001
0000
0000
0000
0000
0000
0100
0000
0000
0000
0000
0000
0000
0000
0000
0010
0000
0000
0000
0000
0000
0000
0000
0000
1000
0000
0000
0000
0000
0000
0100
0000
0000
0000
0000
0000
0000
0000
0010
0000
0000
0000
,
0001
0000
0000
0000
0001
0000
2000
0000
0000
0000
0000
0000
0000
0000
0000
0000
0000
0000
3010
0000
0000
0000
0000
0000
0220
0000
0000
0330
0000
0000
0000
0000
0000
0000
0000
0000
0101
0000
0000
0000
0000
0000
0000
0000
0000
0000
0000
0000
,
0011
0000
0000
0000
0110
0000
0000
0000
0001
1000
0000
0010
1000
0010
1000
0000
,
0200
0000
0000
0000
0000
0000
0000
2000
,
0000
0300
0000
0002
0000
0000
0000
3000
,
0200
0000
0000
0000
0000
0003
0000
0020
,
0000
0300
0000
2000
0000
0000
3030
0000
,
1100
1100
1010
1010
,
0101
0101
0011
1001
,
1000
0100
1000
0000
0100
0010
0100
0000
0010
0001
0010
0000
0001
1000
0001
0000
,
0200
0300
0000
0020
0000
0030
1001
0000
1000
0000
0100
0000
0001
0000
0100
0000
,
1000
0000
0001
0000
0010
0000
0001
0000
1000
0010
1000
0000
0001
0100
0001
0000
,
1000
0010
0100
0000
0001
0010
1000
0010
,
0001
0000
0100
0000
1000
0000
0100
0000
0001
0010
0001
0000
1000
0100
1000
0000
,
0001
0100
1000
0000
0100
0001
0010
0001
,
1000
0000
0010
0000
1000
0000
0100
0000
0010
0001
0010
0000
0001
0100
0001
0000
,
1000
0010
0001
0000
0010
1000
0100
0001
,
0100
0000
1000
0000
0001
0000
0010
0000
0001
0100
0001
0000
1000
0010
0000
1000
,
0000
0001
0010
0000
0110
0000
0000
0000
0100
1000
0100
0000
0010
0000
0001
0000
,
1000
0010
1000
0000
0001
0000
0100
0000
0001
0010
0001
0000
1000
0100
1000
0000
,
0010
0000
0100
0000
0001
0000
0010
0000
0100
1000
0100
0000
0010
0000
0001
0000
,
1000
0010
1000
0000
0001
0000
0100
0000
0010
1000
0010
0000
0100
0001
0100
0000
,
0001
0000
0010
0000
0001
0000
0000
0000
1000
0010
1000
0000
0001
0000
0100
0000
,
0001
0010
0001
0000
1000
0000
0100
0000
0010
0100
0010
0000
0001
0000
1000
0000
,
0010
0000
0100
0000
0001
0000
0000
0000
1000
0100
1000
0000
0001
0000
0010
0000
,
0001
0100
0001
0000
1000
0000
0010
1000
0000
0010
0100
0000
0001
0000
0010
0001
,
0000
0010
0100
0000
2000
0000
0000
0000
3001
0100
0001
0100
0001
0000
1000
0000
,
0010
0000
0100
0000
0001
0000
0010
0000
0110
0000
0000
0100
1000
0000
0010
0000
,
0110
0000
0000
0100
0001
0000
0000
0000
1000
0100
1000
0100
1000
0000
0001
0000
,
0010
0000
0100
0000
1000
0000
0010
0000
0110
0000
0000
0100
0001
0000
0010
0000
,
0110
0000
0000
0100
1000
0000
0000
0000
0001
0010
0001
0010
0001
0000
1000
0000
,
0100
0000
0010
0000
0001
0000
0100
0000
1010
0000
0000
0001
1000
0000
0100
0000
,
0011
0000
0000
1000
0001
0000
0000
0000
1000
0010
1000
0010
1000
0000
0001
0000
,
0100
0000
0010
0000
1000
0000
0100
0000
0010
0000
0001
0010
0001
0000
0100
0001
,
0200
0000
0000
0000
0300
0000
0000
0000
0001
1000
0001
1000
0001
0000
0100
0000
,
0010
1000
0001
1000
0010
0000
0100
0000
0001
0000
1000
0000
0010
0000
0100
0000
,
0110
0000
0000
0000
1001
0000
0000
0000
1000
0001
1000
0001
1000
0000
0100
0000
,
0010
0001
1000
0001
0010
0000
0100
0000
1000
0000
0001
0000
0100
0000
0010
0000
,
0110
0000
1001
0000
2000
0100
0000
0100
,
0000
0001
0000
0001
0000
0010
0000
0010
,
0000
0000
0001
0000
0000
0000
3001
0000
0000
1000
0010
1000
0000
0010
0100
0010
,
0000
0100
0001
0100
0000
0001
1000
0001
2000
0000
0000
3200
0000
0000
0320
0000
,
0000
0031
2002
0000
3003
0000
0000
0000
;

//--------------- dance-double - forcednature ----------------
#NOTEDATA:;
#STEPSTYPE:dance-double;
#DESCRIPTION:forcednature;
#DIFFICULTY:Easy;
#METER:7;
#RADARVALUES:0,0,0,0,0;
#CREDIT:forcednature;
#NOTES:
00000000
00000000
00000000
00000000
,
00000000
00000000
00000000
00000000
,
00000000
00000000
00000000
00000000
,
00000000
00000000
00000000
00000000
,
00000000
00000000
00000000
00000000
,
00000000
00000000
00000000
00000000
,
00010000
00000000
00000000
00000000
00000000
00000000
00000000
00001000
,
00000000
00000000
00000000
00010000
00000000
00000000
00000000
00022000
,
00000000
00000000
00000000
00000000
,
00033000
00000000
01000000
00000000
00010000
00000000
00100000
00100000
,
00100000
01000000
10000000
00010000
,
10000000
00000000
01000000
00000000
00100000
00000000
00010000
00010000
,
00010000
00000000
01000000
00000000
00000000
01000000
00000000
00000000
,
00010000
00000000
00000000
00010000
00000000
00000000
00100000
00000000
,
00000000
00000000
00011000
00000000
00010000
00000000
00000100
00000100
,
00000100
00001000
00000010
00000100
,
00000001
00000001
00000001
00000000
00000010
00000000
00000100
00000000
,
00001000
00000000
00000010
00000000
00000000
00000010
00000000
00000000
,
00001000
00000000
00000000
00001000
00000000
00000000
00000100
00000000
,
00000000
00000000
00011000
00000000
01000000
01000000
01000000
00000000
,
00010000
00000000
00100000
00100000
00100000
00000000
01000000
00000000
,
10000000
10000000
10000000
00000000
00010000
00000000
01000000
00000000
,
00010000
00000000
00100000
00000000
00000000
00100000
00000000
00000000
,
00010000
00000000
00000000
00010000
00000000
00000000
01000000
00000000
,
00000000
00000000
00011000
00000000
00000100
00000000
00001000
00001000
,
00001000
00000000
00000010
00000000
00000100
00000100
00000100
00000000
,
00000001
00000000
00001010
00000001
00000000
00000010
00000010
00000010
,
00000000
00000100
00000000
00000000
00000100
00000000
00001000
00000000
,
00001000
00000010
00010000
00000000
,
00002000
00000000
00000000
00000000
,
00023000
00000000
00032000
00000000
,
00203000
00000000
00000000
00000000
,
00320000
00000000
00230000
00000000
,
01300000
01000000
10000000
10000000
,
01000000
00100000
00010000
00000000
,
01000000
01000000
00010000
00010000
,
00200000
00300000
00000000
00002000
00000000
00000000
00003000
00000000
00010000
00000000
00000000
00000000
00000100
00000000
00000000
00000000
,
00001000
00000010
00010000
00000100
,
00001000
00001000
00000001
00000100
,
00000001
00000010
00000100
00001000
,
00000100
00000100
00010000
00001000
,
00100000
00010000
10000000
00100000
,
10000000
10000000
01000000
00100000
,
00010000
00100000
00001000
00010000
,
00000100
00000100
00001000
00000010
,
00000100
00000001
00000010
00000100
,
00001000
00001000
00000010
00001000
,
00000010
00010000
00001000
00100000
,
00010000
00010000
01000000
00100000
,
10000000
01000000
00100000
00010000
,
01000000
01000000
00010000
00100000
,
00001000
00010000
00000010
00001000
,
00002002
00003003
00000001
00000010
,
00000100
00001000
00000100
00010000
,
00001000
00100000
00010000
01000000
,
00010000
10000000
00100000
10000000
,
00010000
00100000
01000000
10000000
,
01000000
00010000
00001000
00100000
,
00001000
00010000
00000010
00001000
,
00000010
00000100
00000001
00000001
,
00000002
00000003
00001000
00000100
,
00010000
00000100
00001000
00001000
,
00000010
00010000
00001000
01000000
,
00010000
01000000
00001000
00001000
,
00100000
00010000
20000000
00000000
,
00100000
00000000
00010000
00000000
,
01000000
30000000
10000000
10000000
,
00010000
00000000
00010000
00000000
00200000
00000000
00000000
00302000
,
00000000
00023000
00030000
00000000
;

//--------------- dance-double - forcednature ----------------
#NOTEDATA:;
#STEPSTYPE:dance-double;
#DESCRIPTION:forcednature;
#DIFFICULTY:Medium;
#METER:11;
#RADARVALUES:0,0,0,0,0;
#CREDIT:forcednature;
#NOTES:
00000000
00000000
00000000
00000000
,
00000000
00000000
00000000
00000000
,
00000000
00000000
00000000
00000000
,
00000000
00000000
00000000
00000000
,
00000000
00000000
00000000
00000000
,
00000000
00000000
00000000
00000000
,
00022000
00000000
00033000
00000000
00000000
00000000
00000000
02020000
,
00000000
03030000
00000000
20200000
00000000
30300000
00000000
22000000
,
00000000
30000000
00000000
00000000
00200000
00000000
00000000
00000000
00000000
00000000
00000000
00000000
00000000
00000000
00000000
00000000
,
03300000
00000000
20010000
00000000
30100000
10000000
01000000
00010000
,
00002000
00000000
00000000
00000000
00000000
00000000
00000000
00000000
00003020
00000000
00000000
00000000
00000000
00000000
00000000
00000000
00000130
00000000
00000000
00000100
00000000
00000000
00000000
00000000
00002000
00000000
00000000
00000000
00003002
00000000
00000000
00000000
,
00000203
00002300
00023000
00000000
00130000
00100000
01000000
00000000
,
00100000
10000000
00010000
00000000
00100000
01000000
00000000
10000000
,
01000000
00000000
00100000
00010000
00000000
00100000
00001000
00000000
,
00011000
00000000
00000200
00000000
00001300
00000001
00000010
00000000
,
00000001
00000000
00000000
00000000
00000100
00000000
00000000
00000000
00002000
00000000
00000000
00000000
00000000
00000000
00000000
00000000
00013000
00000000
00000000
00010000
00000000
00000000
00000000
00000000
00100000
00000000
00000000
00100000
00000000
00000000
00000000
00000000
,
20000000
00000000
30020000
00000000
00030000
00000000
00000000
00000000
00100000
00000000
00100000
00000000
01000000
00000000
00100000
00010000
,
00100000
00001000
00021000
00000000
00000000
00030010
00000000
00000000
,
00012000
00000000
00000000
00103000
00000000
00001000
00010000
00001000
,
00011000
00000000
00000200
00000000
00001300
00000001
00000010
00000000
,
00000001
00000000
00000000
00000000
00000100
00000000
00000000
00000000
00002000
00000000
00000000
00000000
00000000
00000000
00000000
00000000
00013000
00000000
00000000
00010000
00000000
00000000
00000000
00000000
00001000
00000000
00000000
00001000
00000000
00000000
00000000
00000000
,
00020000
00000000
00000000
00000000
00230000
00000000
00000000
00000000
20300000
00000000
00000000
00000000
00000000
00000000
00000000
00000000
31000000
00000000
00000000
00000000
00100000
00000000
00000000
00000000
00010000
00000000
00000000
00010000
00000000
00000000
00000000
00000000
,
01000000
00000000
00000000
01000000
00000000
00000000
00000000
00000000
00010000
00000000
00000000
00000000
00000000
00000000
00000000
00000000
00010000
00000000
00000000
00000000
00100000
00000000
00000000
00000000
00000000
00000000
00000000
00000000
00001000
00000000
00000000
00000000
,
00010000
00000000
00000010
00000100
00000000
00000001
00000010
00000100
,
00000010
00000000
00000000
00000000
00001200
00000000
00000000
00000000
00010300
00000000
00001000
00000000
00100000
00000000
00010000
10000000
,
00010000
00000000
00000000
00000000
01000000
00000000
00000000
00000000
10000000
00000000
00000000
00000000
01000000
00000000
00000000
00000000
00010000
00000000
00000000
00010000
00000000
00000000
00000000
00000000
00100000
00000000
00000000
00100000
00000000
00000000
00000000
00000000
,
00001000
00000000
00010000
00000000
00001000
00000000
00000000
00000000
00011000
00000000
00000000
00000000
00000100
00000000
00000000
00000000
00001000
00000000
00000000
00000000
00000010
00000000
00000000
00000010
00000000
00000000
00000000
00000000
00000100
00000000
00000000
00000100
,
00000000
00000001
00000000
00000010
00001000
00000000
00011000
00000000
,
01001000
00000000
01010000
00000000
00010000
10000000
00100000
00000000
,
20000000
00000000
32000000
00000000
,
03200000
00000000
00302000
00023000
,
00030200
00000000
00002300
00000000
,
00003002
00000000
00000023
00000032
,
00000103
00001000
00010000
00100000
,
10000000
01000000
00010000
00011000
,
00000100
00010000
00001000
00000000
01000000
00001000
00010000
00000000
,
00200000
00300000
00000000
02000000
00000000
03000000
10010000
00000000
10000000
00000000
01000000
00000000
00010000
00000000
00000000
00000000
,
00001000
00010000
01000000
00000000
00100000
00001000
00010000
00000000
,
00000100
00000000
00001000
00000000
00000001
00000100
00001000
00000000
,
00010000
00001000
00000100
00000000
00000010
00001000
00000001
00000000
,
00000010
00000000
00000100
00000000
00010000
00001000
00100000
00000000
,
00010000
01000000
10000000
00000000
01000000
00010000
10000000
00000000
,
01000000
00000000
00010000
00000000
00001000
00100000
00010000
00000000
,
00100000
00001000
00010000
00000000
00000010
00001000
00000100
00000000
,
00000010
00000010
00000010
00000000
00000001
00000100
00001000
00000000
,
00000100
00001000
00010000
00000000
00001000
00010000
00100000
00000000
,
10000000
00000000
00010000
00000000
10000000
01000000
00010000
00000000
,
01000000
00010000
00001000
00000000
00010000
00001000
00000010
00000000
,
00000001
00000000
00001000
00000000
00000001
00000100
00001000
00000000
,
00010000
00001000
00000100
00000000
00001000
00010000
00100000
00000000
,
10000000
10000000
00010000
00000000
10000000
01000000
00010000
00000000
,
00001000
00010000
01000000
00000000
00010000
00001000
00000010
00000000
,
00000001
00000000
00002000
00000000
00003001
00000010
00000100
00010000
,
00001000
00100000
00110000
00110000
,
11000000
00000000
11000000
00000000
10000000
00100000
01000000
00001000
,
00010000
00000010
00000101
00000101
,
00000011
00000000
00000011
00000000
00000010
00000100
00010000
00001000
,
00100000
00010000
10010000
10010000
,
01100000
00000000
01100000
00000000
00010000
10000000
00100000
01000000
,
00010000
00100000
00110000
00101000
,
00001000
00010000
00000100
00000000
00001000
00000010
00000100
00000000
,
00001000
00000100
00000001
00000000
00000100
00001000
00010000
00000000
,
00011000
00000000
00101000
00000000
00100000
00010000
01000000
00000000
,
00100000
10000000
01000000
00000000
00010000
00001000
00100000
00000000
,
00001000
00000000
00011000
00000000
00010000
00001000
00000000
00001000
,
00000000
01000000
00000000
01000000
00000000
00010000
00000000
00010000
,
00000000
00100000
00000000
00100000
00000000
01000000
10000000
01000000
,
00000000
00010000
01000000
00000000
00020000
00000000
00000000
00032000
,
00000000
00003020
00000030
00000000
;

//--------------- dance-double - forcednature ----------------
#NOTEDATA:;
#STEPSTYPE:dance-double;
#DESCRIPTION:forcednature;
#DIFFICULTY:Hard;
#METER:15;
#RADARVALUES:0,0,0,0,0;
#CREDIT:forcednature;
#NOTES:
00000000
00000000
00000000
00000000
,
00000000
00000000
00000000
00000000
,
00000000
00000000
00000000
00000000
,
00000000
00000000
00000000
00000000
,
00000000
00000000
00000000
00000000
,
00000000
00000000
00000000
00000000
,
00022000
00000000
00033000
00000000
00000000
00000000
00000000
00002200
,
00000000
00003300
00000000
00000022
00000000
00000033
00000000
00000202
,
00000000
00000003
00000000
00000000
00002000
00000000
00000000
00000000
00000000
00000000
00000000
00000000
00000000
00000000
00000000
00000000
,
00003300
00000000
00000000
00000000
00000000
00000000
00000000
00000000
00021000
00000000
00000000
00000000
00000000
00000000
00000000
00000000
00130000
00000000
00000000
00100000
00000000
00000000
10000000
00000000
00010000
00000000
00000000
00000000
10000000
01000000
10000000
01000000
,
10000000
00000000
00000000
00000000
00010000
00000000
00100000
00000000
00002000
00000000
00000000
00000000
00000000
00000000
00000000
00000000
00013000
00000000
00000000
00000010
00000000
00000000
00001000
00000000
00000002
00000000
00000010
00000000
00000023
00000000
00000100
00000000
,
00000230
00000000
00001000
00000000
00002300
00000000
00000001
00000000
00003002
00000000
00000000
00000000
00000000
00000000
00000000
00000000
00000103
00000000
00000000
00000100
00000000
00000000
00001000
00000000
00010000
00000000
00000000
00001000
00000000
00000000
00010000
00000000
,
00100000
00000000
00000000
10000000
00000000
00000000
00010000
00000000
20000000
00000000
00000000
00000000
00000000
00000000
00000000
00000000
31000000
00000000
00000000
00000000
00100000
00000000
00000000
00000000
01000000
00000000
00000000
00000000
00010000
00000000
00000000
00000000
,
00002000
00000000
00000000
00000000
00003010
00000000
00000100
00000000
00000010
00000000
00000001
00000000
00001000
00000001
00000000
00000100
,
00000000
00000000
00000010
00000000
00000000
00000000
00000000
00000000
00000210
00000000
00000000
00000000
00000000
00000000
00000000
00000000
00000301
00000000
00000000
00000001
00000000
00000000
00001000
00000000
00000010
00000000
00000000
00000000
00010000
00001000
00010000
00001000
,
00010000
00000000
00000000
00000000
00001000
00000000
00100000
00000000
00020000
00000000
00000000
00000000
00000000
00000000
00000000
00000000
10030000
00000000
00000000
01000000
00000000
00000000
00010000
00000000
00001000
00000000
00000000
00010000
00000000
00000000
01000000
00000000
,
00010000
00000000
00000000
00000000
00001000
00000000
00000000
00000000
00010000
00000000
00000000
00000000
00000100
00000000
00000000
00000000
00001000
00000000
00000000
00000000
00000020
00000000
00000000
00000000
00000000
00000000
00000000
00000000
00000000
00000000
00000000
00000000
00000000
00000000
00000000
00000000
00000130
00000000
00000000
00000000
00000000
00000000
00000000
00000000
00000000
00000000
00000000
00000000
00000001
00000000
00000000
00000000
00000000
00000000
00000000
00000000
00000000
00000001
00000000
00000000
00000000
00000000
00000000
00000000
00000000
00000000
00000100
00000000
00000000
00000000
00000000
00000000
00000010
00000000
00000000
00000000
00000000
00000000
00000000
00000000
00000000
00001000
00000000
00000000
00000000
00000000
00000000
00000000
00000000
00000000
00000100
00000000
00000000
00000000
00000000
00000000
,
00010000
00000000
00000000
00001000
00000000
00000000
00100000
00000000
00020000
00000000
00000000
00000000
00000000
00000000
00000000
00000000
10030000
00000000
00000000
00000000
11000000
00000000
00000000
00000000
00000000
00000000
00000000
00000000
00000000
00000000
00000000
00000000
,
20000000
00000000
00000000
00000000
30010000
00000000
01010000
00000000
00000000
00000000
00100000
00000000
00001000
00000000
00000000
00010000
,
00000000
00000000
00000000
00000000
00001000
00000000
00000000
00000000
00000020
00000000
00000000
00000000
00000000
00000000
00000000
00000000
00000130
00000000
00000000
00000100
00000000
00000000
00001000
00000000
00000001
00000000
00000000
00000000
00000010
00000100
00000010
00000100
,
00000010
00000000
00000000
00000000
00000001
00000000
00000100
00000000
00002000
00000000
00000000
00000000
00000000
00000000
00000000
00000000
00013000
00000000
00000000
00010000
00000000
00000000
00100000
00000000
10000000
00000000
00000000
10000000
00000000
00000000
00100000
00000000
,
02000000
00000000
00010000
00000000
03020000
00000000
00100000
00000000
00130000
00000000
00000000
00000000
00001000
00000000
00010000
00000000
00000100
00000000
00000000
00000100
00000000
00000000
00001000
00000000
00000010
00000000
00000000
00000100
00000000
00000000
00000001
00000000
,
00000010
00000000
00000000
00001000
00000000
00000000
00010000
00000000
00002000
00000000
00000000
00000000
00000000
00000000
00000000
00000000
00013000
00000000
00000000
00000000
00011000
00000000
00000000
00000000
00000000
00000000
00000000
00000000
00100000
00000000
00000000
00000000
,
00020000
00000000
00000000
00000000
01030000
00000000
10010000
00000000
00000000
00000000
10000000
00000000
00100000
01000000
00000000
00010000
,
00000000
00000000
00100000
00000000
00000000
00000000
00000000
00000000
20010000
00000000
00000000
00000000
00000000
00000000
00000000
00000000
31000000
00000000
00000000
00010000
00000000
00000000
00001000
00000000
00010000
00000000
00000000
00000000
00001000
00010000
00001000
00010000
,
00001000
00000000
00000000
00000000
00000010
00000000
00000100
00000000
00010000
00000000
00000000
00000000
00001000
00000000
00100000
00000000
01000000
00000000
00000000
00010000
00000000
00000000
00001000
00000000
00000100
00000000
00000000
00001000
00000000
00000000
00010000
00000000
,
00100000
00000000
00000000
00000000
00000000
00000000
00000000
00000000
00000000
01000000
00000000
00000000
00100000
00000000
00000000
00000000
00000000
00000000
00000000
00000000
00000000
10000000
00000000
00000000
02000000
00000000
00000000
03000000
00000000
00000000
00000000
00000000
00000000
00000000
00000000
00000000
00100000
00000000
00000000
00000000
00000000
00000000
00000000
00000000
00000000
00100000
00000000
00000000
00000000
00000000
00000000
00000000
00000000
00000000
00100000
00000000
00000000
00000000
00000000
00000000
00001000
00000000
00000000
00000000
00000000
00000000
00000000
00000000
00000000
00010000
00000000
00000000
00000000
00000000
00000000
00000000
00000000
00000000
00000100
00000000
00000000
00000000
00000000
00000000
00001000
00000000
00000000
00000000
00000000
00000000
00000000
00000000
00000010
00000000
00000000
00000000
,
00000100
00000000
00000000
00000000
00000100
00000000
00000002
00000000
00000000
00000000
00000000
00000000
00000000
00000000
00000000
00000000
00000000
00000000
00000013
00000000
00000000
00000000
00000000
00000000
00000220
00000000
00000000
00000330
00000000
00000000
00000000
00000000
00000000
00000000
00000000
00000000
00010100
00000000
00000000
00000000
00000000
00000000
00000000
00000000
00000000
00000000
00000000
00000000
,
00011000
00000000
00000000
00000000
00101000
00000000
00000000
00000000
10000000
00010000
00000000
10000000
00010000
10000000
00010000
00000000
,
02000000
00000000
00000000
00000000
00000000
00000000
00000000
00002000
,
00000000
03000000
00000000
00020000
00000000
00000000
00003000
00000000
,
00000200
00000000
00000000
00000000
00000000
00030000
00000000
00002000
,
00000000
00000300
00000000
00000002
00000000
00000000
00003003
00000000
,
00000011
00000011
00001001
00001001
,
00000110
00011000
01100000
10010000
,
10000000
01000000
00100000
00010000
00001000
00000100
00000010
00000001
,
00000200
00000300
00000000
00000020
00000000
00000030
00001001
00000000
00000001
00000000
00000100
00000000
00001000
00000000
00010000
00000000
,
00000010
00000000
00001000
00000000
00010000
00000000
01000000
00000000
00100000
01000000
00100000
00000000
10000000
00100000
10000000
00000000
,
00010000
00000000
00110000
00000000
10000000
01000000
00010000
00001000
,
00100000
00000000
00010000
00000000
00001000
00000000
00000100
00000000
00000010
00000100
00000010
00000000
00000001
00000010
00000001
00000000
,
00001000
00000000
00000000
00001000
00000010
00000000
00000000
00000100
00000001
00000000
00000100
00000000
00001000
00000000
00010000
00000000
,
00000010
00000000
00001000
00000000
00010000
00000000
01000000
00000000
00100000
01000000
00100000
00000000
10000000
00100000
10000000
00000000
,
00010000
00000000
00110000
00000000
10000000
01000000
00010000
00001000
,
00100000
00000000
00010000
00000000
00001000
00000000
00000100
00000000
00000010
00000100
00000010
00000000
00000001
00000000
00000010
00000001
,
00000000
00000100
00000001
00000000
00002000
00000000
00000000
00000000
00003001
00000100
00000001
00000000
00000100
00000000
00001000
00000000
,
00010000
00001000
00010000
00000000
00001000
00000000
00010000
00000000
00100000
10000000
00100000
00000000
10000000
01000000
10000000
00000000
,
00010000
00000000
00100000
00000000
00110000
00000000
00000000
00000000
10000000
01000000
10000000
00000000
01000000
00000000
00010000
00000000
,
00001000
00010000
00001000
00000000
00010000
00000000
00001000
00000000
00000010
00000001
00000010
00000000
00000001
00000100
00000001
00000000
,
00001000
00000000
00000010
00000000
00001010
00000000
00000000
00000000
00000001
00000010
00000001
00000000
00000100
00000000
00001000
00000000
,
00010000
00001000
00010000
00000000
00001000
00000000
00010000
00000000
01000000
10000000
01000000
00000000
10000000
00100000
10000000
00000000
,
00010000
00000000
01000000
00000000
01010000
00000000
00000000
00000000
10000000
00100000
10000000
00000000
00100000
00000000
00010000
00000000
,
00001000
00010000
00001000
00000000
00010000
00000000
00001000
00010000
00000000
00000100
00001000
00000000
00000010
00000000
00000100
00000010
,
00000000
00000100
00000001
00000000
00000020
00000000
00000000
00000000
00000031
00000100
00000001
00000100
00000001
00000000
00000010
00000000
,
00001000
00000000
00010000
00000000
01000000
00000000
10000000
00000000
00100000
00000000
00000000
01000000
00010000
00000000
00100000
00000000
,
01000000
00000000
00000000
10000000
00100000
00000000
00000000
00000000
10000000
01000000
10000000
01000000
10000000
00000000
00100000
00000000
,
00010000
00000000
00001000
00000000
00000100
00000000
00000001
00000000
00000010
00000000
00000000
00000100
00001000
00000000
00000010
00000000
,
00000100
00000000
00000000
00000001
00000010
00000000
00000000
00000000
00000001
00001000
00000001
00001000
00000001
00000000
00000100
00000000
,
00001000
00000000
00010000
00000000
00100000
00000000
10000000
00000000
01000000
00000000
00000000
00010000
00001000
00000000
00010000
00000000
,
01000000
00000000
00000000
10000000
00100000
00000000
00000000
00000000
10000000
00010000
10000000
00010000
10000000
00000000
01000000
00000000
,
00010000
00000000
00001000
00000000
00000010
00000000
00000001
00000000
00000100
00000000
00000000
00001000
00010000
00000000
00001000
00000000
,
00000200
00000000
00000000
00000000
00000300
00000000
00000000
00000000
00000001
00000100
00000010
00000100
00000001
00000000
00001000
00000000
,
00000010
00001000
00000001
00001000
00000010
00000000
00000100
00000000
00001000
00000000
00010000
00000000
01000000
00000000
00100000
00000000
,
01100000
00000000
00000000
00000000
10010000
00000000
00000000
00000000
10000000
01000000
00100000
01000000
10000000
00000000
00010000
00000000
,
00100000
00010000
10000000
00010000
00100000
00000000
01000000
00000000
00010000
00000000
00001000
00000000
00000100
00000000
00000010
00000000
,
00000110
00000000
00001001
00000000
00002000
00000100
00000000
00000001
,
00000000
00000010
00000000
00023000
00000000
01000000
00000000
10000000
,
00000000
00000000
00100000
00000000
00000000
00000000
00032000
00000000
00003000
00000100
00001000
00000100
00000000
00000010
00000100
00000010
,
00000000
00000001
00000010
00000001
00000000
00001000
00000001
00000000
00000200
00000000
00000000
00002300
00000000
00000000
00023000
00000000
,
00000000
00130000
20000000
00000000
30000000
00000000
00000000
00000000
;
