#VERSION:0.83;
#TITLE:mosaic;
#SUBTITLE:;
#ARTIST:Auridy;
#TITLETRANSLIT:;
#SUBTITLETRANSLIT:;
#ARTISTTRANSLIT:;
#GENRE:TECHNO POP SPEED;
#CREDIT:;
#MUSIC:mosaic.ogg;
#BANNER:mosaic.png;
#BACKGROUND:mosaic-bg.png;
#CDTITLE:./CDTitles/bm IIDX 17 SIRIUS.png;
#SAMPLESTART:2.894;
#SAMPLELENGTH:15.000;
#SELECTABLE:YES;
#OFFSET:0.922;
#BPMS:0.000=188.000;
#STOPS:197.500=1.915;
#TIMESIGNATURES:196.000=2=4,
198.000=4=4
;
#BGCHANGES:0.000=mosaic.mp4=1.000=0=0=0=StretchNoLoop====,
99999.000=-nosongbg-=1.000=0=0=0=StretchNoLoop====
;
#FGCHANGES:;

//--------------- dance-single - forcednature ----------------
#NOTEDATA:;
#STEPSTYPE:dance-single;
#DESCRIPTION:forcednature;
#DIFFICULTY:Beginner;
#METER:2;
#RADARVALUES:0,0,0,0,0;
#CREDIT:forcednature;
#NOTES:
0000
0000
0000
0000
,
0000
0000
0000
0000
,
0000
0000
0000
0000
,
1000
0000
0000
0000
,
0001
0000
0000
0000
,
1000
0000
0000
0000
,
0000
0000
0000
0000
,
0001
0000
0000
0000
,
1000
0000
0000
0000
,
0001
0000
0000
0000
,
0000
0000
0000
0000
,
0010
0000
0000
0000
,
0100
0000
0000
0000
,
1000
0000
0000
0000
,
0000
0000
0000
0000
,
0010
0000
0000
0000
,
0100
0000
0000
0000
,
0001
0000
0000
0000
,
0000
0000
0000
0000
,
1000
0000
0000
0000
,
1000
0000
0000
0000
,
1000
0000
0000
0000
,
0100
0000
0000
0000
,
0010
0000
0000
0000
,
0010
0000
0000
0000
,
0010
0000
0000
0000
,
0001
0000
0000
0000
,
0100
0000
0000
0000
,
0100
0000
0000
0000
,
0010
0000
0000
0000
,
0100
0000
0000
0000
,
0001
0000
0000
0000
,
0001
0000
0000
0000
,
1000
0000
0000
0000
,
0000
0000
0000
0000
,
0001
0000
0000
0000
,
0001
0000
0000
0000
,
1000
0000
0000
0000
,
0010
0000
0000
0000
,
1000
0000
0000
0000
,
0100
0000
0000
0000
,
1000
0000
0000
0000
,
0010
0000
0000
0000
,
1000
0000
0000
0000
,
0100
0000
0000
0000
,
1000
0000
0000
0000
,
0010
0000
0000
0000
,
0100
0000
0000
0000
,
0001
0000
0000
0000
,
1000
0000
0000
0000
,
0000
0000
1001
0000
,
0000
0000
0001
0000
,
0000
0000
0010
0000
,
0000
0000
0000
0000
,
0000
0000
1001
0000
,
0000
0000
1000
0000
,
0000
0000
0010
0000
,
0000
0000
0000
0000
,
0000
0000
0110
0000
,
0000
0000
0100
0000
,
0000
0000
0001
0000
,
0000
0000
0010
0000
,
0000
0000
0110
0000
,
0000
0000
0100
0000
,
0000
0000
1000
0000
,
0000
0000
0010
0000
,
0000
0000
1001
0000
,
0000
0000
1000
0000
,
0000
0000
0100
0000
,
0000
0000
0010
0000
,
0000
0000
1001
0000
,
0000
0000
0001
0000
,
0000
0000
0100
0000
,
0000
0000
0000
0010
,
0000
0000
0000
1000
,
0000
0000
0001
0000
,
0010
0000
0000
0001
,
0000
1001
0000
0000
;

//--------------- dance-single - forcednature ----------------
#NOTEDATA:;
#STEPSTYPE:dance-single;
#DESCRIPTION:forcednature;
#DIFFICULTY:Easy;
#METER:7;
#RADARVALUES:0,0,0,0,0;
#CREDIT:forcednature;
#NOTES:
0000
0000
0000
0000
,
0000
0000
0000
0000
,
0000
0000
0000
0000
,
1000
0001
1000
0010
,
0100
0001
1000
0001
,
0010
0100
1000
0010
,
0100
0001
1000
0000
,
0001
1000
0001
0010
,
0100
1000
0010
0100
,
0010
1000
0100
0010
,
0001
0001
1000
0000
,
0010
0100
0001
0100
,
0010
1000
0000
0001
,
0010
0100
1000
0100
,
0010
0001
1000
0000
,
0001
0100
0010
0100
,
0001
1000
0000
0010
,
1000
1000
0001
0001
,
1000
0001
1000
0000
,
0001
0010
0100
0000
,
1000
0010
0100
0000
,
0001
0010
0100
0000
,
1000
0001
0100
0010
,
1000
0100
0010
0000
,
0001
0100
0010
0000
,
1000
0100
0010
0000
,
0001
0100
0010
1000
,
0001
0001
0000
0000
,
1000
1000
0000
0000
,
0010
0010
0000
0000
,
0100
0100
0000
0000
,
0001
0010
0100
0010
,
0001
0100
0010
0100
,
0001
0010
0100
0010
,
0001
1000
0100
0000
,
1000
0010
0100
0010
,
1000
0100
0010
0100
,
1000
0010
0000
0010
,
0000
0100
0100
0000
,
0001
0010
0100
0000
,
1000
0010
0100
0000
,
0001
0010
0100
0000
,
1000
0001
0100
0010
,
1000
0100
0010
0000
,
0001
0100
0010
0000
,
1000
0100
0010
0000
,
0001
1000
0010
0100
,
0001
1000
0100
0010
,
0001
0001
1000
1000
,
0010
0100
0000
0000
,
0000
0000
0001
1000
,
0001
0100
0010
1000
,
0001
0010
0100
0010
,
0001
1000
0010
0100
,
0010
0000
1000
0001
,
1000
0100
0010
0001
,
1000
0010
0100
0010
,
1000
0001
0010
0100
,
0010
0000
0001
1000
,
0100
1000
0001
0010
,
0000
0001
0100
0010
,
0100
0001
1000
0010
,
1000
0000
1000
0001
,
0100
0001
1000
0010
,
0000
0100
0001
0010
,
0100
0010
0001
1000
,
0001
0000
1000
0010
,
0100
0010
0100
0001
,
1000
0100
1000
0001
,
0010
0001
1000
0010
,
1000
0000
0001
0010
,
0100
0010
0100
1000
,
0001
0001
0100
0010
,
1000
0010
0000
0100
,
0100
0010
0000
0100
,
0100
0010
1000
0001
,
0010
0001
0000
0010
,
0010
0100
0000
0000
;

//--------------- dance-single - forcednature ----------------
#NOTEDATA:;
#STEPSTYPE:dance-single;
#DESCRIPTION:forcednature;
#DIFFICULTY:Medium;
#METER:11;
#RADARVALUES:0,0,0,0,0;
#CREDIT:forcednature;
#NOTES:
0000
0000
0000
0000
,
0000
0000
0000
0000
,
0000
0000
0000
0000
,
1000
0000
0001
0000
1000
0000
0010
0100
,
0000
0010
0000
0100
0010
0000
0100
0000
,
0001
0000
1000
0001
0000
1000
0000
0100
,
0000
0010
0000
0100
0010
0000
0000
0000
,
0001
0000
1000
0000
0001
0000
0010
0100
,
0000
0010
0000
0100
0010
0000
0100
0000
,
1000
0000
0001
1000
0000
0010
0000
0100
,
0000
0001
1000
0001
1000
0000
0000
0000
,
0001
0010
0001
0000
0010
0100
0010
0000
,
0100
1000
0100
0000
1000
0000
0010
0000
,
0110
0100
0001
0010
,
0001
1000
0001
0000
0100
0000
0000
0000
,
0001
0100
0001
0000
0100
0010
0100
0000
,
0010
1000
0010
0000
1000
0000
0100
0000
,
0110
0000
0010
0001
0000
0100
0001
0100
,
0000
0010
0000
0010
1000
0000
0000
0000
,
2000
0000
3100
0000
0010
0001
1000
0000
,
0002
0000
0103
0000
0010
1000
0001
0000
,
2000
0000
3100
0000
0010
0001
1000
0000
,
0010
0100
0010
0000
0100
0001
0100
0000
,
0002
0000
0013
0000
0100
1000
0001
0000
,
2000
0000
3010
0000
0100
0001
1000
0000
,
0002
0000
0013
0000
0100
1000
0001
0000
,
2000
3020
0230
0302
,
1003
0100
1000
0001
0000
0000
0000
0000
,
0001
0100
0001
1000
0000
0000
0000
0000
,
1000
0100
0010
0001
0000
0000
0000
0000
,
0001
0100
0010
1000
0000
0000
0000
0000
,
2000
0000
3100
0010
0001
0000
0100
0000
,
0020
0000
1030
0001
0010
0000
0100
0000
,
2000
0000
3001
0100
0010
0000
1000
0000
,
0100
0110
0010
0110
,
0200
0000
1300
0001
0100
0000
0010
0000
,
2000
0000
3001
0010
0100
0000
1000
0000
,
0010
0000
0010
0100
0000
0001
0100
0001
,
0000
1000
0001
1000
0001
0000
1001
0000
,
2000
0000
3200
0000
0320
0000
0031
1000
,
0002
0000
0203
0000
0320
0000
1030
0001
,
2000
0000
3200
0000
0320
0000
0031
1000
,
0002
0203
0320
2030
,
3002
0000
0023
0000
0230
0000
1300
0001
,
2000
0000
3020
0000
0230
0000
0301
1000
,
0002
0000
0023
0000
0230
0000
1300
0001
,
2000
3020
0230
0302
,
2003
3200
0320
0032
,
1003
0010
0100
0000
0001
0010
0100
0000
,
1000
0001
1000
0001
0000
0000
0000
0000
,
0000
0000
1001
0110
,
1001
0000
0001
0100
0000
0001
0000
1000
,
0010
0000
1000
0000
1001
0000
0001
0010
,
0000
0100
0010
0100
0000
1000
0000
0100
,
1000
0000
1001
0110
,
1001
0000
1000
0100
0000
1000
0000
0001
,
0010
0000
0001
0000
1001
0000
1000
0010
,
0000
0100
0010
0100
0000
0001
0000
0100
,
0001
0000
0000
0000
1000
0100
1000
0000
,
0100
0010
0100
0000
0010
0001
0010
0001
,
0000
1000
0100
0000
1000
0000
0010
1000
,
0000
0010
0000
0100
0000
0010
0100
0001
,
0100
0000
0000
0000
0001
0010
0001
0000
,
0010
0100
0010
0000
0100
1000
0100
1000
,
0000
0001
0010
0000
0001
0000
0100
0001
,
0000
0100
0000
0010
0000
1000
0001
1000
,
0001
0000
1001
0000
1000
0100
1000
0000
,
0001
0100
0001
0000
0010
0100
1000
0100
,
0000
0010
0001
0000
1000
0000
0010
0100
,
0000
0010
0000
1000
0000
0001
0100
0010
,
0100
0000
0000
0000
0001
0010
0100
0000
,
0010
0100
1000
0000
0100
1000
0001
0010
,
0000
0001
1000
0000
1001
0000
1000
0010
,
0000
0100
0010
0100
0000
0001
0010
0001
,
0010
0000
0110
0000
0000
1000
0010
1000
,
0010
0000
0110
0000
0001
1000
0100
0000
,
1000
0001
0100
0001
0000
0010
0100
0010
,
0100
2002
0000
0000
,
0000
0000
0000
0000
,
0000
3003
0000
0000
;

//--------------- dance-single - forcednature ----------------
#NOTEDATA:;
#STEPSTYPE:dance-single;
#DESCRIPTION:forcednature;
#DIFFICULTY:Hard;
#METER:12;
#RADARVALUES:0,0,0,0,0;
#CREDIT:forcednature;
#NOTES:
0000
0000
0000
0000
,
0000
0000
0000
0000
,
0000
0000
0000
0000
,
1100
0000
1010
0000
1001
0000
0001
0010
,
0000
0100
0000
0010
0001
0000
1000
0000
,
0101
0000
0001
0010
0000
0100
1000
0100
,
0000
0010
0001
1000
0010
0000
0000
0000
,
0101
0000
0011
0000
1001
0000
0001
0010
,
0000
0100
0000
1000
0010
0000
0100
0000
,
0110
0000
0010
1000
0000
0001
0010
0100
,
0000
1000
0001
1000
0001
0000
0000
0000
,
0100
0010
1000
0010
0100
0001
1000
0001
,
0010
0100
1000
0100
0000
0010
0001
1000
,
0010
0000
0100
0001
0000
1000
0100
1000
,
0000
0010
0000
0010
0100
0000
0000
0000
,
0001
0010
0100
1000
0100
0010
0001
1000
,
0010
0100
0001
0100
0000
0010
1000
0001
,
0010
0000
0100
1000
0000
1000
0001
0010
,
0000
0001
0100
0001
0100
0000
0110
0000
,
0010
0000
1000
0001
0020
0000
0130
0000
,
0010
0000
0001
1000
0020
0000
0130
0000
,
0010
0000
1000
0001
0020
0000
0130
0000
,
1000
0010
0100
0010
0100
0001
1000
0001
,
0010
0000
0100
1000
0002
0000
0103
0000
,
0010
0000
0100
0001
2000
0000
3100
0000
,
0010
0000
0100
1000
0002
0000
0103
0000
,
0010
1000
0001
1000
0200
0000
0000
0000
,
1300
0001
0010
0010
0000
0000
0000
0000
,
0001
1000
0010
0010
0000
0000
0000
0000
,
1000
0001
0100
0100
0000
0000
0000
0000
,
0001
1000
0100
0100
0000
0000
0000
0000
,
1000
0010
0100
0001
0100
0010
1000
0000
,
0001
0010
0100
1000
0100
0010
0001
0001
,
0100
0010
1000
0001
1000
0010
0100
0000
,
0001
0000
1001
0000
1000
0010
0000
0010
,
1000
0100
0010
0001
0010
0100
1000
0000
,
0001
0100
0010
1000
0010
0100
0001
0001
,
1000
0000
1000
0001
0000
0001
0001
0010
,
0000
0100
0100
0010
0010
0000
1001
0000
,
1000
0100
0010
0100
2000
0000
3001
0010
,
0001
0100
0010
0100
0002
0000
1003
0010
,
1000
0001
0010
0001
2000
0000
3010
1000
,
0001
0010
0001
0100
0010
1000
0100
1000
,
0001
0010
0100
1000
0020
0000
1030
0100
,
1000
0010
0100
0001
0020
0000
0031
0100
,
0001
0010
0100
1000
0020
0000
1030
0100
,
2000
0100
0001
3010
,
0002
0100
1000
0013
,
1000
1000
0010
0010
0100
0100
0001
0001
,
0010
0000
0100
0000
1000
0000
0200
0300
0000
0000
0000
0000
0000
0000
0000
0000
,
0000
0000
1010
0011
,
1010
0000
0001
0010
0100
1000
0010
0100
,
0001
0010
0100
0000
1100
0000
0001
0010
,
0000
0001
0100
1000
0000
0100
0001
1000
,
0001
0010
0100
0000
0011
0000
1010
0000
,
0011
0000
1000
0010
0100
0001
0010
0100
,
1000
0010
0100
0000
0101
0000
1000
0010
,
0000
1000
0100
0001
0000
0100
0100
0010
,
0010
0000
0000
0000
0001
0100
0010
1000
,
0100
0010
0001
0010
0100
1000
0001
0100
,
0000
0010
1000
0001
0010
0000
0100
1000
,
0000
0001
0100
0010
0000
0001
0000
0010
,
1000
0001
0000
0001
1000
0100
0010
0001
,
0100
0010
1000
0001
0000
0010
0100
1000
,
0000
0100
0010
0001
0100
0000
0010
0010
,
0000
1000
1000
0001
0000
0010
0010
0100
,
0100
0000
1001
0000
1000
0010
0100
0001
,
0010
0100
1000
0010
0100
0001
0010
0001
,
0000
0100
0010
0010
1000
0000
0001
0010
,
0100
1000
0100
0010
0000
0001
0100
0001
,
1000
0000
0000
0000
0001
0001
0010
0010
,
0100
0100
1000
1000
0001
0001
0100
0100
,
0010
1000
0010
1000
0100
0000
0010
0010
,
0000
0001
0001
1000
0000
0010
0010
0100
,
0100
0000
1001
0000
0000
0100
0100
0010
,
0010
0000
1001
0000
0001
0001
1000
0010
,
0100
0001
0100
0001
0000
0010
0010
0100
,
0100
2002
0000
0000
,
0000
0000
0000
0000
,
0000
3003
0000
0000
;

//--------------- dance-double - forcednature ----------------
#NOTEDATA:;
#STEPSTYPE:dance-double;
#DESCRIPTION:forcednature;
#DIFFICULTY:Easy;
#METER:8;
#RADARVALUES:0,0,0,0,0;
#CREDIT:forcednature;
#NOTES:
00000000
00000000
00000000
00000000
,
00000000
00000000
00000000
00000000
,
00000000
00000000
00000000
00000000
,
00001000
00010000
00001000
01000000
,
00010000
10000000
00100000
10000000
,
01000000
00100000
01000000
00100000
,
00010000
00100000
00001000
00000000
,
00010000
00000010
00001000
00000010
,
00000100
00000001
00001000
00000001
,
00000010
00000100
00001000
00000100
,
00010000
00010000
00001000
00000000
,
01000000
00010000
01000000
00100000
,
10000000
00010000
00000000
00100000
,
01000000
10000000
01000000
00100000
,
00010000
00100000
00001000
00000000
,
00010000
00000010
00001000
00000010
,
00010000
00001000
00000000
01000000
,
00010000
00010000
10000000
10000000
,
00010000
10000000
00010000
00000000
,
00100000
00001000
00010000
00000000
,
00000010
00010000
00001000
00000000
,
00100000
00001000
00010000
00000000
,
00000100
00010000
00001000
00100000
,
00001000
00010000
00000010
00000000
,
00010000
00001000
00100000
00000000
,
00001000
00010000
00000010
00000000
,
00010000
00001000
01000000
00010000
,
00100000
00100000
00000000
00000000
,
00001000
00001000
00000000
00000000
,
00010000
00010000
00000000
00000000
,
00000100
00000100
00000000
00000000
,
00001000
00000001
00000100
00000001
,
00001000
00000010
00010000
00000000
,
00001000
00100000
00010000
00100000
,
00001000
00010000
00001000
00000000
,
01000000
00010000
10000000
00010000
,
01000000
00100000
10000000
00000000
,
01000000
00100000
00000000
00100000
,
00000000
00100000
00100000
00000000
,
00001000
00010000
00000010
00000000
,
00010000
00001000
00100000
00000000
,
00001000
00010000
00000010
00000000
,
00001000
00000100
00010000
00001000
,
00100000
00001000
00010000
00000000
,
00000010
00010000
00001000
00000000
,
00100000
00001000
00010000
00000000
,
00000100
00010000
00001000
00100000
,
00010000
01000000
00001000
00010000
,
00000010
00000010
00001000
00001000
,
00000001
00000100
00000000
00000000
,
00000000
00000000
00000010
00001000
,
00000010
00010000
00001000
00010000
,
00001000
00100000
00010000
10000000
,
01000000
10000000
00010000
00100000
,
00010000
00000000
10000000
00100000
,
01000000
00100000
10000000
00010000
,
01000000
00010000
01000000
00001000
,
00010000
00000010
00001000
00000001
,
00000001
00000000
00000010
00000100
,
00001000
00000100
00010000
00001000
,
00000000
00100000
00010000
00100000
,
00001000
00010000
00001000
01000000
,
00010000
00000000
10000000
00100000
,
10000000
01000000
00100000
00010000
,
00000000
00100000
00001000
00001000
,
00010000
00010000
00001000
00010000
,
00001000
00000000
00010000
00000010
,
00001000
00000010
00000100
00000001
,
00000000
00001000
00000100
00010000
,
00001000
00100000
00001000
00010000
,
00001000
00000000
01000000
01000000
,
00010000
00010000
10000000
10000000
,
00100000
00000000
01000000
00010000
,
10000000
01000000
00000000
00010000
,
00001000
00100000
00000000
00001000
,
00010000
00000010
00001000
00000001
,
00000100
00001000
00000000
00010000
,
00010000
00100000
00000000
00000000
;

//--------------- dance-double - forcednature ----------------
#NOTEDATA:;
#STEPSTYPE:dance-double;
#DESCRIPTION:forcednature;
#DIFFICULTY:Medium;
#METER:12;
#RADARVALUES:0,0,0,0,0;
#CREDIT:forcednature;
#NOTES:
00000000
00000000
00000000
00000000
,
00000000
00000000
00000000
00000000
,
00000000
00000000
00000000
00000000
,
00001000
00000000
00010000
00000000
00001000
00000000
01000000
00010000
,
00000000
01000000
00000000
00100000
10000000
00000000
00010000
00000000
,
10000000
00000000
01000000
00100000
00000000
00010000
00000000
00100000
,
00000000
00001000
00000000
00010000
00001000
00000000
00000000
00000000
,
00010000
00000000
00000100
00000000
00001000
00000000
00000001
00000010
,
00000000
00000100
00000000
00000010
00000001
00000000
00001000
00000000
,
00000010
00000000
00000100
00000001
00000000
00001000
00000000
00000001
,
00000000
00000100
00000010
00000100
00000010
00000000
00000000
00000000
,
00001000
00000100
00001000
00000000
00000100
00010000
00000100
00000000
,
00010000
00001000
00010000
00000000
00001000
00000000
00100000
00000000
,
00011000
00001000
01000000
00010000
,
10000000
00010000
10000000
00000000
00100000
00000000
00000000
00000000
,
10000000
01000000
10000000
00000000
01000000
00100000
01000000
00000000
,
00100000
00010000
00100000
00000000
00001000
00000000
00010000
00000000
,
00011000
00000000
00000010
00001000
00000000
00000001
00000100
00000001
,
00000000
00001000
00000000
00001000
00000010
00000000
00000000
00000000
,
00001000
00000000
00000100
00000000
00010000
00001000
00100000
00000000
,
00010000
00000000
01000000
00000000
00001000
00010000
00000010
00000000
,
00001000
00000000
00000100
00000000
00010000
00001000
00100000
00000000
,
00020000
02030000
03200000
20300000
,
30010000
00000000
01000000
00000000
00001000
00010000
00000010
00000000
,
00001000
00000000
00000100
00000000
00010000
00001000
00100000
00000000
,
00010000
00000000
01000000
00000000
00001000
00010000
00000010
00000000
,
00002000
00003200
00000320
00000032
,
00000103
00000010
00000100
00000010
00000000
00000000
00000000
00000000
,
00010000
00001000
00010000
00001000
00000000
00000000
00000000
00000000
,
00100000
01000000
00100000
01000000
00000000
00000000
00000000
00000000
,
00010000
00001000
00010000
00001000
00000000
00000000
00000000
00000000
,
01000000
00000000
00010000
00100000
00001000
00000000
00010000
00000000
,
00000100
00000000
00001000
00000010
00010000
00000000
00001000
00000000
,
01000000
00000000
00010000
00100000
00001000
00000000
00010000
00000000
,
00000100
00000110
00000010
00001001
,
00001000
00000000
00000100
00010000
00001000
00000000
00100000
00000000
,
00010000
00000000
01000000
00001000
00010000
00000000
00000010
00000000
,
00001000
00000000
00000100
00001000
00000000
00000100
00010000
00000100
,
00000000
00010000
00001000
00010000
00001000
00000000
00011000
00000000
,
01000000
00000000
00010000
00000000
00100000
00001000
00010000
00000000
,
00000100
00000000
00001000
00000000
00000010
00010000
00001000
00000000
,
01000000
00000000
00010000
00000000
00100000
00001000
00010000
00000000
,
00000020
00002030
00003002
00000203
,
00000310
00000000
00001000
00000000
00000100
00010000
00001000
00000000
,
00100000
00000000
00010000
00000000
01000000
00001000
00010000
00000000
,
00000010
00000000
00001000
00000000
00000100
00010000
00001000
00000000
,
02000000
03020000
00230000
00302000
,
00023000
00030020
00002030
00003200
,
00000310
00000001
00000010
00000000
00000001
00000100
00000001
00000000
,
00001000
00000010
00001000
00000100
00000000
00000000
00000000
00000000
,
00000000
00000000
00011000
00101000
,
00110000
00000000
00010000
01000000
00000000
00010000
00000000
10000000
,
00100000
00000000
10000000
00000000
11000000
00000000
01000000
00100000
,
00000000
00010000
00100000
00010000
00000000
00100000
00000000
00001000
,
00010000
00000000
00011000
00010100
,
00001100
00000000
00001000
00000001
00000000
00000010
00000000
00000001
,
00000100
00000000
00000010
00000000
00000110
00000000
00000100
00000001
,
00000000
00001000
00000010
00001000
00000000
00000100
00001000
00000100
,
00010000
00000000
00000000
00000000
00001000
00010000
00001000
00000000
,
00100000
00010000
00100000
00000000
01000000
10000000
01000000
10000000
,
00000000
01000000
00100000
00000000
00010000
00000000
00100000
00001000
,
00000000
00010000
00000000
00000100
00000000
00001000
00000001
00000010
,
00000001
00000000
00000000
00000000
00001000
00000010
00001000
00000000
,
00000010
00010000
00000010
00000000
00010000
00001000
00010000
00001000
,
00000000
00100000
00010000
00000000
10000000
00000000
00100000
01000000
,
00000000
00010000
00000000
01000000
00000000
00001000
00010000
00001000
,
00010000
00000000
00011000
00000000
00000100
00001000
00000100
00000000
,
00010000
00001000
00010000
00000000
00000010
00001000
00000001
00001000
,
00000000
00000100
00000010
00000000
00000100
00000000
00001000
00000100
,
00000000
00010000
00001000
00100000
00000000
00010000
00100000
00010000
,
10000000
00000000
00000000
00000000
01000000
00100000
00010000
00000000
,
00100000
00001000
00010000
00000000
00000100
00001000
00000001
00000000
,
00000100
00000100
00000100
00000000
00000110
00000000
00000010
00001000
,
00000000
00000010
00010000
00001000
00000000
00100000
00010000
00100000
,
00001000
00000000
00011000
00000000
00000000
00000010
00001000
00000010
,
00010000
00000000
00011000
00000000
01000000
00010000
01000000
00000000
,
00100000
10000000
00010000
10000000
00000000
01000000
00100000
01000000
,
00100000
20020000
00000000
00000000
,
00000000
00000000
00000000
00000000
,
00000000
30030000
00000000
00000000
;

//--------------- dance-double - forcednature ----------------
#NOTEDATA:;
#STEPSTYPE:dance-double;
#DESCRIPTION:forcednature;
#DIFFICULTY:Hard;
#METER:14;
#RADARVALUES:0,0,0,0,0;
#CREDIT:forcednature;
#NOTES:
00000000
00000000
00000000
00000000
,
00000000
00000000
00000000
00000000
,
00000000
00000000
00000000
00000000
,
00011000
00000000
01010000
00000000
00011000
00000000
00001000
00100000
,
00000000
01000000
00000000
00100000
00001000
00000000
00010000
00000000
,
00011000
00000000
00001000
00000010
00000000
00000100
00010000
00000100
,
00000000
00001000
00000001
00000100
00000010
00000000
00000000
00000000
,
00011000
00000000
00001100
00000000
00011000
00000000
00010000
00000010
,
00000000
00000100
00000000
00000010
00010000
00000000
00001000
00000000
,
00011000
00000000
00010000
00100000
00000000
01000000
00001000
01000000
,
00000000
00010000
10000000
01000000
00100000
00000000
00000000
00000000
,
01000000
10000000
01000000
00010000
00001000
00100000
00010000
00100000
,
00001000
00000010
00000100
00010000
00000000
00001000
00010000
00000100
,
00001000
00000000
00000001
00000100
00000000
00001000
00010000
00001000
,
00000000
00000100
00000000
00000001
00000010
00000001
00000000
00000001
,
00000100
00000001
00000100
00001000
00010000
00000010
00001000
00000010
,
00010000
00100000
01000000
00001000
00000000
00010000
00001000
01000000
,
00010000
00000000
10000000
01000000
00000000
00010000
00001000
00010000
,
00000000
01000000
01000000
10000000
00100000
00000000
01100000
00000000
,
10000000
00000000
01000000
00010000
00002000
00000000
00003010
00000000
,
00000001
00000000
00000100
00001000
00020000
00000000
00130000
00000000
,
10000000
00000000
01000000
00010000
00002000
00000000
00003010
00000000
,
00000001
00000100
00001000
00010000
00000010
00001000
00000010
00010000
,
00001000
00000000
00000010
00000001
00000200
00000000
00001300
00000000
,
00010000
00000000
00100000
10000000
02000000
00000000
03010000
00000000
,
00001000
00000000
00000010
00000001
00000200
00000000
00001300
00000000
,
00010000
00100000
01000000
00100000
10000000
01000000
00100000
01000000
,
00010000
00001000
00100000
00100000
00000000
01000000
00010000
00000000
,
00001000
00010000
00000010
00000010
00000000
00000100
00001000
00000000
,
00010000
00001000
01000000
01000000
00000000
00100000
00010000
00000000
,
00001000
00010000
00000100
00000100
00000000
00000010
00002000
00000000
,
00013000
00000100
00001000
00000100
00010000
00001000
00100000
00010000
,
00100000
00001000
00010000
00000010
00001000
00000010
00000100
00000100
,
00000001
00000010
00000100
00000010
00000100
00010000
00001000
00100000
,
00010000
00000000
10010000
00000000
10000000
01000000
00000000
01000000
,
10000000
00100000
01000000
00100000
01000000
00010000
01000000
00001000
,
00010000
00000100
00001000
00000100
00000010
00000001
00001000
00001000
,
00000010
00000000
00000100
00001000
00000000
00010000
00001000
00010000
,
00000000
00100000
00100000
01000000
01000000
00000000
10010000
00000000
,
10000000
01000000
00100000
00001000
00020000
00000000
00030100
00001000
,
00000001
00000100
00000010
00010000
00002000
00000000
01003000
00010000
,
10000000
01000000
00100000
00001000
00020000
00000000
00030100
00001000
,
00000001
00000100
00001000
00000100
00001000
00010000
00001000
00010000
,
00100000
10000000
00010000
10000000
02000000
00000000
03010000
00001000
,
00000010
00000001
00001000
00000001
00000200
00000000
00001300
00010000
,
00100000
10000000
00010000
10000000
02000000
00000000
03100000
00000000
,
00020000
01000000
10000000
00100000
,
00032000
00000100
00000001
00000010
,
00013000
00010000
01000000
01000000
00100000
00100000
10000000
10000000
,
01000000
00000000
00010000
00000000
00001000
00000000
00020000
00030000
00000000
00000000
00000000
00000000
00000000
00000000
00000000
00000000
,
00000000
00000000
00011000
01100000
,
00011000
00000000
00001000
00100000
00000000
01000000
00000000
00010000
,
00001000
00000000
00100000
00000000
00011000
00000000
00001000
00000010
,
00000000
00000100
00010000
00001000
00000000
00000010
00000001
00000100
,
00001000
00000000
00011000
00000110
,
00011000
00000000
00010000
00000010
00000000
00000100
00000000
00001000
,
00010000
00000000
00000010
00000000
00011000
00000000
00010000
00100000
,
00000000
01000000
00001000
00010000
00000000
00100000
10000000
01000000
,
00010000
00000000
00000000
00000000
00001000
00000010
00000100
00010000
,
00001000
00000010
00000001
00001000
00000010
00000100
00001000
00010000
,
00000000
00100000
01000000
00001000
00010000
00000000
01000000
00010000
,
00001000
00100000
00010000
00100000
00000000
00001000
00000010
00000100
,
00010000
00011000
00000000
00001000
00010000
00100000
01000000
00001000
,
00010000
00100000
10000000
01000000
00010000
00001000
00100000
00001000
,
00000000
00000010
00000100
00010000
00001000
00000000
00000100
00001000
,
00000000
01000000
00010000
00100000
00000000
00001000
00000010
00000001
,
00000100
00000000
00000110
00000000
00000001
00000100
00001000
00010000
,
00100000
00010000
00001000
00000100
00000001
00000010
00001000
00010000
,
00000000
00001000
00000010
00000010
00000100
00000000
00010000
00001000
,
00100000
00010000
01000000
10000000
00000000
01000000
00010000
00100000
,
01000000
01100000
00000000
00010000
10000000
01000000
00100000
00010000
,
00001000
00000100
00000010
00000001
00000100
00001000
00010000
00100000
,
01000000
01000000
01000000
01000000
01100000
00000000
00010000
10000000
,
00000000
01000000
00010000
00001000
00000000
00100000
00010000
00100000
,
00001000
00000000
00000210
00000000
00010300
00000010
00001000
00000010
,
00010000
00000000
01200000
00000000
10300000
00010000
00100000
01000000
,
00010000
00010000
00001000
00001000
00000000
00100000
00010000
00001000
,
00000100
00022000
00000000
00000000
,
00000000
00000000
00000000
00000000
,
00000000
00033000
00000000
00000000
;
