#VERSION:0.83;
#TITLE:memento mori -intro-;
#SUBTITLE:;
#ARTIST:あさき;
#TITLETRANSLIT:;
#SUBTITLETRANSLIT:;
#ARTISTTRANSLIT:Asaki;
#GENRE:;
#CREDIT:;
#MUSIC:memento mori -intro-.ogg;
#BANNER:memento mori -intro-.png;
#BACKGROUND:memento mori -intro--bg.png;
#CDTITLE:./CDTitles/GITADORA.png;
#SAMPLESTART:71.117;
#SAMPLELENGTH:15.000;
#SELECTABLE:YES;
#OFFSET:-0.904;
#BPMS:0.000=170.000;
#STOPS:;
#TIMESIGNATURES:0.000=5=4;
#BGCHANGES:-0.500=memento mori -intro-.mp4=1.000=0=0=0=StretchNoLoop====,
99999.000=-nosongbg-=1.000=0=0=0=StretchNoLoop====
;
#FGCHANGES:;

//--------------- dance-single - forcednature ----------------
#NOTEDATA:;
#STEPSTYPE:dance-single;
#DESCRIPTION:forcednature;
#CREDIT:forcednature;
#DIFFICULTY:Beginner;
#METER:4;
#RADARVALUES:0,0,0,0,0;
#NOTES:
0000
0000
0000
0000
,
0000
0000
0000
0000
,
0000
0000
0000
0000
,
0000
0000
0000
0000
,
0000
0000
0000
0000
,
2002
0000
0000
0000
,
3003
0000
0000
0000
,
0220
0000
0000
0000
,
0330
0000
0000
0000
,
0001
0000
0100
0000
,
0010
0000
1000
0000
,
0001
0000
0010
0000
,
0100
0100
0100
0000
,
1001
0000
0000
1000
,
0010
0000
0000
0100
,
0001
0000
1000
0000
,
0100
0000
0010
0000
,
0001
0000
0000
0001
,
0100
0000
0010
0000
,
1000
0000
0100
0000
,
0010
0000
0001
0000
,
0100
0000
0010
0100
,
0000
0010
0000
0001
,
0000
1000
0001
0000
,
1000
0000
0100
0000
,
0010
0000
0001
0000
,
0100
0000
0000
0010
,
1000
0000
0000
0001
,
0010
0000
0100
0000
,
1000
0000
0001
0000
,
0100
0000
0000
0010
,
1000
0000
0001
0000
,
0010
0000
0001
0000
,
0100
0000
0010
0000
,
1000
0000
0000
1000
,
0100
0000
0010
0000
,
0001
0000
0100
0000
,
0010
0000
1000
0000
,
0001
0000
0010
0000
,
0001
0000
0100
0000
,
0020
0000
0000
0030
,
2000
0000
0000
3000
,
0001
0000
0000
0000
,
0010
0000
0100
0000
,
1000
0000
1000
0000
,
0001
0000
0000
0000
,
0100
0000
0000
0010
,
0000
0000
1000
0000
,
0001
0000
0010
0000
,
0001
1000
0001
0000
,
1001
0000
1000
0000
,
0100
0000
1000
0000
,
0010
0000
0100
0000
,
0001
0000
0100
0000
,
0010
0000
1000
0000
,
0001
0000
0010
0000
,
0001
0000
0100
0000
,
0001
0000
1000
0000
,
0200
0000
0000
0300
,
0010
0000
0001
0000
,
0100
0000
0001
0000
,
1000
0000
0010
0000
,
1000
0000
0000
0000
,
0100
0000
1000
0000
,
0001
0000
0100
0000
,
0001
1000
0001
0000
,
1001
0000
0000
1000
,
0000
1000
0000
0001
,
0000
0001
0000
0100
,
0000
0110
0000
0000
,
1000
0000
0001
0000
,
0000
0000
0010
0000
,
0100
0000
1000
0000
,
0001
0000
0100
0000
,
2002
0000
0000
0000
,
0000
0000
0000
0000
,
3003
0000
0000
0000
;

//--------------- dance-single - forcednature ----------------
#NOTEDATA:;
#STEPSTYPE:dance-single;
#DESCRIPTION:forcednature;
#CREDIT:forcednature;
#DIFFICULTY:Easy;
#METER:9;
#RADARVALUES:0,0,0,0,0;
#NOTES:
0000
0000
0000
0000
,
0000
0000
0000
0000
,
0000
0000
0000
0000
,
0000
0000
0000
0000
,
0000
0000
0000
0000
,
2002
0000
0000
3003
,
0100
0000
0000
0000
,
0220
0000
0000
0330
,
0001
1000
0001
1000
,
0200
0000
0310
0001
,
0020
0000
0130
1000
,
0001
0000
0000
0100
0000
0000
0001
0000
,
1000
0010
1000
0010
,
0200
0000
0301
1000
,
0200
0000
0310
0001
,
1000
0010
0100
0001
,
0010
0001
0100
0000
,
0010
2000
0000
3001
,
0020
0000
0130
1000
,
0001
0100
0001
0010
,
0100
1000
0010
0000
,
1000
0000
0100
0000
1000
0000
0001
0000
0000
0001
0000
0100
,
0000
0001
0000
0010
0000
0000
0100
0000
0000
1000
0000
0010
,
0000
1000
0000
0001
0000
0000
0001
0000
0010
0000
0001
0000
,
0200
0320
2030
3002
,
0013
0000
0000
0100
0000
1000
0000
0100
0000
1000
0000
0000
,
0001
0100
0001
0000
1000
0000
0010
0000
,
1000
0100
1000
0000
0001
0000
0010
0000
,
0200
1000
0320
0032
,
1003
0000
0001
0000
0100
0010
0100
0000
,
0001
0000
0010
0000
0100
0000
0010
0001
,
0010
0000
0100
0000
1000
0000
0001
0100
,
0001
0000
1000
0010
1000
0000
0001
0000
,
0010
0100
2002
3003
,
1000
0100
1000
0000
0001
0000
0010
0000
,
0001
1000
0010
1000
,
2001
0000
0000
3002
0000
0000
0203
0000
,
0310
0000
1000
0000
0001
0010
0001
0000
,
0200
0000
0000
0310
2000
0000
0000
3001
,
0020
0000
0000
0130
2000
0000
3002
0000
,
0203
0010
0010
0310
,
0100
0001
0100
0000
0010
0000
1000
0000
,
0001
0000
0000
1001
0000
0000
0000
0110
,
0000
1000
0001
0100
,
0020
0000
0000
2030
0000
0000
3002
0000
,
0013
0001
0200
0010
,
0310
0000
0000
1001
0000
0000
1000
0000
,
0100
0010
0001
0100
,
0010
0110
0100
0110
,
1000
0000
0000
0001
0000
0000
1000
0000
0002
0000
0000
0000
0000
0000
0000
0000
,
0013
0000
0100
1000
0100
0000
0010
0000
,
0001
0000
1000
0010
1000
0000
0001
0000
,
0010
0100
0010
0000
0100
1000
0100
0000
,
0010
0100
0010
0000
0001
0010
0001
0000
,
1000
0000
0001
0100
0001
0000
1000
0000
,
0010
0000
1000
0100
1000
0000
0001
0000
,
0100
0010
0100
0000
0001
0100
0001
0000
,
0100
0010
0100
0000
0010
1000
0010
0000
,
2002
0000
0000
3003
,
1000
0100
1000
0000
0001
0000
0010
0000
,
0001
0100
0001
0000
0100
0001
0100
0000
,
0010
1000
0010
0000
1000
0010
1000
0000
,
0001
0010
0100
0010
,
0001
0000
0000
0000
1000
0000
0000
0000
0010
0000
0000
0010
0000
0000
1000
0000
,
0001
0000
0010
0001
0010
0000
0100
1000
,
0100
0000
1000
0000
0001
0100
0001
0000
,
1000
1010
0001
0011
,
1000
1100
0001
0101
,
0010
1001
0100
1001
,
1000
0000
0001
0100
0010
0000
0010
0000
,
1001
0000
1000
0010
,
0100
0001
0010
0000
,
0100
0001
0100
1000
,
0010
0100
0010
0000
1000
0000
0001
0000
,
2002
0000
0000
0000
,
0000
0000
0000
0000
,
3003
0000
0000
0000
;

//--------------- dance-single - forcednature ----------------
#NOTEDATA:;
#STEPSTYPE:dance-single;
#DESCRIPTION:forcednature;
#CREDIT:forcednature;
#DIFFICULTY:Medium;
#METER:13;
#RADARVALUES:0,0,0,0,0;
#NOTES:
0000
0000
0000
0000
,
0000
0000
0000
0000
,
0000
0000
0000
0000
,
0000
0000
0000
0000
,
0000
0000
0000
0000
,
2002
0000
0000
0000
0000
0000
0000
0000
0000
0000
0000
0000
0000
3003
0000
0000
,
0100
0100
0000
0000
0000
0000
0010
0000
,
2002
0000
0000
3003
,
0001
1000
0001
0000
0100
0100
0010
1000
,
0002
0000
0010
1003
,
2001
0000
0000
0000
3010
0000
1000
0001
,
0010
0000
0100
0000
1000
0000
0010
0000
0100
0000
0001
0000
1000
0100
1000
0100
,
0010
0000
0001
0001
0100
0100
0010
0010
,
1000
0001
0020
0000
0100
0000
0031
1000
,
0010
1000
0200
0000
0310
0001
1000
0010
,
0200
0000
0310
1000
0002
0000
0023
0000
,
0130
0001
0100
1000
0001
0001
1000
0010
,
0100
0001
0020
0000
0100
0000
0031
1000
,
0020
0230
0302
2003
,
3100
0000
0000
0000
0010
0001
0010
0000
0002
0000
0000
0000
0203
0000
0000
0000
,
0310
1000
0010
0000
1000
0000
0001
0000
2000
0000
0000
0000
3200
0000
0000
0000
,
0310
0001
0010
0001
0010
0001
2000
0000
0000
3010
1000
0010
,
1000
0010
1000
0100
0000
0000
0010
0000
0000
0001
0100
0001
,
0100
0001
0100
0002
0000
0000
1003
0100
1000
0100
1000
0100
,
1000
0000
0000
1001
0000
0000
0001
0100
0010
2000
0000
0000
,
3100
1000
0100
2000
0000
0000
3010
0100
0010
0200
0000
0000
,
0301
1000
0200
0000
0010
0000
1300
0100
,
0010
0000
0001
0000
2000
0000
0000
0000
0010
0000
0000
0000
3001
0000
0010
0001
,
0020
0000
0000
0000
0130
0000
1000
0100
2000
0000
0000
0000
3020
0000
0000
0000
,
0130
0001
1000
0100
0010
0001
1000
0010
,
0100
0000
0001
0100
0002
0000
0000
0000
0010
0000
0000
0000
1003
0000
0100
0000
,
1000
0000
0010
1000
0020
0000
0000
0000
0130
0000
0001
0000
1000
0100
1000
0100
,
0010
0000
0000
0000
0001
0100
0001
0100
0010
0000
0000
0000
2000
0000
0000
0000
,
3002
0000
0013
0010
0100
0100
1000
0000
,
0001
0100
0001
0010
0100
1000
0020
0000
,
0230
0000
0000
0000
0301
0000
0100
0000
0020
0000
0000
0000
1030
0001
1000
0000
,
0200
0000
0310
0002
0000
1003
0020
0000
,
0130
1000
0100
0001
1000
0001
0100
0001
,
0020
0000
0000
0000
0030
0000
0001
0100
0002
0000
0000
0000
0003
0000
1000
0100
,
2000
0000
0000
0000
3000
0000
0010
0100
0020
0000
0000
0000
2030
0000
0000
0000
,
3200
0010
0001
0010
,
1300
0100
1000
0100
0010
0001
1000
0000
,
0010
1000
0100
1100
0000
0001
0100
0101
,
0000
0000
1000
0000
0001
0000
0001
0000
0010
0000
0100
1000
0100
0000
0000
0000
,
1010
0000
0001
0011
0000
1000
0100
0010
,
0001
1000
0010
0000
2000
0000
0010
3010
,
1000
1000
0000
1001
0000
0001
1000
0010
,
0100
0000
0000
0001
0000
0000
1000
0000
0000
0100
0000
0000
0010
0000
0001
0000
0010
0000
0002
0000
0000
0000
0000
0000
,
1003
0000
0000
0000
1000
0000
0010
0000
0000
0000
0010
0000
0100
0000
0000
0000
0100
0000
0001
0000
0000
1000
0000
0000
,
0100
0000
0000
0110
0000
0000
0010
0000
2002
0000
0000
0000
3003
0000
0000
0000
,
0001
0000
0010
0000
0100
0000
0010
0000
0001
0000
0000
1000
0000
0000
0010
0000
,
0100
0010
1000
0001
1000
0100
0010
0001
,
0100
1000
0100
0001
0100
1000
0100
0001
,
0010
1000
0010
0001
0010
1000
0010
0001
,
1000
0010
1000
0200
0000
0310
0002
0000
,
2003
0000
0000
3010
0200
0000
0301
1000
,
0100
0001
0100
1000
0100
0001
0100
1000
,
0010
0001
0010
1000
0010
0100
0001
1000
,
0200
0000
0000
0000
0000
0000
0300
0010
,
0001
0000
1000
0100
1000
0000
0001
0000
1000
0000
0010
0000
0100
0000
0010
0000
,
1000
0100
0001
0100
1000
0010
0001
0010
,
1000
0100
0001
0100
1000
0010
0001
0010
,
2000
0000
3100
0020
0000
0031
2000
0000
,
3020
0000
0000
0000
0130
0000
0001
0000
1000
0000
0000
0100
0000
0000
0010
0000
,
0001
0100
1000
0100
0001
0010
2000
0000
,
3010
0010
0100
0100
1000
0001
0200
0000
,
0310
1000
1010
0000
0001
0100
0101
0000
,
0010
0001
0011
0000
1000
0100
1100
0000
,
0001
0100
1000
0100
0001
0010
1000
0010
,
0001
0000
0000
0000
0000
0000
1000
0000
0000
0000
0000
0000
0100
0000
0000
0010
0000
0000
0100
0000
0000
0000
0000
0000
1000
0000
0000
0000
0001
0000
0000
0000
1000
0000
0000
0000
0001
0000
0000
0000
0000
0000
0000
0000
0000
0000
0000
0000
,
1000
0100
2000
0000
3001
0100
0001
0010
,
0100
1000
0001
1000
0020
0000
0130
0001
,
2000
3200
0320
0032
,
0103
1000
0100
0001
0010
0000
0110
0000
,
2002
0000
0000
0000
,
0000
0000
0000
0000
,
3003
0000
0000
0000
;

//--------------- dance-single - forcednature ----------------
#NOTEDATA:;
#STEPSTYPE:dance-single;
#DESCRIPTION:forcednature;
#CREDIT:forcednature;
#DIFFICULTY:Hard;
#METER:17;
#RADARVALUES:0,0,0,0,0;
#NOTES:
0000
0000
0000
0000
,
0000
0000
0000
0000
,
0000
0000
0000
0000
,
0000
0000
0000
0000
,
0000
0000
0000
0000
,
2002
0000
0000
0000
0000
0000
0000
0000
0000
0000
0000
0000
0000
3003
0000
0000
,
0010
0000
0110
0000
0000
0000
0000
0000
0000
0000
1000
0001
0010
0000
0000
0000
,
2001
0000
0000
0100
0000
0100
3001
1000
,
0010
0000
0110
0000
0000
0000
0100
0000
0001
1000
0100
0000
0010
0001
0010
0001
,
2000
0000
0000
0010
0010
0000
3001
1000
,
0100
0020
0001
0000
1030
0010
0100
0010
,
0001
0000
0100
0001
0100
0000
0010
0000
1000
0010
1000
0000
0001
0010
0100
1000
,
0010
0000
0100
0000
0001
0010
0001
0010
0100
1000
0100
1000
0010
0100
0010
0100
,
0001
0000
1000
0000
0200
0000
0000
0000
0001
0000
0000
0000
0310
0100
1000
0001
,
0100
0000
0010
1000
0002
0000
0000
0000
0013
0000
0001
0000
1000
0010
1000
0010
,
0200
0000
0000
0000
0301
0000
1000
0100
0020
0000
0000
0000
0032
0000
0000
0000
,
0103
0000
0001
0100
0001
0100
0010
0000
1000
0001
0010
0000
0100
1000
0100
1000
,
0001
0000
0100
0000
0020
0000
0000
0000
0001
0000
0000
0000
1030
0010
0100
0001
,
1000
0000
0001
0000
0010
0000
0100
1000
0001
0000
0100
0001
0100
0010
1000
0000
,
1001
0000
0000
0000
0001
1000
0100
0010
0001
0000
0100
0001
0200
0000
0000
0000
,
0310
1000
0001
1000
0100
0010
0100
0010
0001
0000
1000
0001
0200
0000
0000
0000
,
0301
0100
1000
0100
0001
0010
0012
0000
0000
1003
0100
0001
,
0100
1000
0010
0110
0000
0000
1001
0000
0000
1000
0010
0001
,
0010
1000
0100
2100
0000
0000
3001
0010
1000
0010
0001
0100
,
0101
0000
0000
1010
0000
0000
1000
0100
0010
0021
0000
0000
,
0031
0100
1000
0100
0001
1000
0001
0010
0100
1000
0001
0100
,
0010
0000
1000
0001
0020
0000
0000
0000
0100
0000
0031
0000
0010
0100
1000
0001
,
0100
0000
0001
1000
0020
0000
0000
0000
0100
0000
1030
0000
0010
0100
0001
1000
,
0200
0000
0000
0000
0310
0100
1000
0001
0100
0000
0010
1000
0010
0000
0000
0000
,
0100
0000
0001
0010
0001
0010
0100
1000
0100
0000
1000
0010
0100
0001
1000
0001
,
0010
0000
0100
1000
0002
0000
0000
0000
0100
0000
1003
0000
0001
0010
0001
0100
,
0010
0000
1000
0001
0020
0000
0000
0000
0130
0000
1000
0000
0001
0100
0010
1000
,
0002
0000
0000
0000
1003
0100
0010
0001
2000
0000
0000
0000
3010
0000
0000
0000
,
1001
0000
0000
0000
1000
0010
1000
0010
0100
0001
1000
0001
0010
0000
0100
0000
,
1001
0000
0001
0000
0100
0000
0010
1000
0010
0000
0100
0001
1000
0100
1000
0100
,
0010
0000
0001
0000
1000
0000
0010
0100
0010
0000
1000
0001
0010
0001
0010
0100
,
1000
0000
0001
0000
0100
0010
1000
0000
0001
0000
0010
0100
2000
0000
0000
0000
,
3001
0100
0001
0100
0010
1000
0001
0000
1000
0100
0010
0100
0010
0001
1000
0001
,
0200
0000
0000
0000
0310
1000
0001
1000
0200
0000
0000
0000
0310
0001
1000
0001
,
0100
0000
0010
0000
0100
0001
1000
0000
0100
0000
0000
0000
0010
0000
0000
0000
,
2001
0000
0100
0100
0001
0001
3010
0000
,
1000
0100
1000
0100
0010
0001
1000
0001
0100
0000
0010
1000
0001
0010
0100
0000
,
0010
0000
0001
0100
0010
0000
1010
0000
0000
0000
1000
0000
0100
0000
0011
0000
,
0000
0000
0001
0000
1000
0010
1000
0100
0010
0000
0001
1000
0001
0100
0010
0000
,
0110
0000
0100
0001
0010
0000
0110
0000
0100
1000
0010
0000
0100
1000
0100
0010
,
0100
0000
0001
1000
0010
0000
0000
0000
0200
0000
0000
0000
0001
0000
0001
0000
,
0310
0100
0010
0100
0001
0000
1001
0000
0000
0000
1000
0000
0100
0010
0001
0010
,
0001
0000
0000
0100
0000
0000
0001
0000
0000
0000
0000
0000
0100
0000
0000
0010
0000
0000
0100
0000
0000
0000
0000
0000
0010
0000
0000
0000
1000
0000
0000
0000
0001
0000
0000
0000
0020
0000
0000
0000
0000
0000
0000
0000
0000
0000
0000
0000
,
0130
0000
0000
0000
0001
0000
0000
0000
0100
0000
0000
0000
1000
0000
0000
0000
0010
0000
0000
0000
1000
0000
0000
0000
0001
0000
0000
0000
0010
0000
0000
0000
0001
0000
0000
0000
0100
0000
0000
0001
0000
0000
0100
0000
0000
0010
0000
0000
,
1000
0000
0000
1001
0000
0000
0110
0000
1002
0000
0000
0000
1003
0100
0010
0001
,
0100
0000
0001
0000
1000
0010
1000
0001
0010
0000
0100
1000
0000
0100
0010
0000
,
0001
0000
1000
0000
0010
0100
0001
0100
0010
0000
1000
0000
0001
0000
0010
0000
,
0100
1000
0100
1000
0001
1000
0001
1000
0010
1000
0010
1000
0001
1000
0001
1000
,
0100
1000
0100
1000
0001
1000
0001
1000
0010
1000
0010
1000
0001
1000
0001
1000
,
0100
0000
0010
0000
0001
0100
0010
0000
1000
0000
0001
0010
0200
0000
0000
0000
,
2300
0000
0000
0000
3001
0100
1000
0000
0100
0000
0001
0000
1000
0100
0010
0001
,
0100
0001
0100
0001
1000
0001
1000
0001
0010
0001
0010
0001
1000
0001
1000
0001
,
0100
0001
0100
0001
1000
0001
1000
0001
0010
0100
1000
0001
0100
0010
1000
0001
,
0020
0000
0000
0000
0100
0000
0000
0000
0100
0000
0000
0000
0130
0000
0010
0001
,
1000
0000
0001
0100
0001
0000
1000
0000
0001
0010
0100
0010
0001
1000
0010
1000
,
0001
0100
0001
0100
0010
0100
0010
0100
1000
0100
1000
0100
0010
0100
0001
1000
,
0001
0010
0001
0010
0100
0010
0100
0010
1000
0010
0100
0010
0001
1000
0001
0100
,
0020
0000
0000
0000
1030
0001
0010
0000
0100
0000
1000
0001
0200
0000
0000
0000
,
0320
0000
0000
0000
1030
0001
0010
0000
0100
0000
0010
0001
1000
0001
0100
0000
,
0001
0010
0100
1000
0100
0010
0001
0100
0010
1000
0010
0100
0002
0000
0000
0000
,
1003
0100
1000
0010
0100
0001
0010
0001
0100
0010
1000
0001
0020
0000
0000
0000
,
0130
0000
1000
0001
0100
0000
0010
1000
0001
0000
1000
0100
0010
0000
0001
0010
,
0100
0000
1000
0001
0010
0000
0001
1000
0010
0000
0100
0001
1000
0001
0010
0100
,
1000
0000
0001
1000
0010
0000
1000
0001
0010
0000
0100
1000
0001
0000
0100
0001
,
1000
0000
0000
0000
0000
0000
0001
0000
0000
0010
0000
0000
0100
0000
0000
1000
0000
0000
0100
0000
0000
1000
0000
0000
0001
0000
0000
0000
0100
0000
0000
0000
0010
0000
0000
0000
1000
0000
0000
0000
0000
0000
0000
0000
0000
0000
0000
0000
,
0001
0000
0010
0000
0200
0000
0000
0000
1300
0000
0100
0000
1000
0000
0001
0100
,
0001
0000
0010
0000
0100
1000
0001
0000
0200
0000
0000
0000
0310
0000
1000
0001
,
0020
0000
0000
0000
0230
0000
0000
0000
2300
0000
0000
0000
3001
0000
0100
0010
,
1000
0001
0010
0100
1001
0000
0110
0000
,
2002
0000
0000
0000
,
0000
0000
0000
0000
,
3003
0000
0000
0000
;

//--------------- dance-double - forcednature ----------------
#NOTEDATA:;
#STEPSTYPE:dance-double;
#DESCRIPTION:forcednature;
#CREDIT:forcednature;
#DIFFICULTY:Easy;
#METER:9;
#RADARVALUES:0,0,0,0,0;
#NOTES:
00000000
00000000
00000000
00000000
,
00000000
00000000
00000000
00000000
,
00000000
00000000
00000000
00000000
,
00000000
00000000
00000000
00000000
,
00000000
00000000
00000000
00000000
,
00022000
00000000
00000000
00000000
,
00033000
00000000
00000000
00000000
,
00022000
00000000
00000000
00033000
,
00000000
00001000
01000000
00001000
,
02000000
00000000
03100000
10000000
,
00200000
00000000
01300000
00001000
,
00010000
00000000
00000000
00000100
00000000
00000000
00010000
00000000
,
00000010
00000010
00000010
00000010
,
00002000
00000000
00003001
00000010
,
00000200
00000000
00010300
00001000
,
01000000
00010000
01000000
00100000
,
10000000
00100000
01000000
00000000
,
00001000
00020000
00000000
00030100
,
00002000
00000000
00003001
00000100
,
00000010
00001000
00000010
00010000
,
00001000
00100000
00010000
00000000
,
10000000
00000000
00000000
00000000
10000000
00000000
01000000
00000000
00000000
00100000
00000000
00000000
,
00000000
00100000
00000000
00001000
00000000
00000000
00010000
00000000
00000000
00000010
00000000
00000000
,
00000000
00000010
00000000
00001000
00000000
00000000
00000100
00000000
00000000
00000000
00000100
00000000
,
00000020
00000032
00002003
00003002
,
00000103
00000000
00000000
00000010
00000000
00001000
00000000
00000010
00000000
00001000
00000000
00000000
,
00000100
00000000
00010000
00000000
00001000
00000000
01000000
00010000
,
01000000
00100000
10000000
00010000
,
00200000
00000000
02300000
23000000
,
30010000
01000000
00001000
00010000
,
00000100
00001000
00000100
00000000
00000010
00000000
00000001
00000000
,
00000100
00000000
00000010
00000000
00001000
00000000
00000100
00001000
,
00000100
00010000
00001000
01000000
,
00010000
00100000
02000000
03000000
,
10000000
01000000
10000000
00000000
00010000
00000000
00100000
00000000
,
00001000
00010000
00000010
00001000
,
00000002
00000000
00000000
00000023
00000000
00000000
00000230
00000000
,
00001300
00000000
00000010
00000000
00010000
00001000
00010000
00000000
,
00002000
00000000
00000000
00003000
02000000
00000000
00000000
03000000
,
00020000
00000000
00000000
00030000
20000000
00000000
32000000
00000000
,
03200000
00000000
00010000
00000000
00010000
00000000
00010000
00300000
,
00100000
00001000
00100000
00000000
00010000
00000000
01000000
00000000
,
00001000
00000000
00000000
00011000
00000000
00000000
00000000
00010100
,
00000000
00000100
00001000
00000001
,
00000200
00000000
00000000
00000320
00000000
00000000
00020030
00000000
,
00031000
00100000
00020000
01000000
,
10030000
00000000
00000000
10010000
00000000
00000000
00010000
00000000
,
00100000
00001000
00010000
00000010
,
00001000
00001001
00000001
00001001
,
00001000
00000000
00000000
00000100
00000000
00000000
00000010
00000000
00000002
00000000
00000000
00000000
00000000
00000000
00000000
00000000
,
00000103
00000000
00000001
00000100
00000001
00000000
00001000
00000000
,
00000100
00000000
00010000
00001000
00010000
00000000
00100000
00000000
,
10000000
00100000
10000000
00000000
01000000
10000000
01000000
00000000
,
00100000
01000000
00100000
00000000
00010000
00100000
00010000
00000000
,
01000000
00001000
00010000
00000100
,
00001000
00000000
00000010
00000100
00000010
00000000
00001000
00000000
,
00000001
00000010
00000001
00000000
00000010
00000100
00000010
00000000
,
00000100
00010000
00000100
00000000
00010000
00001000
00010000
00000000
,
00022000
00000000
00000000
00033000
,
01000000
00010000
01000000
00000000
00100000
00000000
10000000
00000000
,
00010000
00100000
00010000
00000000
00100000
00000000
00001000
00000000
,
00010000
00000010
00010000
00000000
00000010
00000000
00001000
00000000
,
00000001
00000000
00000000
00000010
00000000
00000000
00000100
00000000
,
00010000
00000000
00000000
00000000
00001000
00000000
00000000
00000000
01000000
00000000
00000000
01000000
00000000
00000000
00010000
00000000
,
10000000
00000000
01000000
00100000
01000000
00000000
10000000
00000000
,
00010000
00000000
01000000
00000000
00001000
00010000
00001000
00000000
,
00010000
00010100
00000000
00001100
,
00000000
00000011
00000000
00000101
,
00000000
00010010
00000000
00101000
,
00000000
00100000
00010000
01000000
,
01100000
00000000
00100000
10000000
,
00000000
10000000
01000000
00000000
,
00010000
00001000
00010000
00000100
,
00001000
00000001
00001000
00000000
00000010
00000000
00000100
00000000
,
00002002
00000000
00000000
00000000
,
00000000
00000000
00000000
00000000
,
00003003
00000000
00000000
00000000
;

//--------------- dance-double - forcednature ----------------
#NOTEDATA:;
#STEPSTYPE:dance-double;
#DESCRIPTION:forcednature;
#CREDIT:forcednature;
#DIFFICULTY:Medium;
#METER:13;
#RADARVALUES:0,0,0,0,0;
#NOTES:
00000000
00000000
00000000
00000000
,
00000000
00000000
00000000
00000000
,
00000000
00000000
00000000
00000000
,
00000000
00000000
00000000
00000000
,
00000000
00000000
00000000
00000000
,
00022000
00000000
00000000
00000000
00000000
00000000
00000000
00000000
00000000
00000000
00000000
00000000
00000000
00033000
00000000
00000000
,
00100000
00100000
00000000
00000000
00000000
00000000
00001000
00000000
,
00022000
00000000
00000000
00033000
,
00000010
00001000
00000010
00000000
00000100
00000100
00000001
00001000
,
00000200
00000000
00000010
00001300
,
00021000
00000000
00000000
00000000
00100000
00000000
00031000
00010000
,
00001000
00000000
01000000
00000000
00010000
00000000
01000000
00000000
00100000
00000000
10000000
00000000
00010000
00100000
00010000
00100000
,
01000000
00000000
00100000
00100000
00001000
00001000
00010000
00010000
,
00000010
00001000
00000200
00000000
00000000
00000000
00000310
00000001
,
00001000
00000010
00020000
00000000
00031000
00100000
00010000
00100000
,
02000000
00000000
13000000
00010000
02000000
00000000
03002000
00000000
,
00013000
00000100
00000010
00000100
00001000
00001000
00000001
00000100
,
00001000
00010000
00200000
00000000
00000000
00000000
10300000
00010000
,
00200000
02300000
03020000
00032000
,
00003010
00000000
00000000
00000000
00000100
00001000
00000100
00000000
00002000
00000000
00000000
00000000
00003002
00000000
00000000
00000000
,
00000103
00000001
00000100
00000000
00000010
00000000
00001000
00000000
00000020
00000000
00000000
00000000
00020030
00000000
00000000
00000000
,
00031000
00100000
00001000
00100000
00001000
00100000
00002000
00000000
00000000
00013000
00000010
00010000
,
00000010
00010000
00000010
00010000
00000000
00000000
00001000
00000000
00000000
01000000
00010000
01000000
,
00010000
01000000
00010000
02000000
00000000
00000000
03001000
00010000
00001000
00010000
00001000
00010000
,
00000100
00000000
00000000
00000010
00000000
00000000
00000001
00000010
00000100
00002000
00000000
00000000
,
00003010
00001000
00000010
00002000
00000000
00000000
00003100
00010000
00000100
00020000
00000000
00000000
,
00031000
01000000
00020000
00000000
00000000
00000000
00130000
01000000
,
00100000
00000000
00001000
00000000
00020000
00000000
00000000
00000000
00000000
00000000
00000000
00000000
00030010
00000000
00001000
00000010
,
00002000
00000000
00000000
00000000
00003001
00000000
00000100
00000001
00000200
00000000
00000000
00000000
00000320
00000000
00000000
00000000
,
00010030
00001000
00100000
01000000
00100000
00001000
00010000
00100000
,
01000000
00000000
00010000
01000000
00020000
00000000
00000000
00000000
00000000
00000000
00000000
00000000
00130000
00000000
01000000
00000000
,
00100000
00000000
00001000
00010000
00002000
00000000
00000000
00000000
01003000
00000000
00010000
00000000
01000000
00001000
01000000
00000000
,
00002000
00000000
00000000
00000000
00013000
00000010
00010000
00000000
00000020
00000000
00000000
00000000
00002030
00000000
00000000
00000000
,
00003002
00000000
00000013
00000010
00000100
00000100
00010000
00000000
,
00001000
01000000
00010000
01000000
00100000
10000000
00020000
00000000
,
00230000
00000000
00000000
00000000
01300000
00000000
00100000
00000000
00002000
00000000
00000000
00000000
00013000
00001000
00010000
00000000
,
00000020
00000000
00001030
00000200
00000000
00000301
00000200
00000000
,
00000310
00000001
00000100
00001000
00010000
01000000
10000000
00100000
,
02000000
00000000
00000000
00000000
03000000
00000000
00001000
00010000
00002000
00000000
00000000
00000000
00003000
00000000
00000010
00000100
,
00000020
00000000
00000000
00000000
00000030
00000000
00000001
00001000
00000002
00000000
00000000
00000000
00000203
00000000
00000000
00000000
,
00002300
00010000
00100000
00013000
,
00001000
01000000
00001000
01000000
00010000
10000000
00100000
00000000
,
10000000
01000000
00010000
00011000
00000000
00001000
00000100
00000110
,
00000000
00000000
00000010
00000000
00001000
00000000
00001000
00000000
00000001
00000000
00000010
00000100
00000010
00000000
00000000
00000000
,
00001100
00000000
00010000
00011000
00000000
00001000
01000000
00010000
,
01000000
00100000
10000000
00000000
02000000
00000000
03100000
01000000
,
00010000
01000000
00000000
00110000
00000000
00001000
00010000
00000010
,
00001000
00000000
00000000
00000100
00000000
00000000
00000010
00000000
00000000
00000001
00000000
00000000
00001000
00000000
00000010
00000000
00001000
00000000
00000020
00000000
00000000
00000000
00000000
00000000
,
00010030
00000000
00000000
00000000
00010000
00000000
00001000
00000000
00000000
00000000
00001000
00000000
00100000
00000000
00000000
00000000
00100000
00000000
00010000
00000000
00000000
10000000
00000000
00000000
,
00100000
00000000
00000000
00100000
00000000
00000000
01000000
00000000
20020000
00000000
00000000
00000000
30030000
00000000
00000000
00000000
,
00010000
00000000
00100000
00000000
01000000
00000000
00100000
00000000
00010000
00000000
00000000
00001000
00000000
00000000
00000100
00000000
,
00000010
00000001
00000100
00000001
00000010
00001000
00010000
00100000
,
01000000
10000000
01000000
00010000
01000000
10000000
01000000
00010000
,
00001000
00000100
00000001
00000100
00001000
00000100
00000001
00000100
,
00000010
00000001
00000100
00000002
00000000
00000013
00002000
00000000
,
00023000
00000000
00000000
00130000
02000000
00000000
03010000
10000000
,
01000000
00010000
01000000
10000000
01000000
00010000
01000000
10000000
,
00100000
00010000
00001000
00000010
00000100
00001000
00000001
00000100
,
00000020
00000000
00000000
00000000
00000000
00000000
00000030
00010000
,
00001000
00000000
00100000
00010000
00100000
00000000
00001000
00000000
00010000
00000000
00100000
00000000
01000000
00000000
00100000
00000000
,
10000000
01000000
00010000
01000000
10000000
00100000
00010000
00001000
,
00000010
00000100
00001000
00000100
00000010
00000001
00000100
00001000
,
00020000
00000000
00130000
20000000
00000000
31000000
00020000
00000000
,
00032000
00000000
00000000
00000000
00003010
00000000
00000001
00000000
00000100
00000000
00000000
00000001
00000000
00000000
00000010
00000000
,
00000100
00010000
00001000
00010000
00100000
10000000
00020000
00000000
,
00130000
00100000
01000000
01000000
00010000
00001000
00000200
00000000
,
00000310
00010000
00011000
00000000
00100000
00001000
00011000
00000000
,
00000100
00010000
00011000
00000000
01000000
00001000
00011000
00000000
,
00010000
00100000
10000000
01000000
00010000
00001000
00000010
00000100
,
00010000
00000000
00000000
00000000
00000000
00000000
00001000
00000000
00000000
00000000
00000000
00000000
00000100
00000000
00000000
00000010
00000000
00000000
00000100
00000000
00000000
00000000
00000000
00000000
00000001
00000000
00000000
00000000
00001000
00000000
00000000
00000000
00000001
00000000
00000000
00000000
00001000
00000000
00000000
00000000
00000000
00000000
00000000
00000000
00000000
00000000
00000000
00000000
,
00000100
00010000
00002000
00000000
01003000
00010000
01000000
00100000
,
10000000
00010000
00100000
01000000
00200000
00000000
00301000
00010000
,
00000020
00000230
00002300
00023000
,
01030000
10000000
00100000
00010000
00001000
00000000
00000010
00000000
,
00002002
00000000
00000000
00000000
,
00000000
00000000
00000000
00000000
,
00003003
00000000
00000000
00000000
;

//--------------- dance-double - forcednature ----------------
#NOTEDATA:;
#STEPSTYPE:dance-double;
#DESCRIPTION:forcednature;
#CREDIT:forcednature;
#DIFFICULTY:Hard;
#METER:17;
#RADARVALUES:0,0,0,0,0;
#NOTES:
00000000
00000000
00000000
00000000
,
00000000
00000000
00000000
00000000
,
00000000
00000000
00000000
00000000
,
00000000
00000000
00000000
00000000
,
00000000
00000000
00000000
00000000
,
00022000
00000000
00000000
00000000
00000000
00000000
00000000
00000000
00000000
00000000
00000000
00000000
00000000
00033000
00000000
00000000
,
00100000
00000000
01000000
00000000
00000000
00000000
00000000
00000000
00000000
00000000
10000000
00010000
00100000
00000000
00000000
00000000
,
00012000
00000000
00000000
00000010
00000000
00003010
00001000
00010000
,
00000100
00000000
00000110
00000000
00000000
00000000
00000010
00000000
00000001
00001000
00000010
00000000
00010000
00001000
00010000
00001000
,
02000000
00000000
00000000
10000000
10000000
00000000
03100000
01000000
,
00001000
00020000
00000010
00000000
00031000
00000010
00000001
00000010
,
00000100
00000000
00001000
00000100
00001000
00000000
00000010
00000000
00010000
00001000
00010000
00000000
00001000
01000000
00010000
01000000
,
00100000
00000000
10000000
00000000
00010000
00100000
00010000
00100000
00001000
00010000
00001000
00010000
00000010
00001000
00000010
00001000
,
00000001
00000000
00000010
00000000
00000200
00000000
00000000
00000000
00000001
00000000
00000000
00000000
00001300
00000100
00010000
00001000
,
00010000
00000000
00001000
01000000
00020000
00000000
00000000
00000000
00130000
00000000
01000000
00000000
10000000
00010000
10000000
00010000
,
02000000
00000000
00000000
00000000
03001000
00000000
00010000
00000100
00002000
00000000
00000000
00000000
00003002
00000000
00000000
00000000
,
00000103
00000000
00000001
00000100
00000001
00000100
00000010
00000000
00001000
00000010
00010000
00000000
00001000
00100000
00001000
00100000
,
00010000
00000000
10000000
00000000
00200000
00000000
00000000
00000000
00010000
00000000
00000000
00000000
10300000
00100000
01000000
00010000
,
01000000
00000000
00001000
00000000
00010000
00000000
00000100
00001000
00000100
00000000
00000010
00000001
00001000
00000001
00000100
00000000
,
00000110
00000000
00000000
00000000
00000010
00001000
00000010
00010000
00001000
00000000
00100000
00010000
00200000
00000000
00000000
00000000
,
01300000
10000000
00010000
01000000
00001000
00010000
00001000
00100000
00010000
00000000
00001000
00000000
00000200
00000000
00000000
00000000
,
00000310
00000001
00000100
00001000
00010000
01000000
20000000
00000000
00000000
30100000
10000000
01000000
,
00010000
00001000
00000100
00000001
00000000
00000000
00001001
00000000
00000000
00000100
00000001
00000010
,
00001000
00010000
00100000
20000000
00000000
00000000
31000000
10000000
00100000
00010000
00001000
00000010
,
00000001
00000000
00000000
00001001
00000000
00000000
00001000
00000100
00010000
00002000
00000000
00000000
,
01003000
00010000
01000000
00100000
10000000
00010000
00100000
01000000
00100000
00001000
00010000
00000010
,
00000100
00000000
00000001
00001000
00000100
00000000
00000010
00000000
00000100
00000000
00001000
00000000
00000010
00010000
00001000
01000000
,
00001000
00000000
00100000
00010000
10000000
00000000
00100000
00000000
10000000
00000000
01000000
00000000
00100000
00010000
00100000
00001000
,
00020000
00000000
00000000
00000000
00030010
00001000
00000010
00000100
00000001
00000000
00000010
00000100
00000010
00000000
00000100
00000000
,
00010000
00000000
00001000
01000000
00001000
01000000
00010000
01000000
00010000
00000000
10000000
00000000
01000000
00100000
00010000
00100000
,
00001000
00000000
00010000
00000010
00001000
00000000
00000100
00000000
00001000
00000000
00000001
00000000
00000100
00000010
00001000
00000010
,
00010000
00000000
00001000
00100000
00010000
00000000
10000000
00000000
00100000
00000000
10000000
00000000
00010000
00100000
01000000
10000000
,
00200000
00000000
00000000
00000000
01300000
00010000
01000000
00001000
00020000
00000000
00000000
00000000
00030100
00000000
00000000
00000000
,
00000110
00000000
00000000
00000000
00000010
00000001
00000010
00000001
00001000
00000010
00000100
00000010
00001000
00000000
00001000
00000000
,
00000100
00000000
00010000
00000000
00001000
00000000
01000000
00000000
00010000
00000000
00100000
01000000
10000000
01000000
00100000
01000000
,
10000000
00000000
00010000
00000000
01000000
00000000
00001000
00010000
00001000
00000000
00010000
00000100
00001000
00000100
00001000
00000001
,
00000010
00000000
00000100
00000000
00010000
00001000
00010000
00000000
00100000
00000000
01000000
00010000
20000000
00000000
00000000
00000000
,
31000000
00100000
01000000
00100000
00010000
10000000
00010000
00000000
01000000
00001000
00010000
00001000
00010000
00000010
00001000
00000010
,
00000200
00000000
00000000
00000000
00000301
00001000
00000100
00000010
00000002
00000000
00000000
00000000
00000103
00000001
00001000
00000010
,
00001000
00000000
00000100
00000000
00010000
00001000
01000000
00000000
00010000
00000000
00000000
00000000
00100000
00000000
00000000
00000000
,
12000000
00000000
00010000
00010000
00100000
00100000
13000000
00000000
,
01000000
00100000
01000000
00100000
00001000
00010000
00000010
00010000
00001000
00000000
00000100
00000001
00001000
00000001
00000010
00000000
,
00000100
00000000
00010000
00001000
01000000
00000000
01010000
00000000
00000000
00000000
00001000
00000000
00010000
00000000
00001100
00000000
,
00000000
00000000
00000001
00000000
00000100
00000001
00000100
00000010
00001000
00000000
00000100
00001000
00000100
00010000
00001000
00000000
,
00011000
00000000
00010000
00100000
00010000
00000000
00011000
00000000
00001000
00000010
00001000
00000000
00010000
00000100
00001000
00000100
,
00000010
00000000
00000001
00001000
00000010
00000000
00000000
00000000
00000200
00000000
00000000
00000000
00001000
00000000
00001000
00000000
,
00000310
00000100
00000010
00000100
00000001
00000000
00001001
00000000
00000000
00000000
00001000
00000000
00000100
00010000
00001000
00010000
,
00001000
00000000
00000000
01000000
00000000
00000000
00010000
00000000
00000000
00000000
00000000
00000000
10000000
00000000
00000000
00100000
00000000
00000000
10000000
00000000
00000000
00000000
00000000
00000000
01000000
00000000
00000000
00000000
00010000
00000000
00000000
00000000
00001000
00000000
00000000
00000000
00020000
00000000
00000000
00000000
00000000
00000000
00000000
00000000
00000000
00000000
00000000
00000000
,
00030100
00000000
00000000
00000000
00001000
00000000
00000000
00000000
00000100
00000000
00000000
00000000
00000010
00000000
00000000
00000000
00001000
00000000
00000000
00000000
00000010
00000000
00000000
00000000
00000001
00000000
00000000
00000000
00000100
00000000
00000000
00000000
00000001
00000000
00000000
00000000
00001000
00000000
00000000
00000010
00000000
00000000
00010000
00000000
00000000
00000010
00000000
00000000
,
00010000
00000000
00000000
00011000
00000000
00000000
00100000
00000000
10020000
00000000
00000000
00000000
01030000
00001000
00010000
00001000
,
00100000
00000000
00010000
00000000
10000000
00100000
10000000
00010000
00100000
00000000
01000000
10000000
00000000
01000000
00010000
00000000
,
00001000
00000000
00010000
00000000
00000010
00001000
00000010
00000100
00000001
00000000
00000010
00000000
00000100
00000000
00010000
00000000
,
00001000
00010000
00001000
00010000
00000100
00010000
00000100
00010000
00001000
00010000
00001000
00010000
00000010
00010000
00000010
00010000
,
00001000
00010000
00001000
00010000
00000100
00010000
00000100
00010000
00001000
00010000
00001000
00010000
00000010
00010000
00000010
00010000
,
00001000
00000000
00100000
00000000
00010000
10000000
00100000
00000000
01000000
00000000
00001000
00010000
00000020
00000000
00000000
00000000
,
00002030
00000000
00000000
00000000
00003100
00000001
00000100
00000000
00001000
00000000
00000010
00000000
00001000
00000010
00001000
00000100
,
00010000
00001000
00010000
00001000
01000000
00001000
01000000
00001000
00010000
00001000
00010000
00001000
00100000
00001000
00100000
00001000
,
00010000
00001000
00010000
00001000
01000000
00001000
01000000
00001000
00100000
00010000
00100000
01000000
10000000
01000000
00100000
00001000
,
00020000
00000000
00000000
00000000
00000000
00000000
00000000
00000000
00000000
00000000
00000000
00000000
00000000
00000000
00030010
00010000
,
00001000
00000000
00010000
00000100
00010000
00000000
00001000
00000000
01000000
00010000
01000000
00100000
10000000
00010000
00100000
00010000
,
01000000
00001000
01000000
00001000
00010000
00001000
00010000
00001000
00000010
00001000
00000010
00001000
00010000
00000100
00001000
00000100
,
00010000
00001000
00010000
00001000
00000100
00001000
00010000
00001000
01000000
00010000
01000000
00100000
10000000
00010000
10000000
01000000
,
00200000
00000000
00000000
00000000
00301000
00010000
00000010
00000000
00001000
00000000
00000010
00010000
00002000
00000000
00000000
00000000
,
00003020
00000000
00000000
00000000
00000130
00001000
00000010
00000000
00010000
00000000
00000010
00001000
00000100
00010000
00001000
00000000
,
01000000
00010000
01000000
00100000
10000000
00100000
01000000
00001000
00010000
00000100
00001000
00000100
00000020
00000000
00000000
00000000
,
00000031
00000100
00000010
00001000
00000010
00010000
00001000
00100000
00010000
00100000
01000000
10000000
00200000
00000000
00000000
00000000
,
01300000
00000000
00001000
00010000
00000100
00000000
00001000
00000100
00010000
00000000
00001000
01000000
00010000
00000000
01000000
00001000
,
00010000
00000000
00000010
00001000
00000100
00000000
00000010
00000100
00001000
00000000
00000010
00010000
00001000
00100000
00010000
00100000
,
01000000
00000000
10000000
00010000
01000000
00000000
00001000
00010000
00000100
00000000
00001000
00000001
00000100
00000000
00000010
00010000
,
00001000
00000000
00000000
00000000
00000000
00000000
00100000
00000000
00000000
00010000
00000000
00000000
10000000
00000000
00000000
00100000
00000000
00000000
10000000
00000000
00000000
00100000
00000000
00000000
01000000
00000000
00000000
00000000
00010000
00000000
00000000
00000000
01000000
00000000
00000000
00000000
00001000
00000000
00000000
00000000
00000000
00000000
00000000
00000000
00000000
00000000
00000000
00000000
,
00010000
00000000
00000100
00000000
00000020
00000000
00000000
00000000
00000130
00000000
00001000
00000000
00000001
00000000
00000100
00000001
,
00000100
00000000
00000010
00000000
00010000
00001000
01000000
00000000
00020000
00000000
00000000
00000000
00130000
00000000
01000000
10000000
,
00020000
00000000
00000000
00000000
00032000
00000000
00000000
00000000
00003002
00000000
00000000
00000000
00000103
00000000
00000001
00000010
,
00000100
00010000
00001000
01000000
00100000
00000000
01100000
00000000
,
20020000
00000000
00000000
00000000
,
00000000
00000000
00000000
00000000
,
30030000
00000000
00000000
00000000
;
