#VERSION:0.83;
#TITLE:forever under construction;
#SUBTITLE:;
#ARTIST:Tomoyuki Uchida;
#TITLETRANSLIT:;
#SUBTITLETRANSLIT:;
#ARTISTTRANSLIT:;
#GENRE:;
#CREDIT:;
#MUSIC:forever under construction.ogg;
#BANNER:forever under construction.png;
#BACKGROUND:forever under construction-bg.png;
#CDTITLE:./CDTitles/pnm 24 Usagi to neko to shounen no yume.png;
#SAMPLESTART:71.956;
#SAMPLELENGTH:15.000;
#SELECTABLE:YES;
#OFFSET:0.904;
#BPMS:0.000=170.000
,68.000=85.000
,69.500=170.000
,134.000=85.000
,166.000=170.000
;
#STOPS:69.500=0.176;
#TIMESIGNATURES:68.000=2=4,
70.000=4=4
;
#BGCHANGES:0.000=../BGAs/19cy.mp4=1.000=0=0=0=StretchNoLoop====,
99999.000=-nosongbg-=1.000=0=0=0=StretchNoLoop====
;
#FGCHANGES:;

//--------------- dance-single - forcednature ----------------
#NOTEDATA:;
#STEPSTYPE:dance-single;
#DESCRIPTION:forcednature;
#DIFFICULTY:Beginner;
#METER:4;
#RADARVALUES:0,0,0,0,0;
#CREDIT:forcednature;
#NOTES:
0000
0000
0000
0000
,
0000
0000
0000
0000
,
0000
0000
0000
0000
,
0000
0000
0000
0000
,
0000
0000
0000
0000
,
0000
0000
0000
0000
,
1000
0000
0000
0000
,
1000
0000
0000
0000
,
0001
0000
0001
0000
,
0001
0000
0000
0000
,
1001
0000
0000
0000
,
1000
0000
0000
0000
,
0010
0000
0000
0000
,
0100
0000
0100
0000
,
0001
0000
0000
0000
,
0010
0000
0000
0000
,
0001
0000
0001
0000
,
1000
0000
1001
0000
,
0000
0000
0001
0000
,
0000
0000
0100
0000
,
0100
0000
0010
0000
,
0010
0000
1000
0000
,
0000
0000
0001
0000
,
0000
0000
0010
0000
,
0010
0000
0100
0000
,
0000
0000
1000
0000
,
0010
0000
1000
0000
,
0000
0000
0010
0000
,
0100
0000
0010
0000
,
0000
0000
0100
0000
,
0001
0000
0100
0000
,
0001
0000
0010
0000
,
0010
0000
0100
0000
,
0000
0000
2000
0000
,
0000
3000
0002
0000
,
0000
0003
0200
0000
,
0000
0300
0020
0000
,
0000
0030
1000
0000
,
0100
0000
1000
0000
,
0001
0000
0010
0010
,
0001
0001
1000
1000
,
0010
0010
0100
0100
,
0100
0000
0110
0000
,
1001
0000
1000
0100
,
1000
0000
0001
0000
,
0010
0000
0001
0100
,
0001
0000
1000
0000
,
0010
0000
1000
0001
,
1000
0000
0100
0000
,
0010
0000
0001
1000
,
0001
0000
0100
0000
,
0010
0000
1001
0000
,
1000
0100
1000
0000
,
0010
0000
1001
0000
,
0001
0100
0001
0000
,
0010
0000
0110
0000
,
1000
0001
1000
0000
,
0010
0000
0100
0100
,
0001
0001
0100
0000
,
0010
0000
1001
0000
,
0000
0000
1000
0000
,
0100
0000
1000
0000
,
0001
0000
0010
0010
,
0010
0000
1001
0000
,
0000
0000
0001
0000
,
0100
0000
0001
0000
,
1000
0000
0010
0010
,
0010
0000
2002
0000
,
0000
0000
0000
0000
,
0000
0000
3003
0000
;

//--------------- dance-single - forcednature ----------------
#NOTEDATA:;
#STEPSTYPE:dance-single;
#DESCRIPTION:forcednature;
#DIFFICULTY:Easy;
#METER:9;
#RADARVALUES:0,0,0,0,0;
#CREDIT:forcednature;
#NOTES:
0000
0000
0000
0000
,
0000
0000
0000
0000
,
0000
0000
0000
0000
,
0000
0000
0000
0000
,
0000
0000
0000
0000
,
0000
0000
0000
0000
,
1000
0000
0100
0000
1000
0010
1000
0000
,
0001
0000
0100
0000
0001
0010
0001
0000
,
0100
0010
0100
0000
0010
0100
0010
0000
,
2002
0000
0000
3003
,
1000
1100
0001
0010
,
0001
0101
1000
0010
,
1000
1100
0001
0010
,
0100
0000
1000
0000
0001
1000
0001
0000
,
0100
0110
0010
1000
,
0100
0110
0010
0001
,
0100
1001
0010
1000
,
2002
0000
0000
3003
1000
0000
0100
0000
,
0010
0100
1000
0001
,
0010
0000
0001
1000
0001
0000
0100
0000
,
0010
0000
1000
0001
1000
0000
0100
0000
,
0010
0000
0001
0100
,
0010
0100
0001
1000
,
0010
0000
1000
0001
1000
0000
0100
0000
,
0010
0000
0001
1000
0001
0000
0200
0000
,
0310
0000
1001
0000
1000
0000
0100
0010
,
0100
0000
1000
0000
0001
0000
0100
0010
,
0100
0000
0001
0000
0010
0000
0001
1000
,
0001
0000
0100
0000
0010
0000
1000
0001
,
1000
0100
0110
0010
,
0001
0000
0100
0010
0100
0000
0010
0000
,
1000
0000
0100
0010
0100
0000
1000
0001
,
1000
0010
0220
0000
,
0000
0000
0330
0000
0002
0000
0000
0003
,
0020
0000
0000
0030
0200
0000
0000
0300
,
2000
0000
0000
3000
0010
0010
0010
0000
,
0100
0100
0100
0000
0001
0001
0001
0000
,
1000
1000
1000
0000
0100
0010
0100
0010
,
0001
1000
0001
1000
0010
0100
0010
0100
,
0001
0000
1000
0000
0001
0000
1000
0000
0100
0000
0010
0100
0010
0000
0100
0000
,
1000
0000
0001
1000
0001
0000
1000
0000
0010
0000
0100
0010
0100
0000
0010
0000
,
1000
0000
1000
0000
0002
0000
0000
0000
0013
0000
0000
0010
0000
0000
0010
0000
,
0000
0100
0000
0000
1000
0000
0001
0000
0100
0000
0000
0110
0000
0000
2002
0000
,
0000
0000
3003
0000
1000
0000
0100
1000
,
0001
0000
0010
0001
1000
0000
0010
0000
,
0100
0000
0001
0000
0010
0000
0100
1000
,
0001
0000
0010
0001
1000
0000
0010
0000
,
0100
0000
0001
0000
0010
0000
0100
1000
,
0010
0000
0100
0001
0010
0000
0001
0000
,
0100
0000
0010
0000
1000
0000
0100
0010
,
0001
0000
0100
0010
1000
0000
0001
0000
,
0010
0100
0110
0010
,
0001
0000
1000
0010
0100
0000
0010
0000
,
1000
0000
0100
0010
0001
0000
0100
0000
,
0010
0000
1000
0001
0010
0000
0100
0000
,
1000
0001
1001
1000
,
0110
0001
1001
0100
,
0010
0000
0010
0000
0010
0000
0000
0000
1000
0000
0000
0001
0000
0000
1000
0000
,
0001
0000
0000
1000
0000
0000
0020
0000
0000
0000
0130
0000
0100
0000
0000
0000
,
0001
1000
0001
0000
0010
0000
0010
0000
,
0100
0000
1000
0000
0010
0100
0010
0000
,
0100
0001
0100
0000
0010
0000
1000
0000
,
0001
0000
0010
0000
0100
1000
0100
0000
,
0010
0001
0010
0000
0001
0000
1000
0000
,
0010
0000
0100
0000
0001
0010
0001
0000
,
1000
0010
1000
0000
1001
0000
0010
0000
,
1001
0100
0220
0330
,
0001
1000
0001
0000
2002
0000
0000
0000
,
0000
0000
0000
0000
,
0000
0000
3003
0000
;

//--------------- dance-single - forcednature ----------------
#NOTEDATA:;
#STEPSTYPE:dance-single;
#DESCRIPTION:forcednature;
#DIFFICULTY:Medium;
#METER:14;
#RADARVALUES:0,0,0,0,0;
#CREDIT:forcednature;
#NOTES:
0000
0000
0000
0000
,
0000
0000
0000
0000
,
0000
0000
0000
0000
,
0000
0000
0000
0000
,
0000
0000
0000
0000
,
0000
0000
0000
0000
,
1000
0100
1000
0010
1000
0100
1000
0000
,
0001
0100
0001
0010
0001
0100
0001
0000
,
0010
0000
0010
0000
0100
0000
0100
0000
1000
0000
1000
0000
0001
1000
0001
1000
,
0002
0000
0000
0103
0010
0000
0110
0000
,
1000
0100
0001
0100
1000
0001
0010
0000
,
0001
0100
1000
0100
0001
1000
0010
0000
,
1000
0100
1000
0010
0100
0001
0010
0000
,
0001
0000
0100
0000
1000
0000
0100
0000
0001
0000
1000
0010
1000
0000
0000
0000
,
0001
0010
0100
0010
0100
1000
0001
0100
,
0010
1000
0010
0100
0001
1000
0100
0000
,
0010
0000
0001
0000
0100
0000
0010
1000
0010
0000
0100
0000
0002
0000
0000
0000
,
0013
0000
0010
0010
0100
0000
1001
0000
1000
0000
0100
0000
0001
0000
0100
0000
,
1000
0001
0010
0001
1000
0010
0001
0010
,
1000
0001
0100
0001
2000
0000
3010
0100
,
0002
0000
0013
0100
1000
0010
0100
0010
,
1000
0100
0001
0000
0100
1000
0001
0010
,
1000
0010
0001
1000
0010
0001
0010
1000
,
0001
0100
1000
0100
0002
0000
0013
0100
,
1000
0000
0000
0010
0100
0000
0100
0000
0002
0000
0000
0000
1000
0000
1000
0000
,
1003
0000
0011
0000
0001
0100
1000
0100
,
0001
1000
0010
1000
0001
0010
1000
0010
,
0001
1000
0100
1000
0020
0000
0130
0001
,
0020
0000
0130
1000
0001
0100
0010
1000
,
0001
0010
0110
0000
0100
1000
0010
1000
,
0100
0010
0001
0100
0010
1000
0100
0001
,
0100
1000
0010
0100
0102
0000
0013
0100
,
1000
0000
1000
0000
0001
0000
1000
0001
2000
0000
0000
0000
0010
0000
0000
0000
,
3100
0100
0010
0000
0002
0100
0103
0001
,
2000
0000
0100
0000
3100
0000
1000
0000
0200
0000
0310
0001
0000
1000
0010
2000
,
0000
0000
0000
0000
3001
0000
0200
0000
0000
0000
0320
0000
0000
0000
1030
0000
0001
0000
0000
0001
0000
0000
0010
0000
0000
0001
0000
0000
0100
0000
0000
0000
,
0010
0000
0000
0010
0000
0000
1000
0000
0000
0001
0000
0000
0100
0000
0000
0000
0010
0000
0000
1000
0000
0000
0100
0000
0000
1000
0000
0000
0001
0000
0000
0000
,
0010
0000
0000
0010
0000
0000
0100
0000
0000
1000
0000
0000
0001
0000
0000
0000
0100
0000
0000
0001
0100
0000
0001
0000
0100
0001
0000
0000
0100
0000
0000
0000
,
0010
0000
0000
1000
0010
0000
1000
0000
0010
1000
0000
0000
0010
0000
0000
0000
1000
0000
0000
0100
1000
0000
0100
0000
1000
0100
0000
0000
1000
0000
0000
0000
,
0001
0000
0000
0010
0001
0000
0010
0000
0001
0010
0000
0000
0001
0000
0000
0000
0100
0000
0010
0000
0100
0000
0010
0000
1000
0000
0001
0000
1000
0000
0001
0000
,
0010
0100
0010
0100
1000
0001
1000
0001
0100
0100
0010
0010
1000
1000
0001
0001
,
0020
0000
0000
0000
0230
0000
0000
0000
0310
0100
0010
0100
0010
0000
0000
0000
0001
0000
1000
0000
0000
0000
0001
0000
1000
0000
0000
0000
0001
0000
0100
0000
,
0000
0000
0010
0000
0010
0000
1000
0000
0100
0010
0000
0100
0010
0000
0100
0010
,
0000
0100
1001
0000
1000
0100
0001
0100
,
1000
0001
0010
0011
0000
0001
0100
1000
,
0100
0001
1000
0010
0110
0000
0100
0001
,
0010
0100
1000
0010
0110
0000
0100
0001
,
1000
0100
1000
0001
0011
0000
0010
0100
,
1000
0010
0110
0100
0101
0000
0001
0010
,
0001
1000
1010
0010
0110
0000
0100
1000
,
0100
0001
0100
1000
0100
0001
0010
0001
,
0100
0000
0110
0000
1001
0000
0000
0000
1000
0000
0001
0010
0000
0100
0010
0000
,
0001
0000
1000
0000
1100
0000
0000
0000
1000
0000
0010
0100
0000
0010
1000
0000
,
0001
0000
0100
0000
0101
0000
0000
0000
0001
0000
0010
0001
0000
1000
0100
0000
,
1000
0000
0010
0000
0000
0000
0110
0000
0000
0000
0010
1000
0010
0000
1000
0010
,
1000
0001
0100
0010
0120
0000
0130
0001
,
0021
0000
0130
1100
1020
0000
0130
0001
,
1001
0000
1000
0000
0100
0010
0100
0010
0100
0000
0000
0110
0000
0000
0010
0000
,
1001
0000
0000
1001
0000
0000
0120
0000
0000
0000
0130
0000
1001
0000
0000
1000
,
0002
0023
0230
2300
3020
0000
0130
1000
,
0100
0001
1000
0010
2000
0000
3100
0001
,
0100
1000
0001
0010
0002
0000
0103
0010
,
1000
0100
0001
0100
2000
0000
3010
0001
,
0010
0010
1000
0001
0201
0000
0310
1000
,
0100
0001
0100
1000
0020
0000
0130
1000
,
0100
0001
0010
0100
2100
0000
3010
0100
,
0102
0000
0000
0000
0013
0100
0010
0100
0020
0000
0000
0000
0001
0000
0031
0000
,
1000
0010
0110
0000
2002
0000
0000
0000
,
0000
0000
0000
0000
,
0000
0000
3003
0000
;

//--------------- dance-single - forcednature ----------------
#NOTEDATA:;
#STEPSTYPE:dance-single;
#DESCRIPTION:forcednature;
#DIFFICULTY:Hard;
#METER:17;
#RADARVALUES:0,0,0,0,0;
#CREDIT:forcednature;
#NOTES:
0000
0000
0000
0000
,
0000
0000
0000
0000
,
0000
0000
0000
0000
,
0000
0000
0000
0000
,
0000
0000
0000
0000
,
0000
0000
0000
0000
,
1000
0000
0100
0000
1000
0000
0010
0000
1000
0000
0100
0010
0000
0001
0010
0000
,
0001
0000
0100
0000
0001
0000
0010
0000
0001
0000
0100
0010
0000
1000
0010
0000
,
1000
0000
1000
0000
0100
0000
0100
0000
0010
0001
0010
0001
1000
0100
0010
0001
,
2000
0000
3010
1000
0002
0000
0103
0000
,
1001
0000
0000
0000
1000
0000
0000
0000
0100
0000
0010
0100
0000
1000
0001
0000
,
0010
0000
0000
0000
0001
0000
0000
0000
0100
0000
0001
1000
0000
0010
0100
0000
,
0001
0000
0000
0000
1000
0000
0000
0000
0100
0000
1000
0001
0000
0010
0001
0000
,
2000
0000
3000
0000
2000
0000
3020
0000
1030
0000
1000
0001
0100
0000
0010
1000
,
0001
0000
0000
0010
0000
0001
0010
0000
0100
0000
1000
0001
0000
0100
0001
0000
,
1000
0000
0000
0010
0000
1000
0010
0000
0100
0000
0001
1000
0000
0100
1000
0100
,
0010
0000
0000
0001
0000
0010
0001
0010
0100
0000
1000
0100
0010
0100
0010
0001
,
2000
0000
3001
0001
0100
0010
1001
0000
0001
0000
0100
0010
0000
0100
0010
0000
,
1000
0000
0000
0001
0000
0000
0010
0000
0100
0000
1000
0001
0000
1000
0001
0000
,
0100
0000
0000
0010
0000
0000
1000
0000
0002
0000
0000
0000
0013
0000
0001
1000
,
0200
0000
0010
0010
0010
0000
1000
1000
,
1300
0000
0001
0100
0001
0000
0100
0010
1000
0000
0100
0010
0000
0100
0010
0000
,
0001
0000
0000
1000
0000
0000
0010
0000
0100
0000
0001
1000
0000
0001
1000
0000
,
0100
0000
0000
0010
0000
0000
0001
0000
2000
0000
0000
0000
3010
0000
1000
0001
,
0200
0000
0010
0310
0020
0000
1030
0001
,
1000
0000
0100
0010
0001
0000
1000
0100
1000
0000
0001
0100
0000
0010
0100
0000
,
0001
0000
1000
0100
0000
0010
0100
0000
1000
0000
0001
0010
0000
0001
1000
0000
,
0010
0000
0100
0001
0000
1000
0010
0000
1000
0000
0100
0000
0010
0000
0100
0010
,
0001
0000
1000
0000
0010
0000
0100
0010
0100
0000
0001
0100
0001
0000
0010
0001
,
0010
0000
0010
0000
0100
1000
0100
1000
0001
0000
0100
0010
0000
0100
0001
0000
,
1000
0000
0100
0010
0000
0100
1000
0000
0010
0000
0100
0001
0000
1000
0001
0000
,
0010
0000
0100
1000
0000
0001
1000
0001
0020
0000
0000
0000
0031
0000
1000
0010
,
0100
0000
0001
0000
0100
0001
0100
0010
2000
0000
0000
0000
0100
0000
0000
0000
,
3001
0000
0000
0001
0010
0000
0100
0000
2000
0000
0000
0000
0000
0000
3010
0200
,
0000
0000
0000
0000
0000
0301
1000
0020
0000
0000
0130
0002
0000
1003
0100
0020
,
0000
0000
0000
0000
0031
0000
2000
0000
0000
0000
3020
0000
0000
0000
0230
0000
0001
0000
0000
0001
0000
0000
0010
0000
0000
0010
0000
0000
0001
0000
0000
0000
,
0010
0000
0000
0010
0000
0000
0001
0000
0000
0001
0000
0000
0310
0000
1000
0000
0002
0000
0000
0023
0000
0000
0230
0000
0000
0320
0000
0000
0032
0000
0000
0003
,
2000
0000
0000
3020
0000
0000
0230
0000
0000
0302
0000
0000
2003
0000
0000
3000
0001
0000
0000
0010
0001
0000
0010
0000
0100
0010
0000
0100
1000
0000
0000
0000
,
0001
0000
0000
0100
0001
0000
0100
0000
0010
0100
0000
0010
1000
0000
0001
0000
1000
0000
0000
0100
1000
0000
0100
0000
0010
0100
0000
0010
0001
0000
0000
0000
,
1000
0000
0000
0010
1000
0000
0010
0000
0100
0010
0000
0100
0001
0000
0000
0000
1000
0000
0100
0000
1000
0000
0010
0000
1000
0000
0100
0000
1000
0000
0010
0000
,
0100
0000
0001
0000
0010
0000
0001
0000
0100
0000
0001
0000
0010
0000
0001
0000
1000
0010
1000
0010
1000
0010
1000
0010
0100
0001
0100
0001
0100
0001
0100
0001
,
1000
0100
1000
0100
0010
0001
0010
0001
0100
0010
0100
0010
0100
0010
0100
0010
1000
0000
0001
0000
0000
0000
0100
0000
0010
0000
0000
0000
1000
0000
0100
0000
,
0000
0010
0001
0000
0100
0000
0010
1000
0001
0100
0000
1000
0100
0000
0010
0020
,
0000
0000
1030
0001
0010
0000
0000
0000
0100
0000
1000
0100
0000
1000
0001
0010
,
0001
0000
1000
0010
0000
0100
2000
0000
0000
0000
3100
0000
0001
1000
0010
0000
,
1000
0001
0100
0001
1000
0000
0100
0000
0010
0000
0001
1000
0000
0010
1000
0000
,
0001
0100
0010
0100
0001
0000
1000
0000
0100
0000
0010
0001
0000
1000
0001
0000
,
0100
0010
0100
0010
1000
0000
0010
0100
0001
0000
1000
0100
0000
0010
0100
0000
,
0010
0001
1000
0100
1000
0000
0001
0000
0100
0000
0010
0100
0010
0000
1000
0000
,
0001
0010
0100
1000
0001
0000
0200
0000
0000
0000
1300
0000
0100
0000
0001
1000
,
0010
1000
0001
0100
0001
1000
0010
0100
0001
1000
0100
1000
0001
0010
0100
0010
,
0002
0000
0000
0000
0103
0000
0010
1000
0001
0000
0010
0100
0000
0010
0001
0000
,
1000
0100
1000
0001
0010
0000
2000
0000
0000
0000
3010
0001
0010
0001
0100
0010
,
0100
0000
0001
0000
0100
0000
2000
0000
0000
0000
3100
0001
0100
0001
1000
0010
,
1000
0000
0001
1000
0100
0000
0002
0000
0000
0000
0103
1000
0100
0010
0100
1000
,
0001
0010
0001
1000
0100
1000
0001
0010
0001
0000
0100
0010
0000
1000
0010
1000
,
0001
0000
0010
0100
0000
1000
0100
1000
0001
0000
0010
0001
0000
1000
0010
1000
,
0001
0000
0001
0000
0100
0010
0100
0010
1000
0000
0000
1100
0000
0000
0001
0010
,
0100
0010
0001
1000
0001
0100
2000
0000
0000
0000
3100
0000
0110
0000
0000
0010
,
1000
0000
0001
0010
0100
0000
0000
0000
1000
0000
0010
0000
1000
0100
0001
0100
,
1000
0000
0001
0000
0010
0100
0010
0100
1000
0000
0001
0000
0100
1000
0100
0000
,
0001
0000
0010
0001
2000
0000
0000
0000
3001
0000
0010
0000
0001
0100
1000
0100
,
0001
0000
1000
0000
0010
0100
0010
0100
0001
0000
0010
0100
1000
0000
0001
0100
,
1000
0100
0001
1000
0010
0100
0010
1000
0001
0000
0010
0000
0001
0100
1000
0100
,
0001
0000
0010
0000
0100
1000
0100
1000
0010
0000
0100
0001
1000
0010
1000
0001
,
0100
0000
0001
1000
0100
0010
0100
0010
0001
0000
0001
0100
1000
0000
1000
0100
,
0001
0000
1000
0001
0010
0100
0010
0100
2000
0000
0000
0000
0000
0000
3000
0000
,
0001
0100
0010
1000
0100
0010
0001
0000
0220
0000
0000
0000
0000
0000
0000
0000
,
0000
0000
0000
0000
,
0000
0000
0330
0000
;

//--------------- dance-double - forcednature ----------------
#NOTEDATA:;
#STEPSTYPE:dance-double;
#DESCRIPTION:forcednature;
#DIFFICULTY:Easy;
#METER:9;
#RADARVALUES:0,0,0,0,0;
#CREDIT:forcednature;
#NOTES:
00000000
00000000
00000000
00000000
,
00000000
00000000
00000000
00000000
,
00000000
00000000
00000000
00000000
,
00000000
00000000
00000000
00000000
,
00000000
00000000
00000000
00000000
,
00000000
00000000
00000000
00000000
,
00001000
00000000
00010000
00000000
00000100
00001000
00000100
00000000
,
00010000
00000000
00001000
00000000
01000000
00010000
01000000
00000000
,
00100000
10000000
00100000
00000000
10000000
01000000
10000000
00000000
,
20020000
00000000
00000000
30030000
,
00010000
00110000
00001000
00010000
,
00000100
00001100
00000001
00000010
,
00000001
00000101
00001000
00000010
,
00010000
00000000
00001000
00000000
00010000
00001000
00010000
00000000
,
00001000
01001000
01000000
00010000
,
00100000
10010000
10000000
01000000
,
00100000
10010000
00010000
01000000
,
20020000
00000000
00000000
30030000
00010000
00000000
00100000
00000000
,
00001000
00010000
00000100
00001000
,
00000010
00000000
00000100
00000001
00000100
00000000
00001000
00000000
,
00010000
00100000
10000000
00010000
,
00100000
00000000
01000000
10000000
,
00100000
01000000
00010000
00100000
,
00001000
00000000
00010000
00001000
00010000
00000000
00000100
00000000
,
00001000
00000000
00000001
00000010
00000001
00000000
00000200
00000000
,
00000310
00000000
00001001
00000000
00001000
00000000
00000100
00010000
,
00001000
00000000
00100000
00000000
00001000
00000000
00010000
00001000
,
01000000
00000000
00010000
00000000
10000000
00000000
00100000
01000000
,
00100000
00000000
10000000
00000000
01000000
00000000
00100000
00010000
,
00100000
00001000
00011000
00010000
,
00000100
00000000
00001000
00001000
00000001
00000000
00000100
00000000
,
00000010
00000000
00001000
00001000
00000100
00000000
00010000
00001000
,
00010000
00001000
00022000
00000000
,
00000000
00000000
00033000
00000000
02000000
00000000
00000000
03000000
,
00020000
00000000
00000000
00030000
20000000
00000000
00000000
30000000
,
00200000
00000000
00000000
00300000
10000000
10000000
10000000
00000000
,
01000000
01000000
01000000
00000000
00010000
00010000
00010000
00000000
,
00001000
00001000
00001000
00000000
00000010
00000100
00000010
00000100
,
00001000
00000001
00001000
00000001
00000100
00000010
00000100
00000010
,
00010000
00000000
00001000
00000000
00010000
00000000
00001000
00000000
01000000
00000000
00010000
01000000
00010000
00000000
01000000
00000000
,
00100000
00000000
10000000
00100000
10000000
00000000
00100000
00000000
10000000
00000000
01000000
10000000
01000000
00000000
10000000
00000000
,
01000000
00000000
01000000
00000000
00020000
00000000
00000000
00000000
00031000
00000000
00000000
00001000
00000000
00000000
00001000
00000000
,
00000000
00000010
00000000
00000000
00000001
00000000
00000000
00000000
00000100
00000000
00000000
00000110
00000000
00000000
00002002
00000000
,
00000000
00000000
00003003
00000000
00001000
00000000
00000100
00010000
,
00001000
00000000
00100000
00001000
00010000
00000000
01000000
00000000
,
10000000
00000000
00100000
00000000
10000000
00000000
01000000
00010000
,
00001000
00000000
00100000
00010000
00100000
00000000
00001000
00000000
,
00010000
00000000
00000010
00000000
00001000
00000000
00000001
00000100
,
00001000
00000000
00000100
00000001
00000010
00000000
00000100
00000000
,
00010000
00000000
00001000
00000000
00100000
00000000
00010000
01000000
,
10000000
00000000
01000000
00010000
10000000
00000000
00100000
00000000
,
10000000
01000000
01100000
00100000
,
00001000
00000000
00010000
00000100
00001000
00000000
00000001
00000000
,
00000100
00000000
00000010
00001000
00000001
00000000
00000010
00000000
,
00000100
00000000
00001000
00000100
00010000
00000000
00001000
00000000
,
00100000
00010000
10010000
10000000
,
01100000
00010000
00011000
00001000
,
00010000
00000000
00010000
00000000
00010000
00000000
00000000
00000000
00000100
00000000
00000000
00000100
00000000
00000000
00001000
00000000
,
00000001
00000000
00000000
00000001
00000000
00000000
00000020
00000000
00000000
00000000
00000031
00000000
00000100
00000000
00000000
00000000
,
00000010
00001000
00000010
00000000
00010000
00000000
00010000
00000000
,
00001000
01000000
00010000
00100000
,
01000000
10000000
00100000
10000000
,
00010000
00000000
00100000
00000000
00001000
00010000
00001000
00000000
,
00010000
00001000
00010000
00000000
00000100
00000000
00001000
00000000
,
00000001
00000100
00000010
00001000
,
00000100
00010000
00011000
00100000
,
00011000
01000000
02200000
03300000
,
10000000
00010000
10000000
00000000
20020000
00000000
00000000
00000000
,
00000000
00000000
00000000
00000000
,
00000000
00000000
30030000
00000000
;

//--------------- dance-double - forcednature ----------------
#NOTEDATA:;
#STEPSTYPE:dance-double;
#DESCRIPTION:forcednature;
#DIFFICULTY:Medium;
#METER:14;
#RADARVALUES:0,0,0,0,0;
#CREDIT:forcednature;
#NOTES:
00000000
00000000
00000000
00000000
,
00000000
00000000
00000000
00000000
,
00000000
00000000
00000000
00000000
,
00000000
00000000
00000000
00000000
,
00000000
00000000
00000000
00000000
,
00000000
00000000
00000000
00000000
,
00001000
00010000
00000100
00001000
00000010
00010000
00001000
00000000
,
00010000
00001000
01000000
00010000
00100000
00001000
00010000
00000000
,
00000010
00000000
00000010
00000000
00001000
00000000
00001000
00000000
00000001
00000000
00000001
00000000
00000100
00000010
00000100
00000010
,
00002000
00000000
00000000
00003001
00000010
00000000
00000110
00000000
,
00000100
00010000
00001000
00100000
00010000
01000000
00100000
00000000
,
10000000
01000000
00010000
01000000
10000000
00010000
00100000
00000000
,
00001000
00010000
00000010
00001000
00000100
00000010
00000001
00000000
,
00000100
00000000
00001000
00000000
00010000
00000000
00000000
00000000
00001000
00000000
00010000
00001000
00010000
00000000
00000000
00000000
,
00001000
01000000
00010000
01000000
00100000
10000000
00010000
00000000
,
10000000
01000000
00010000
01000000
00100000
00001000
00010000
00000000
,
00000100
00000000
00001000
00000000
00000010
00000000
00000100
00000010
00000100
00000000
00000001
00000000
00000020
00000000
00000000
00000000
,
00000130
00000000
00000100
00000100
00010000
00000000
00011000
00000000
00001000
00000000
01000000
00000000
00010000
00000000
10000000
00000000
,
00100000
10000000
00010000
00100000
01000000
10000000
01000000
00010000
,
00001000
00100000
00010000
00000000
00200000
00000000
00301000
00010000
,
00000200
00000000
00010300
00001000
01000000
00010000
00100000
00001000
,
00010000
00000010
00001000
00000000
00000100
00000010
00000001
00000100
,
00000010
00001000
00000100
00000010
00001000
00010000
01000000
00100000
,
00001000
00010000
00001000
01000000
00020000
00000000
10030000
00100000
,
00010000
00000000
00000000
00010000
00001000
00000000
00001000
00000000
02000000
00000000
00000000
00000000
00010000
00000000
00010000
00000000
,
03010000
00000000
10100000
00000000
10000000
01000000
00010000
01000000
,
00100000
00001000
00010000
00000100
00001000
00000010
00010000
00000100
,
00001000
00000001
00000010
00000001
00000200
00000000
00001300
00000100
,
00002000
00000000
00013000
00001000
00010000
00100000
10000000
00010000
,
01000000
00100000
01100000
00000000
10000000
01000000
00010000
01000000
,
10000000
00010000
00100000
00010000
00001000
00000100
00001000
00000010
,
00000100
00000001
00000010
00000100
00020000
00000000
00031000
00100000
,
00010000
00000000
00010000
00000000
10000000
00000000
00010000
10000000
00020000
00000000
00000000
00000000
01000000
00000000
00000000
00000000
,
00130000
00100000
01000000
00000000
20000000
01000000
31000000
10000000
,
02000000
00000000
00010000
00000000
03010000
00000000
01000000
00000000
00020000
00000000
00031000
00010000
00000000
00000100
00001000
00000200
,
00000000
00000000
00000000
00000000
00000310
00000000
00000002
00000000
00000000
00000000
00000203
00000000
00000000
00000000
00000310
00000000
00001000
00000000
00000000
00001000
00000000
00000000
00000100
00000000
00000000
00010000
00000000
00000000
00001000
00000000
00000000
00000000
,
00100000
00000000
00000000
00100000
00000000
00000000
00010000
00000000
00000000
10000000
00000000
00000000
00100000
00000000
00000000
00000000
01000000
00000000
00000000
00010000
00000000
00000000
00100000
00000000
00000000
00001000
00000000
00000000
00010000
00000000
00000000
00000000
,
00000100
00000000
00000000
00001000
00000000
00000000
00000010
00000000
00000000
00010000
00000000
00000000
00001000
00000000
00000000
00000000
01000000
00000000
00000000
00010000
01000000
00000000
00010000
00000000
01000000
00010000
00000000
00000000
01000000
00000000
00000000
00000000
,
00001000
00000000
00000000
00010000
00001000
00000000
00010000
00000000
00001000
00010000
00000000
00000000
00001000
00000000
00000000
00000000
00010000
00000000
00000000
00000100
00010000
00000000
00000100
00000000
00010000
00000100
00000000
00000000
00010000
00000000
00000000
00000000
,
00000010
00000000
00000000
00001000
00000010
00000000
00001000
00000000
00000010
00001000
00000000
00000000
00000010
00000000
00000000
00000000
00000100
00000000
00000001
00000000
00000100
00000000
00000001
00000000
00001000
00000000
00000010
00000000
00001000
00000000
00000010
00000000
,
00010000
00001000
00010000
00001000
00100000
00010000
00100000
00010000
10000000
10000000
00100000
00100000
01000000
01000000
00010000
00010000
,
20000000
00000000
00000000
00000000
32000000
00000000
00000000
00000000
03100000
01000000
00100000
01000000
00100000
00000000
00000000
00000000
00010000
00000000
01000000
00000000
00000000
00000000
00010000
00000000
01000000
00000000
00000000
00000000
00010000
00000000
01000000
00000000
,
00000000
00000000
00001000
00000000
00001000
00000000
00010000
00000000
00001000
00010000
00000000
00001000
00010000
00000000
00001000
00010000
,
00000000
00000100
00001100
00000000
00001000
00000001
00000010
00001000
,
00000010
00000001
00000100
00002000
00000000
00013000
00100000
10000000
,
00010000
01000000
00010000
20000000
00000000
30100000
10000000
01000000
,
00010000
00001000
00100000
00020000
00000000
01030000
00001000
00010000
,
00000010
00000010
00000010
00000000
00001001
00000000
00001000
00000100
,
00000001
00000100
00001000
00000010
00001010
00000000
00010000
00001000
,
00100000
00010000
01000000
00100000
01100000
00000000
00010000
10000000
,
00100000
10000000
00010000
10000000
01000000
00010000
00001000
00010000
,
00001000
00000000
00000010
00000000
00000001
00000000
00000000
00000000
00000100
00000000
00000001
00000100
00000000
00000010
00000100
00000000
,
00000010
00000000
00001000
00000000
00000001
00000000
00000000
00000000
00001000
00000000
00000100
00001000
00000000
00000100
00010000
00000000
,
00001000
00000000
00100000
00000000
00010000
00000000
00000000
00000000
10000000
00000000
00100000
01000000
00000000
00010000
01000000
00000000
,
00010000
00100000
00000000
00011000
00000000
00000100
00000100
00000100
,
00000100
00001000
00000001
00000010
00000110
00000000
00000100
00010000
,
00011000
00000000
00001000
00100000
00110000
00000000
00010000
01000000
,
00100000
00000000
00100000
00000000
10000000
00010000
10000000
00010000
10000000
00000000
00000000
10000000
00000000
00000000
01000000
00000000
,
00010000
00000000
00000000
00001000
00000000
00000000
00000020
00000000
00000000
00000000
00000031
00000000
00001001
00000000
00000000
00001000
,
00000020
00000230
00002300
00023000
00230000
00000000
01300000
00010000
,
10000000
00100000
10000000
01000000
00020000
00000000
00031000
00100000
,
00001000
00010000
00000100
00001000
00000200
00000000
00000310
00000001
,
00000100
00000001
00000010
00001000
00020000
00000000
01030000
00010000
,
01000000
01000000
10000000
00010000
00210000
00000000
00301000
00010000
,
00000010
00001000
00000001
00000100
00002000
00000000
00013000
00001000
,
00010000
00100000
10000000
00010000
00210000
00000000
00301000
00010000
,
00010200
00000000
00000000
00000000
00001300
00000001
00001000
00000001
00002000
00000000
00000000
00000000
00003010
00000000
00000010
00000000
,
00000100
00000110
00001001
00000000
00000220
00000000
00000000
00000000
,
00000000
00000000
00000000
00000000
,
00000000
00000000
00000330
00000000
;

//--------------- dance-double - forcednature ----------------
#NOTEDATA:;
#STEPSTYPE:dance-double;
#DESCRIPTION:forcednature;
#DIFFICULTY:Hard;
#METER:17;
#RADARVALUES:0,0,0,0,0;
#CREDIT:forcednature;
#NOTES:
00000000
00000000
00000000
00000000
,
00000000
00000000
00000000
00000000
,
00000000
00000000
00000000
00000000
,
00000000
00000000
00000000
00000000
,
00000000
00000000
00000000
00000000
,
00000000
00000000
00000000
00000000
,
00001000
00000000
00010000
00000000
00000100
00000000
00001000
00000000
00000100
00000000
00010000
00001000
00000000
00100000
00010000
00000000
,
00100000
00000000
01000000
00000000
10000000
00000000
01000000
00000000
00100000
00000000
00010000
00100000
00000000
00001000
00010000
00000000
,
00000010
00000000
00000010
00000000
00001000
00000000
00001000
00000000
00000001
00000100
00000001
00000100
00000010
00001000
00000001
00000100
,
00000020
00000000
00000130
00001000
00020000
00000000
00031000
00000000
,
00011000
00000000
00000000
00000000
00010000
00000000
00000000
00000000
01000000
00000000
00000000
10000000
00000000
10000000
00100000
00000000
,
00010000
00000000
00000000
00000000
00001000
00000000
00000000
00000000
00000100
00000000
00000000
00000001
00000000
00000001
00000010
00000000
,
00001000
00000000
00000000
00000000
00010000
00000000
00000000
00000000
01000000
00000000
00000000
10000000
00000000
10000000
00100000
00000000
,
02000000
00000000
03000000
00000000
02000000
00000000
23000000
00000000
31000000
00000000
00010000
01000000
00010000
00000000
00100000
00001000
,
00010000
00000000
00001000
00010000
00000000
00000100
00001000
00000000
00000100
00000000
00000010
00000001
00000000
00001000
00000001
00000000
,
00000100
00000000
00000010
00000100
00000000
00000010
00001000
00000000
00000100
00000000
00010000
00001000
00000000
00010000
00001000
00100000
,
00010000
00000000
00100000
00010000
00000000
00100000
01000000
00100000
01000000
00000000
10000000
01000000
00000000
10000000
00010000
10000000
,
00020000
00000000
00130000
00100000
00001000
00010000
00011000
00000000
00000100
00000000
00001000
00000100
00000000
00000010
00000100
00000000
,
00000010
00000000
00000000
00000001
00000000
00000000
00000100
00000000
00000010
00000000
00000100
00000010
00000000
00001000
00000010
00000000
,
00001000
00000000
00000000
00000100
00000000
00000000
00010000
00000000
00002000
00000000
00000000
00000000
00103000
00000000
00010000
10000000
,
02000000
00000000
00100000
00100000
00100000
00000000
10000000
10000000
,
13000000
00000000
01000000
00100000
00010000
00000000
00100000
00010000
00100000
00000000
00001000
00010000
00000000
00001000
00010000
00000000
,
00000010
00000000
00000000
00001000
00000000
00000000
00000001
00000000
00000100
00000000
00000010
00001000
00000000
00000010
00001000
00000000
,
00000001
00000000
00000000
00000010
00000000
00000000
00001000
00000000
00020000
00000000
00000000
00000000
00031000
00000000
00010000
00001000
,
02000000
00000000
00010000
03010000
00020000
00000000
00130000
01000000
,
10000000
00000000
01000000
00100000
00010000
00000000
00100000
00001000
00010000
00000000
00001000
00010000
00000000
00000010
00001000
00000000
,
00000010
00000000
00000100
00000001
00000000
00000100
00000010
00000000
00001000
00000000
00000100
00001000
00000000
00000100
00010000
00000000
,
00001000
00000000
00100000
00010000
00000000
00100000
01000000
00000000
10000000
00000000
00010000
00000000
01000000
00000000
00100000
01000000
,
00100000
00000000
10000000
00000000
01000000
00000000
00100000
01000000
00100000
00000000
00010000
00100000
00010000
00000000
00100000
00001000
,
00010000
00000000
00010000
00000000
00001000
00010000
00001000
00010000
00000100
00000000
00001000
00000100
00000000
00000010
00000100
00000000
,
00000010
00000000
00000001
00001000
00000000
00000001
00000100
00000000
00000010
00000000
00001000
00000010
00000000
00001000
00000100
00000000
,
00010000
00000000
00001000
00010000
00000000
00001000
00010000
00001000
00200000
00000000
00000000
00000000
00310000
00000000
10000000
00100000
,
01000000
00000000
00010000
00000000
00100000
00010000
00100000
00001000
00020000
00000000
00000000
00000000
00000100
00000000
00000000
00000000
,
00031000
00000000
00000000
00001000
00000010
00000000
00000001
00000000
00000200
00000000
00000000
00000000
00000000
00000000
00001300
00020000
,
00000000
00000000
00000000
00000000
00000000
00130000
10000000
00200000
00000000
00000000
01300000
00020000
00000000
10030000
01000000
00020000
,
00000000
00000000
00000000
00000000
00031000
00000000
00000020
00000000
00000000
00000000
00000032
00000000
00000000
00000000
00000203
00000000
00000010
00000000
00000000
00000010
00000000
00000000
00000001
00000000
00000000
00000001
00000000
00000000
00000010
00000000
00000000
00000000
,
00001000
00000000
00000000
00001000
00000000
00000000
00000010
00000000
00000000
00000010
00000000
00000000
00000301
00000000
00000100
00000000
00002000
00000000
00000000
00023000
00000000
00000000
00032000
00000000
00000000
00203000
00000000
00000000
00320000
00000000
00000000
00030000
,
20000000
00000000
00000000
32000000
00000000
00000000
03020000
00000000
00000000
00032000
00000000
00000000
00203000
00000000
00000000
00300000
00010000
00000000
00000000
01000000
00010000
00000000
01000000
00000000
00100000
01000000
00000000
00100000
10000000
00000000
00000000
00000000
,
00010000
00000000
00000000
00100000
00010000
00000000
00100000
00000000
00001000
00010000
00000000
00001000
00010000
00000000
00000100
00000000
00001000
00000000
00000000
00000010
00001000
00000000
00000010
00000000
00000100
00000010
00000000
00000100
00000001
00000000
00000000
00000000
,
00000010
00000000
00000000
00000100
00000010
00000000
00000100
00000000
00001000
00000100
00000000
00010000
00001000
00000000
00000000
00000000
01000000
00000000
00010000
00000000
01000000
00000000
00010000
00000000
00100000
00000000
00001000
00000000
00100000
00000000
00001000
00000000
,
00010000
00000000
00000010
00000000
00010000
00000000
00000010
00000000
00001000
00000000
00000100
00000000
00001000
00000000
00000100
00000000
00010000
00001000
00010000
00001000
00010000
00001000
00010000
00001000
00100000
00010000
00100000
00010000
00100000
00010000
00100000
00010000
,
10000000
00100000
10000000
00100000
01000000
00010000
01000000
00010000
00100000
01000000
00100000
01000000
00100000
01000000
00100000
01000000
10000000
00000000
00010000
00000000
00000000
00000000
00100000
00000000
00001000
00000000
00000000
00000000
00010000
00000000
00000100
00000000
,
00000000
00001000
00000001
00000000
00000100
00000000
00000010
00000100
00000010
00001000
00000000
00000001
00000010
00000000
00000100
00000020
,
00000000
00000000
00000130
00001000
00000001
00000000
00000100
00000000
00001000
00000000
00010000
00001000
00000000
00010000
00001000
00100000
,
00010000
00000000
10000000
00100000
00000000
01000000
20000000
00000000
00000000
00000000
31000000
00000000
00010000
00000000
10000000
00000000
,
01000000
10000000
00010000
00100000
00010000
00000000
00100000
00000000
00001000
00000000
00010000
00001000
00000000
00010000
00000100
00000000
,
00001000
00000100
00001000
00000001
00000010
00000000
00000001
00000000
00000100
00000000
00000010
00000100
00000000
00000010
00001000
00000000
,
00000100
00001000
00000100
00010000
00001000
00000000
00010000
00001000
00010000
00000000
00001000
01000000
00000000
00010000
01000000
00000000
,
00100000
10000000
00100000
01000000
00010000
00000000
10000000
00000000
01000000
00000000
00100000
01000000
00100000
00000000
00010000
00000000
,
00100000
00010000
00100000
00001000
00010000
00000000
00000200
00000000
00000000
00000000
00000301
00000000
00000100
00000000
00001000
00000100
,
00001000
00000100
00000010
00000100
00000010
00000100
00001000
00000100
00001000
00000100
00010000
00001000
00010000
00001000
00100000
00010000
,
00100000
00000000
00100000
00000000
00010000
00000000
00100000
00001000
00010000
00000000
00001000
00010000
00000000
00001000
01000000
00000000
,
00010000
10000000
00010000
10000000
00100000
00000000
20000000
00000000
00000000
00000000
31000000
00100000
01000000
00100000
00010000
00100000
,
00010000
00000000
00100000
00000000
00001000
00000000
00020000
00000000
00000000
00000000
00030010
00001000
00000010
00001000
00000010
00000100
,
00000010
00000000
00000100
00000001
00001000
00000000
00000200
00000000
00000000
00000000
00000310
00000001
00001000
00000001
00000010
00000001
,
00001000
00000010
00001000
00000010
00010000
00001000
00010000
00001000
00010000
00000000
00001000
00100000
00000000
00001000
00010000
00001000
,
00100000
00000000
01000000
00100000
00000000
01000000
10000000
01000000
00100000
00000000
00010000
00100000
00000000
00010000
00100000
00001000
,
00010000
00000000
00010000
00000000
00001000
00010000
00000100
00001000
00000100
00000000
00000000
00001100
00000000
00000000
00000001
00000100
,
00000010
00000100
00000001
00000100
00000010
00001000
00000002
00000000
00000000
00000000
00000013
00000000
00000110
00000000
00000000
00000100
,
00001000
00000000
00000100
00010000
00002000
00000000
00000000
00000000
01003000
00000000
00010000
00000000
01000000
00100000
10000000
00010000
,
01000000
00000000
00100000
00000000
10000000
00010000
10000000
00010000
00100000
00000000
00001000
00000000
00010000
00000100
00001000
00000000
,
00000100
00000000
00010000
00001000
00100000
00010000
00100000
00010000
10000000
00000000
01000000
00000000
00010000
01000000
00010000
01000000
,
10000000
00000000
00010000
00000000
00100000
00001000
00010000
00001000
00100000
00000000
00010000
00100000
00001000
00000000
00010000
00000100
,
00001000
00000000
00001000
00000010
00000100
00000010
00000100
00000000
00000001
00000000
00000010
00000000
00000100
00001000
00000100
00010000
,
00001000
00000000
00100000
00000000
00010000
10000000
00010000
10000000
00100000
00000000
01000000
00010000
00100000
00001000
00100000
00001000
,
00010000
00000000
00001000
00010000
00000100
00001000
00000100
00001000
00000010
00000000
00000100
00000001
00000100
00000000
00000010
00001000
,
00000001
00000000
00000010
00000001
00001000
00000100
00001000
00000100
00020000
00000000
00000000
00000000
00000000
00000000
00030000
00000000
,
00001000
00100000
00010000
00100000
00001000
00010000
00001000
00000000
02000000
00000000
00000000
00000000
00000000
00000000
00000000
00000000
,
00000000
00000000
00000000
00000000
,
00000000
00000000
03000000
00000000
;
