#VERSION:0.83;
#TITLE:examination leave;
#SUBTITLE:;
#ARTIST:dj razzle dazzle;
#TITLETRANSLIT:;
#SUBTITLETRANSLIT:;
#ARTISTTRANSLIT:;
#GENRE:VACATION DANCE;
#CREDIT:;
#MUSIC:examination leave.ogg;
#BANNER:examination leave.png;
#BACKGROUND:examination leave-bg.png;
#CDTITLE:./CDTitles/REFLEC BEAT colette.png;
#SAMPLESTART:0.345;
#SAMPLELENGTH:15.000;
#SELECTABLE:YES;
#OFFSET:0.981;
#BPMS:0.000=180.000;
#STOPS:;
#TIMESIGNATURES:0.000=4=4;
#BGCHANGES:0.000=../BGAs/20te.mp4=1.000=0=0=0=StretchNoLoop====,
99999.000=-nosongbg-=1.000=0=0=0=StretchNoLoop====
;
#FGCHANGES:;

//--------------- dance-single - forcednature ----------------
#NOTEDATA:;
#STEPSTYPE:dance-single;
#DESCRIPTION:forcednature;
#DIFFICULTY:Beginner;
#METER:2;
#RADARVALUES:0,0,0,0,0;
#CREDIT:forcednature;
#NOTES:
0000
0000
0000
0000
,
0000
0000
0000
0000
,
0000
0000
0000
0000
,
0000
0000
0000
0000
,
0000
0000
0000
0000
,
1000
0000
0000
0000
,
0001
0000
0000
0000
,
0100
0000
0000
0000
,
0000
0000
0000
0000
,
0010
0000
0000
0000
,
1000
0000
0000
0000
,
0001
0000
0000
0000
,
1000
0000
0000
0000
,
0100
0000
0000
0000
,
0010
0000
0000
0000
,
0100
0000
0000
0000
,
0000
0000
0000
0000
,
0010
0000
0000
0000
,
0001
0000
0000
0000
,
0010
0000
0000
0000
,
0001
0000
0000
0000
,
0100
0000
0000
0000
,
0010
0000
0000
0000
,
1000
0000
0000
0000
,
0000
0000
0000
0000
,
0001
0000
0000
0000
,
1000
0000
0000
0000
,
0100
0000
0000
0000
,
0000
0000
0000
0000
,
0010
0000
0000
0000
,
0001
0000
0000
0000
,
0100
0000
0000
0000
,
0001
0000
0000
0000
,
1000
0000
0000
0000
,
0001
0000
0000
0000
,
0100
0000
0000
0000
,
0001
0000
0000
0000
,
0010
0000
0000
0000
,
0000
0000
0000
0000
,
0100
0000
0000
0000
,
0000
0000
0000
0000
,
0000
1001
0000
0000
,
0000
0000
0000
0000
,
0000
0000
0000
0000
,
0010
0000
0100
0000
,
0010
0000
0000
0000
,
1000
0000
0000
0000
,
0001
0000
0000
0000
,
1000
0000
0000
0000
,
0100
0000
0000
0000
,
0010
0000
0000
0000
,
0001
0000
0000
0000
,
0000
0100
0000
0000
,
0010
0000
0000
0000
,
1000
0000
0000
0000
,
0001
0000
0000
0000
,
1000
0000
0000
0000
,
0100
0000
0000
0000
,
0010
0000
0000
0000
,
0001
0000
0000
0000
,
1000
0000
0000
0000
,
0001
0000
0000
0000
,
0100
0000
0000
0000
,
0010
0000
0000
0000
,
1000
0000
0000
0000
,
0001
0000
0000
0000
,
1000
0000
0000
0000
,
0100
0000
0000
0000
,
0010
0000
0000
0000
,
0001
0000
0000
0000
,
0100
0000
0000
0000
,
0001
0000
0000
0000
,
0010
0000
0000
0000
,
0100
0000
0000
0000
,
1000
0000
0000
0000
,
0010
0000
0000
0000
,
1000
0000
1000
0000
,
0001
0000
0001
0000
,
0100
0000
0100
0000
,
0020
0000
0000
0000
,
0000
0000
0000
0030
,
0000
1001
0000
0000
0000
0000
0000
0000
;

//--------------- dance-single - forcednature ----------------
#NOTEDATA:;
#STEPSTYPE:dance-single;
#DESCRIPTION:forcednature;
#DIFFICULTY:Easy;
#METER:6;
#RADARVALUES:0,0,0,0,0;
#CREDIT:forcednature;
#NOTES:
0000
0000
0000
0000
,
0000
0000
0000
0000
,
0000
0000
0000
0000
,
0000
0000
0000
0000
,
0000
0000
0000
0000
,
0001
0000
0000
0000
0000
1000
0000
0000
,
1000
0000
0000
0000
0000
0001
0000
0000
,
0100
0001
0100
0000
,
0010
1000
0010
0000
,
1001
0000
1000
0000
,
0100
0000
1000
0000
,
0001
0010
0001
0010
,
0000
0000
0001
0000
0000
0100
0000
0000
,
0010
0000
0000
0000
0000
1000
0000
0000
,
0100
0000
0000
0000
0000
1000
0000
0000
,
0001
0010
0001
0000
,
1000
0100
1000
0000
,
0001
0000
0000
0000
0000
0100
0000
0000
,
0001
0000
0000
0000
0000
0010
0000
0000
,
0001
0100
0001
0000
,
1000
0100
1000
0000
,
1001
0000
1000
0000
,
0010
0000
1000
0001
,
1000
0000
0100
0000
,
0010
0001
0010
0000
,
0001
0000
1000
0000
,
0001
0000
0100
0001
,
0100
0000
0010
0000
,
1000
0001
1000
0000
,
1001
0000
0001
0010
,
0000
0100
0000
0010
,
0000
0001
0000
1000
,
0000
0010
1000
0000
,
0001
0010
0000
0100
,
0000
1000
0000
0001
,
0000
0100
0000
0001
,
0000
1000
0100
1000
,
0001
0000
0100
0000
,
0010
0000
1000
0000
,
0001
0010
0000
0100
,
1000
0000
0010
0000
,
0000
0110
0000
0000
,
0001
0000
1000
0000
,
0100
0100
0010
0010
,
0001
0100
0010
0000
,
1000
0000
0000
1000
0000
0000
1000
0000
,
0000
0100
0010
0001
,
0001
0000
0000
0001
0000
0000
0001
0000
,
0000
0100
0010
1000
,
0001
0000
0010
0100
,
1000
0000
0100
0010
,
0001
0000
0100
0010
,
0000
1000
0001
0000
,
1000
0000
1000
0000
0000
0100
0000
0000
,
1000
0000
1000
0000
0000
0010
0000
0000
,
1000
0100
1000
0000
,
0001
0100
0001
0000
,
0001
0000
0001
0000
0000
0100
0000
0000
,
0001
0000
0001
0000
0000
0010
0000
0000
,
0001
0100
0001
0000
,
1000
0100
1000
0000
,
0010
0000
0010
0000
0000
1001
0000
0000
,
0100
0000
0100
0000
0000
1001
0000
0000
,
0001
0100
0010
1000
,
0010
0100
0001
0000
,
0010
0000
0010
0000
0000
1001
0000
0000
,
0100
0000
0100
0000
0000
1001
0000
0000
,
1000
0100
0010
0001
,
0010
0100
1000
0000
,
1001
0000
0001
0000
,
0100
0000
0001
0010
,
0001
0000
1000
0000
,
0010
1000
0010
1000
,
0001
0000
0010
0000
,
0100
0000
0010
0001
,
0010
0000
0100
0000
,
1000
0010
1000
0000
,
0001
0010
0001
0000
,
0100
0010
0100
0010
,
2000
0000
0000
0000
0000
0000
0000
0000
0000
0000
0000
0000
0000
0000
0000
3000
,
0000
0002
0000
0000
0000
0000
0000
0000
0000
0000
0000
0000
0000
0000
0000
0000
,
0003
0010
0000
0000
0000
0000
0000
0000
;

//--------------- dance-single - forcednature ----------------
#NOTEDATA:;
#STEPSTYPE:dance-single;
#DESCRIPTION:forcednature;
#DIFFICULTY:Medium;
#METER:11;
#RADARVALUES:0,0,0,0,0;
#CREDIT:forcednature;
#NOTES:
0000
0000
0000
0000
,
0000
0000
0000
0000
,
0000
0000
0000
0000
,
0000
0000
0000
0000
,
0000
0000
0000
0000
,
0001
0000
1000
0000
0001
0000
0000
0000
0000
0000
2002
0000
0000
3003
0000
0000
,
1000
0000
0001
0000
1000
0000
0000
0000
0000
0000
2002
0000
0000
3003
0000
0000
,
0001
0000
0010
0000
0100
0000
0010
0001
,
0000
0001
0100
0000
0010
0000
1000
0000
,
0200
0000
0000
0310
0002
0000
0000
1003
,
0020
0000
0000
0130
0002
0000
0000
0013
,
0100
0000
1000
0100
1000
0000
0001
0100
,
0001
0000
1001
0000
1000
0001
0000
0000
,
1000
0000
0010
0000
1000
0000
0000
0000
0000
0000
0202
0000
0000
0303
0000
0000
,
0001
0000
0010
0000
0001
0000
0000
0000
0000
0000
2200
0000
0000
3300
0000
0000
,
1000
0000
0010
0000
0100
0000
0010
1000
,
0000
1000
0100
0000
0110
0000
1001
0000
,
0001
0000
0100
0000
0001
0000
0000
0000
0000
0000
2020
0000
0000
3030
0000
0000
,
1000
0000
0100
0000
1000
0000
0000
0000
0000
0000
0022
0000
0000
0033
0000
0000
,
0001
0000
0100
0000
0010
0000
0100
0001
,
0000
0001
1000
0000
0100
0000
0010
0000
,
2001
0000
0100
0000
3001
0000
1000
0010
,
0200
0000
0001
0000
0310
0000
0001
1000
,
0020
0000
0100
0000
1030
0000
0010
0100
,
0001
0100
0001
1000
0020
0000
2030
0000
,
3200
0000
0010
0000
1300
0000
0010
0001
,
2000
0000
0001
0000
3100
0000
0010
1000
,
0002
0000
0010
0000
1003
0000
0100
0001
,
1000
0010
1000
0001
0020
0000
0230
0000
,
1300
0010
1000
0000
0001
0010
0001
0100
,
0000
0010
1000
0010
0000
0100
0001
0100
,
0000
0001
0010
0001
0000
1000
0100
1000
,
0000
0010
0100
0010
1000
0000
0001
0000
,
0010
0100
0010
0000
0001
0100
0001
0100
,
0000
0010
1000
0010
0000
1000
0100
1000
,
0000
0001
0100
0001
0000
0010
0001
0010
,
0000
0100
1000
0100
1000
0000
0001
0000
,
1001
1000
0000
1000
,
0001
0100
0000
0100
,
0001
0010
0100
0010
,
0001
0000
1000
0000
0010
1000
0010
1000
,
0100
1001
0000
1000
,
0100
1000
0001
0100
,
0001
0010
1000
0100
,
1001
0000
0110
0000
1000
0001
1000
0001
,
0010
0000
0001
0100
0000
0010
0100
0000
,
0001
0010
0001
0000
1000
0010
1000
0000
,
0100
0000
1000
0010
0000
0100
0010
0000
,
1000
0100
1000
0000
0001
0100
0001
0000
,
0010
0000
0000
0100
1000
0100
1000
0000
,
0001
0100
0001
0000
0010
0000
0100
1000
,
0000
0001
0100
0001
0100
0000
1010
0000
,
0000
1000
0001
1000
0001
0000
0110
0000
,
0001
0000
0001
0000
0100
0000
0000
0000
0000
0000
2020
0000
0000
3030
0000
0000
,
1000
0000
1000
0000
0100
0000
0000
0000
0000
0000
0022
0000
0000
0033
0000
0000
,
0001
0000
0100
0000
0010
0000
0100
0001
,
0000
0010
0001
0000
1001
0000
0110
0000
,
1000
0000
1000
0000
0010
0000
0000
0000
0000
0000
0202
0000
0000
0303
0000
0000
,
0001
0000
0001
0000
0010
0000
0000
0000
0000
0000
2200
0000
0000
3300
0000
0000
,
1000
0000
0010
0000
0100
0000
0010
1000
,
0000
1000
0001
0000
0010
0100
1000
0000
,
0001
0000
0100
0000
0101
0000
0000
0000
0000
0000
2020
0000
0000
3030
0000
0000
,
1000
0000
0100
0000
1100
0000
0000
0000
0000
0000
0022
0000
0000
0033
0000
0000
,
0001
0000
0100
0000
0010
0000
0100
0001
,
0000
0001
0010
0000
0110
0000
1001
0000
,
0001
0000
0010
0000
0011
0000
0000
0000
0000
0000
2200
0000
0000
3300
0000
0000
,
1000
0000
0010
0000
1010
0000
0000
0000
0000
0000
0202
0000
0000
0303
0000
0000
,
0001
0000
0010
0000
0100
0000
0010
0001
,
0000
0001
1000
0000
0010
0100
0010
0100
,
0002
0000
0010
0000
1003
0000
0001
0100
,
0020
0000
1000
0000
0130
0000
0001
1000
,
0200
0000
0010
0000
1300
0000
0001
0010
,
0100
1000
0100
0010
0002
0000
0203
0000
,
0320
0000
0100
0000
1030
0000
0001
0010
,
0200
0000
1000
0000
0310
0000
0100
1000
,
0002
0000
0100
0000
0013
0000
1000
0001
,
0100
0010
1000
0010
0200
0000
0302
0000
,
0013
0001
1000
0010
2000
0000
3200
0000
,
0310
0001
0100
0001
1000
0100
1000
0010
,
0200
0000
0000
0000
0000
0000
0000
0000
0000
0000
0000
0000
0000
0000
0000
0300
,
0000
0002
0000
0000
0000
0000
0000
0000
0000
0000
0000
0000
0000
0000
0000
0000
,
0003
1010
0000
0000
0000
0000
0000
0000
;

//--------------- dance-single - forcednature ----------------
#NOTEDATA:;
#STEPSTYPE:dance-single;
#DESCRIPTION:forcednature;
#DIFFICULTY:Hard;
#METER:16;
#RADARVALUES:0,0,0,0,0;
#CREDIT:forcednature;
#NOTES:
0000
0000
0000
0000
,
0000
0000
0000
0000
,
0000
0000
0000
0000
,
0000
0000
0000
0000
,
0000
0000
0000
0000
,
0100
0000
0010
0000
0110
0000
0000
0000
0000
0000
2002
0000
0000
3003
0000
0000
,
0010
0000
0100
0000
0110
0000
0000
0000
0000
0000
2002
0000
0000
3003
0000
0000
,
1000
0010
0100
0010
1000
0010
0100
0001
,
0000
0001
0010
0100
2000
0000
0010
0000
,
3100
0000
0001
1000
0010
0100
0010
1000
,
0001
0000
1000
0001
0010
0100
0010
0001
,
1000
0010
0100
0010
0001
0010
1000
0100
,
0010
0000
0110
0000
0100
1001
0000
0000
,
1000
0000
0010
0000
1010
0000
0000
0000
0000
0000
0202
0000
0000
0303
0000
0000
,
0001
0000
0010
0000
0011
0000
0000
0000
0000
0000
2200
0000
0000
3300
0000
0000
,
0001
0010
0100
0010
0001
0010
0100
1000
,
0000
1000
0010
0100
0001
0000
1000
0000
,
0001
0000
0100
0000
0101
0000
0000
0000
0000
0000
2020
0000
0000
3030
0000
0000
,
1000
0000
0100
0000
1100
0000
0000
0000
0000
0000
0022
0000
0000
0033
0000
0000
,
0001
0100
1000
0100
0001
0100
1000
0110
,
0000
0001
0001
1000
0200
0000
0001
0000
,
0310
0000
0001
0000
0010
0000
0100
0000
0010
0000
0001
0010
0001
0000
1000
0000
,
0010
0000
0100
0000
0001
0000
0100
0000
0010
0000
1000
0010
1000
0000
0100
1000
,
0100
0000
0010
0000
0001
0000
0010
0000
0100
0000
1000
0100
1000
0000
0001
0100
,
0001
0000
0010
0001
0010
0000
0100
1000
0200
0000
0000
0000
0320
0000
0000
0000
,
0031
0000
0100
0000
0010
0000
0100
0000
0001
0000
1000
0010
1000
0000
0001
0000
,
0010
0000
0100
0000
1000
0000
0100
0000
0010
0000
0001
0010
0001
0000
0100
0001
,
0100
0000
0010
0000
1000
0000
0010
0000
0100
0000
0001
0010
0001
0000
0010
0100
,
0010
0000
0100
1000
0100
0000
1000
0001
1000
0000
1000
0000
0010
0000
0010
0000
,
0100
1000
0100
0001
0010
1000
0010
0001
,
1000
0010
0001
0010
0100
1000
0100
0001
,
0010
1000
0010
0100
1000
0010
0001
0010
,
0100
0001
0010
0001
1000
1000
0010
0100
,
1000
0100
0001
0100
0010
0001
0010
1000
,
0100
1000
0001
0010
1000
0010
0001
0100
,
0010
1000
0100
1000
0001
0010
1000
0010
,
0100
1000
0001
1000
0010
0010
0100
0100
,
1001
0000
0000
0000
0001
0100
0001
0100
0001
0000
0100
0000
0010
0000
1000
0000
,
0001
0000
0000
0000
1000
0100
1000
0100
1000
0000
0100
0000
0010
0000
0001
0000
,
1000
0010
0001
1000
0100
0001
1000
0010
,
0002
0000
0023
0000
0130
0001
0001
0001
,
0010
0000
1001
0000
1000
0100
1000
0010
,
1000
0001
0010
0001
0100
0010
1000
0001
,
0010
0010
0100
0100
1000
1000
0001
0001
,
0101
0000
2100
0000
3010
0010
0100
0100
,
0001
0000
0010
0100
0010
0000
0001
0000
0100
0010
0100
0000
0001
0000
0010
0100
,
0010
0000
0001
0000
1000
0000
0010
0000
0100
0001
0100
0000
0001
0010
0001
0000
,
1000
0000
0010
0100
0010
0000
1000
0000
0100
0010
0100
0000
1000
0000
0010
0100
,
0010
0000
1000
0000
0001
0100
0001
0000
0010
0000
0001
0000
1000
0100
1000
0000
,
0020
0000
0000
0000
0000
0000
0130
0000
0001
0100
0001
0000
0010
0000
0001
0000
,
1000
0100
1000
0000
0010
1000
0010
0000
0100
0001
0100
0000
0001
0000
0010
0001
,
0000
0100
0100
0100
0100
0000
1001
0000
,
0000
0010
0110
0100
0110
0000
1001
0000
,
1000
0000
1100
0000
1100
0000
0000
0000
0000
0000
0022
0000
0000
0033
0000
0000
,
0001
0000
0101
0000
0101
0000
0000
0000
0000
0000
2020
0000
0000
3030
0000
0000
,
1000
0100
0001
0100
1000
0100
0110
1001
,
0000
0000
0001
0000
0001
0000
0100
0000
0100
0000
0010
0000
1000
0010
1000
0000
,
0001
0000
0101
0000
0101
0000
0000
0000
0000
0000
2020
0000
0000
3030
0000
0000
,
1000
0000
1100
0000
1100
0000
0000
0000
0000
0000
0022
0000
0000
0033
0000
0000
,
0001
0100
1000
0100
0001
0100
0110
1001
,
0000
0000
1000
0000
1000
0000
0100
0000
0010
0001
0010
0001
1000
0000
0000
0000
,
1100
0000
1100
0000
1100
0000
0000
0000
0000
0000
0022
0000
0000
0033
0000
0000
,
0101
0000
0101
0000
0101
0000
0000
0000
0000
0000
2020
0000
0000
3030
0000
0000
,
1001
0100
1001
0010
1001
0100
0110
1001
,
0000
0000
0001
0000
0001
0000
0100
0000
0010
1000
0010
1000
0001
0000
0000
0000
,
0011
0000
0011
0000
0011
0000
0000
0000
0000
0000
2200
0000
0000
3300
0000
0000
,
1010
0000
1010
0000
1010
0000
0000
0000
0000
0000
0202
0000
0000
0303
0000
0000
,
1001
0100
1001
0010
1001
0100
0110
1001
,
0000
0000
1000
0000
1000
0000
0100
0000
0010
0001
0010
0001
2000
0000
0000
0000
,
3010
0000
0100
0000
0001
0000
0100
0000
0010
0000
1000
0010
1000
0000
0001
0000
,
0010
0000
0100
0000
0010
0000
0001
0000
0010
0000
0100
1000
0100
0000
1000
0010
,
1000
0000
0001
0000
0100
0000
0001
0000
0010
0000
0100
1000
0100
0000
1000
0010
,
1000
0000
0001
0010
0001
0000
0100
0001
0200
0000
0000
0000
0320
0000
0000
0000
,
1030
0000
0001
0000
0010
0000
0001
0000
1000
0000
0010
0100
0010
0000
1000
0000
,
0001
0000
0010
0000
0100
0000
0010
0000
0001
0000
1000
0100
1000
0000
0001
0100
,
0001
0000
1000
0000
0100
0000
1000
0000
0001
0000
0010
0001
0010
0000
0100
0010
,
0100
1000
0100
1000
0001
1000
0001
1000
0010
0000
0010
0000
0100
0000
0100
0000
,
0001
0010
0001
0010
0100
0010
0100
0010
0100
0000
0100
0000
1000
0000
1000
0000
,
0010
0001
0010
1000
0100
1001
0010
1001
,
0200
0000
0000
0000
0000
0000
0000
0000
0000
0000
0000
0000
0000
0000
0000
0300
,
0000
0020
0000
0000
0000
0000
0000
0000
0000
0000
0000
0000
0000
0000
0000
0000
,
0030
1001
0000
0000
0000
0000
0000
0000
;

//--------------- dance-single - forcednature ----------------
#NOTEDATA:;
#STEPSTYPE:dance-single;
#DESCRIPTION:forcednature;
#DIFFICULTY:Challenge;
#METER:17;
#RADARVALUES:0,0,0,0,0;
#CREDIT:forcednature;
#NOTES:
0000
0000
0000
0000
,
0000
0000
0000
0000
,
0000
0000
0000
0000
,
0000
0000
0000
0000
,
0000
0000
0000
0000
,
1100
0000
1100
0000
1100
0000
0000
0000
0000
0000
0022
0000
0000
0033
0000
0000
,
0101
0000
0101
0000
0101
0000
0000
0000
0000
0000
2020
0000
0000
3030
0000
0000
,
1000
1100
0001
0101
1000
1100
0010
0110
,
0000
0000
0001
0000
0001
0000
0001
0000
0001
0100
0010
1000
0002
0000
0000
0000
,
0013
0000
0100
0000
1000
0000
0100
0010
0001
0000
1000
0000
0010
0000
0100
0001
,
1000
0000
0001
0000
0010
0000
0100
1000
0001
0000
1000
0000
0010
0000
0100
0001
,
1000
0000
1000
0001
0010
0000
0010
0001
1000
0010
0100
0001
0100
0010
1000
0001
,
0010
0000
0110
0000
0100
1001
0000
0000
,
0101
0000
0101
0000
1001
0000
0000
0000
0000
0000
2020
0000
0000
3030
0000
0000
,
1100
0000
1100
0000
1001
0000
0000
0000
0000
0000
0022
0000
0000
0033
0000
0000
,
0001
0101
1000
1100
0001
0101
0010
0110
,
0000
0000
1000
0000
1000
0000
1000
0000
0001
0100
0001
0000
1000
0100
1000
0000
,
1010
0000
1010
0000
0110
0000
0000
0000
0000
0000
0202
0000
0000
0303
0000
0000
,
0011
0000
0011
0000
0110
0000
0000
0000
0000
0000
2200
0000
0000
3300
0000
0000
,
1000
1010
0001
0011
1000
1010
0100
1001
,
0000
0000
0001
0000
0001
0000
0001
0000
1000
0010
1000
0010
0100
0001
1000
0000
,
0001
0000
0010
0000
0100
0000
0010
0000
0001
0000
1000
0100
0010
0000
0001
0000
,
1000
0000
0010
0000
0100
0000
0010
0000
1000
0000
0001
0010
0100
1000
0100
0010
,
0001
0000
1000
0000
0010
0000
1000
0000
0001
0000
0100
0010
1000
0010
0100
0001
,
1000
0001
0010
0001
1000
0100
0010
0100
2000
0000
0000
0000
3002
0000
0000
0000
,
0103
0000
0010
0000
1000
0000
0010
0000
0100
0000
0001
0010
0100
0000
0010
0000
,
0001
0000
1000
0000
0010
0000
1000
0000
0001
0000
0010
0100
1000
0001
1000
0100
,
0010
0000
0001
0000
1000
0000
0010
0000
1000
0000
0001
0100
0010
0100
0001
1000
,
0010
1000
0010
0100
0001
0100
0010
1000
0001
0000
0001
0000
1000
0000
1000
0000
,
0100
0001
0100
1000
0010
0001
0010
1000
,
0000
0001
0010
0100
0001
0100
1000
0010
,
0000
0100
1000
0100
0001
1000
0010
1000
,
0000
0001
0010
0100
1100
1100
1001
0000
,
0001
0100
1000
0100
0001
1000
0010
0001
,
0000
0010
1000
0200
0000
0301
0100
2000
,
0000
3001
0010
0100
1000
1000
0010
0210
,
0000
0000
0301
0000
0010
0000
0001
0000
0100
0000
0100
0010
1000
0000
0001
0000
,
1002
0000
0000
0000
0013
0100
1000
0100
0010
0000
0001
0000
1000
0000
0001
0000
,
0200
0000
0000
0000
0310
0100
0001
0100
0010
0000
1000
0000
0001
0000
0010
0000
,
0001
0100
1000
0001
0010
1000
0001
0100
,
2000
0000
3200
0000
0301
0010
0010
0100
,
0100
2002
0000
3003
,
1000
1000
0100
1000
0001
0001
0100
0001
,
1000
0010
1000
0010
0100
0010
0100
0010
1000
0001
1000
0001
0100
0001
0100
0001
,
1000
0000
0000
0000
1001
0000
0000
0000
0001
0000
0100
0001
0100
0000
0100
0010
,
1000
0000
0100
0001
0100
0000
1000
0000
0100
0001
0100
0000
1000
0000
0100
0001
,
0100
0000
1000
0000
0001
0000
0010
0000
0001
1000
0010
0100
0010
1000
0001
0000
,
1000
0000
0010
0001
0010
0000
1000
0000
0010
0001
0010
0000
1000
0000
0010
0001
,
0010
0000
0010
1000
0001
0000
0001
0010
0100
1000
0100
0010
0001
1000
0001
0100
,
0020
0000
0000
0000
0000
0000
1030
0000
0001
0010
0001
0010
0100
0010
0100
0010
,
0100
1000
0100
1000
0001
0100
0010
0100
0001
1000
0010
1000
0001
0010
0100
0010
,
0000
0002
0203
2300
3200
0300
0020
0100
,
0030
0110
0110
0110
0110
0000
1001
0000
,
1100
0000
1100
0000
1100
0000
0100
0010
0001
0000
0022
0000
0000
0033
0000
0000
,
0101
0000
0101
0000
0101
0000
0100
0010
1000
0000
2020
0000
0000
3030
0000
0000
,
0001
0011
1000
1010
0001
0011
0100
0110
,
0000
0000
0010
0000
0010
0000
0010
0000
0010
1000
0001
0100
0010
0000
0000
0000
,
0101
0000
0101
0000
0101
0000
0100
0010
1000
0000
2020
0000
0000
3030
0000
0000
,
1100
0000
1100
0000
1100
0000
0100
0010
0001
0000
0022
0000
0000
0033
0000
0000
,
0001
0101
1000
1100
0001
0101
0010
1001
,
0000
0000
1000
0000
1000
0000
1000
0000
0100
0010
0001
1000
0100
0000
0000
0000
,
0011
0000
1100
0000
0011
0000
0001
1000
0010
0000
2020
0000
0000
3030
0000
0000
,
0101
0000
1010
0000
0101
0000
0001
1000
0100
0000
2200
0000
0000
3300
0000
0000
,
0010
1001
0100
1001
0010
0110
0100
1001
,
0000
0000
1000
0100
1000
0000
0100
1000
0001
0010
0001
1000
0010
1000
0001
0000
,
0101
0000
1100
0000
0101
0000
0001
0010
0100
0000
0220
0000
0000
0330
0000
0000
,
1100
0000
0101
0000
1100
0000
1000
0010
0100
0000
0220
0000
0000
0330
0000
0000
,
0010
0101
0010
1100
0010
1001
0100
0110
,
0000
0000
0001
0000
1000
0000
0001
0000
1000
0010
0100
0010
1000
0001
0100
0001
,
1000
0000
0100
0000
0010
0000
0100
0000
1000
0000
0001
0010
0100
0000
0010
0000
,
0001
0000
1000
0000
0010
0000
1000
0000
0001
0000
0100
0010
1000
0001
1000
0010
,
0100
0000
0001
0000
0010
0000
0100
0000
0010
0000
0001
1000
0100
1000
0001
1000
,
0010
0100
0001
0010
0001
0100
0010
1000
0002
0000
0000
0000
0203
0000
0000
0000
,
0310
0000
1000
0000
0100
0000
1000
0000
0010
0000
0100
0001
1000
0000
0100
0000
,
0010
0000
0001
0000
0100
0000
0001
0000
0010
0000
0100
1000
0001
0010
0001
1000
,
0100
0000
1000
0000
0010
0000
1000
0000
0001
0000
0100
0010
1000
0001
0010
0100
,
1000
0010
0100
0010
1000
0100
0010
0001
1000
0000
1100
0000
0001
0000
0101
0000
,
0001
0010
0100
0010
0001
0100
0010
1000
0001
0000
0101
0000
1000
0000
1100
0000
,
0010
0000
1001
0000
0100
0000
0110
0000
1001
0000
0001
0100
1000
0000
1000
0100
,
0002
0000
0000
0000
,
0000
0023
0000
0000
0000
0000
0000
0000
0000
0000
0000
0000
0000
0000
0000
0000
,
0030
1100
0000
0000
0000
0000
0000
0000
;

//--------------- dance-double - forcednature ----------------
#NOTEDATA:;
#STEPSTYPE:dance-double;
#DESCRIPTION:forcednature;
#DIFFICULTY:Easy;
#METER:6;
#RADARVALUES:0,0,0,0,0;
#CREDIT:forcednature;
#NOTES:
00000000
00000000
00000000
00000000
,
00000000
00000000
00000000
00000000
,
00000000
00000000
00000000
00000000
,
00000000
00000000
00000000
00000000
,
00000000
00000000
00000000
00000000
,
00010000
00000000
00000000
00000000
00000000
00010000
00000000
00000000
,
00001000
00000000
00000000
00000000
00000000
00001000
00000000
00000000
,
01000000
00010000
01000000
00000000
,
00001000
00010000
00001000
00000000
,
00011000
00000000
00010000
00000000
,
00000100
00000000
00001000
00000000
,
00000001
00000100
00000001
00000100
,
00000000
00000000
00000010
00000000
00000000
00000010
00000000
00000000
,
00010000
00000000
00000000
00000000
00000000
00010000
00000000
00000000
,
00001000
00000000
00000000
00000000
00000000
00001000
00000000
00000000
,
00100000
00010000
00100000
00000000
,
00001000
00010000
00001000
00000000
,
00010000
00000000
00000000
00000000
00000000
00010000
00000000
00000000
,
00001000
00000000
00000000
00000000
00000000
00001000
00000000
00000000
,
00010000
00000100
00010000
00000000
,
00000100
00001000
00000100
00000000
,
00000110
00000000
00000010
00000000
,
00000001
00000000
00001000
00000001
,
00001000
00000000
00000010
00000000
,
00010000
00001000
00010000
00000000
,
00001000
00000000
01000000
00000000
,
00010000
00000000
10000000
00010000
,
10000000
00000000
01000000
00000000
,
00100000
01000000
00100000
00000000
,
10010000
00000000
00010000
01000000
,
00000000
00010000
00000000
01000000
,
00000000
00001000
00000000
00010000
,
00000000
00001000
00010000
00000000
,
00000100
00001000
00000000
00000100
,
00000000
00001000
00000000
00000001
,
00000000
00000100
00000000
00000001
,
00000000
00001000
00000100
00001000
,
00000001
00000000
00000100
00000000
,
00000010
00000000
00001000
00000000
,
00000100
00010000
00000000
00001000
,
00010000
00000000
00001000
00000000
,
00000000
00011000
00000000
00000000
,
00010000
00000000
00001000
00000000
,
01000000
01000000
00100000
00100000
,
10000000
00010000
10000000
00000000
,
01000000
00000000
00000000
01000000
00000000
00000000
01000000
00000000
,
00000000
00100000
00001000
00010000
,
00010000
00000000
00000000
00010000
00000000
00000000
00010000
00000000
,
00000000
00000100
00001000
00000001
,
00001000
00000000
00000010
00010000
,
00001000
00000000
00100000
00001000
,
00010000
00000000
00001000
01000000
,
00000000
00010000
01000000
00000000
,
00100000
00000000
00100000
00000000
00000000
10000000
00000000
00000000
,
01000000
00000000
01000000
00000000
00000000
10000000
00000000
00000000
,
00010000
01000000
00010000
00000000
,
01000000
00001000
01000000
00000000
,
00001000
00000000
00001000
00000000
00000000
00010000
00000000
00000000
,
00001000
00000000
00001000
00000000
00000000
00010000
00000000
00000000
,
00000100
00001000
00000100
00000000
,
00000010
00000001
00000010
00000000
,
00000100
00000000
00000100
00000000
00000000
00001000
00000000
00000000
,
00000010
00000000
00000010
00000000
00000000
00001000
00000000
00000000
,
00000100
00010000
00001000
00100000
,
00001000
00010000
00000100
00000000
,
00010000
00000000
00010000
00000000
00000000
00001000
00000000
00000000
,
01000000
00000000
01000000
00000000
00000000
00001000
00000000
00000000
,
00100000
00001000
00010000
00000010
,
00010000
00001000
00100000
00000000
,
01100000
00000000
01000000
00000000
,
10000000
00000000
01000000
00100000
,
01000000
00000000
00100000
00000000
,
00001000
00010000
00001000
00010000
,
00001000
00000000
00010000
00000000
,
00000010
00000000
00001000
00000010
,
00001000
00000000
00000100
00000000
,
00000010
00000100
00000010
00000000
,
00000001
00000010
00000001
00000000
,
00001000
00000010
00001000
00000010
,
00020000
00000000
00000000
00000000
00000000
00000000
00000000
00000000
00000000
00000000
00000000
00000000
00000000
00000000
00000000
00030000
,
00000000
00002000
00000000
00000000
00000000
00000000
00000000
00000000
00000000
00000000
00000000
00000000
00000000
00000000
00000000
00000000
,
00003000
00100000
00000000
00000000
00000000
00000000
00000000
00000000
;

//--------------- dance-double - forcednature ----------------
#NOTEDATA:;
#STEPSTYPE:dance-double;
#DESCRIPTION:forcednature;
#DIFFICULTY:Medium;
#METER:12;
#RADARVALUES:0,0,0,0,0;
#CREDIT:forcednature;
#NOTES:
00000000
00000000
00000000
00000000
,
00000000
00000000
00000000
00000000
,
00000000
00000000
00000000
00000000
,
00000000
00000000
00000000
00000000
,
00000000
00000000
00000000
00000000
,
01000000
00000000
00001000
00000000
01000000
00000000
00000000
00000000
00000000
00000000
00022000
00000000
00000000
00033000
00000000
00000000
,
00000100
00000000
00001000
00000000
00000100
00000000
00000000
00000000
00000000
00000000
00022000
00000000
00000000
00033000
00000000
00000000
,
00001000
00000000
00010000
00000000
00100000
00000000
00010000
00001000
,
00000000
00001000
01000000
00000000
00010000
00000000
10000000
00000000
,
02000000
00000000
00000000
03100000
00020000
00000000
00000000
01030000
,
00002000
00000000
00000000
00013000
00000020
00000000
00000000
00001030
,
00000100
00000000
00000100
00000000
00000001
00000000
00000001
00000100
,
00001000
00000000
00011000
00000000
01000000
00001000
00000000
00000000
,
00100000
00000000
00001000
00000000
00100000
00000000
00000000
00000000
00000000
00000000
00022000
00000000
00000000
00033000
00000000
00000000
,
00000010
00000000
00001000
00000000
00000010
00000000
00000000
00000000
00000000
00000000
00022000
00000000
00000000
00033000
00000000
00000000
,
00001000
00000000
00000010
00000000
00000001
00000000
00000010
00000100
,
00000000
00000100
00010000
00000000
00010100
00000000
01001000
00000000
,
01000000
00000000
00010000
00000000
00100000
00000000
00000000
00000000
00000000
00000000
00022000
00000000
00000000
00033000
00000000
00000000
,
00000100
00000000
00001000
00000000
00000010
00000000
00000000
00000000
00000000
00000000
00022000
00000000
00000000
00033000
00000000
00000000
,
00001000
00000000
00010000
00000000
00100000
00000000
10000000
01000000
,
00000000
01000000
00010000
00000000
00001000
00000000
00000010
00000000
,
00000210
00000000
00001000
00000000
00010300
00000000
00000100
00001000
,
00000020
00000000
00001000
00000000
00010030
00000000
00001000
00000100
,
00020000
00000000
00001000
00000000
00030010
00000000
00010000
00001000
,
01000000
00001000
01000000
00010000
20000000
00000000
32000000
00000000
,
03200000
00000000
00010000
00000000
00301000
00000000
00100000
00001000
,
00020000
00000000
00000010
00000000
00031000
00000000
00010000
00000100
,
00002000
00000000
00000010
00000000
00003001
00000000
00001000
00000100
,
00010000
00001000
01000000
00010000
00200000
00000000
02300000
00000000
,
13000000
00100000
10000000
00000000
00010000
00100000
00010000
01000000
,
00000000
00001000
00010000
00001000
00000000
00010000
00000100
00010000
,
00000000
00000010
00001000
00000010
00000000
00000100
00000001
00000100
,
00000000
00000001
00000010
00000001
00001000
00000000
00000010
00000000
,
00010000
00001000
00010000
00000000
00001000
00100000
00001000
00100000
,
00000000
00010000
01000000
00010000
00000000
10000000
01000000
10000000
,
00000000
00100000
01000000
00100000
00000000
00010000
00001000
00010000
,
00000000
00000100
00001000
00000100
00001000
00000000
00000001
00000000
,
00001001
00010000
00000000
00010000
,
00001000
01000000
00000000
01000000
,
01000000
00001000
00010000
00001000
,
00100000
00000000
00010000
00000000
10000000
00100000
10000000
00100000
,
01000000
10010000
00000000
00001000
,
00010000
00000100
00010000
00001000
,
00000010
00000001
00000010
00000100
,
00000110
00000000
00001001
00000000
00001000
00000100
00001000
00000100
,
00010000
00000000
00000010
00010000
00000000
00000100
00010000
00000000
,
00001000
01000000
00001000
00000000
01000000
00010000
01000000
00000000
,
00010000
00000000
00100000
00001000
00000000
00010000
00001000
00000000
,
01000000
00010000
01000000
00000000
00100000
10000000
00100000
00000000
,
10000000
00000000
00000000
10000000
01000000
10000000
01000000
00000000
,
00100000
00010000
00100000
00000000
00001000
00000000
00010000
00000010
,
00000000
00001000
00000010
00001000
00000010
00000000
00001001
00000000
,
00000000
00010000
00001000
00010000
00001000
00000000
10010000
00000000
,
10000000
00000000
01000000
00000000
00010000
00000000
00000000
00000000
00000000
00000000
00022000
00000000
00000000
00033000
00000000
00000000
,
00000001
00000000
00000100
00000000
00001000
00000000
00000000
00000000
00000000
00000000
00022000
00000000
00000000
00033000
00000000
00000000
,
00010000
00000000
00100000
00000000
01000000
00000000
00100000
00010000
,
00000000
00001000
00010000
00000000
00010100
00000000
00001100
00000000
,
00000001
00000000
00000010
00000000
00001000
00000000
00000000
00000000
00000000
00000000
00022000
00000000
00000000
00033000
00000000
00000000
,
10000000
00000000
00100000
00000000
00010000
00000000
00000000
00000000
00000000
00000000
00022000
00000000
00000000
00033000
00000000
00000000
,
00001000
00000000
00000010
00000000
00000100
00000000
00000010
00000001
,
00000000
00000001
00000100
00000000
00001000
00010000
00100000
00000000
,
10000000
00000000
01000000
00000000
00010000
00000000
00000000
00000000
00000000
00000000
00002200
00000000
00000000
00003300
00000000
00000000
,
00000001
00000000
00000100
00000000
00001000
00000000
00000000
00000000
00000000
00000000
02020000
00000000
00000000
03030000
00000000
00000000
,
00001000
00000000
00100000
00000000
00001000
00000000
00010000
00100000
,
00000000
00100000
10000000
00000000
10010000
00000000
01100000
00000000
,
10000000
00000000
00100000
00000000
00010000
00000000
00000000
00000000
00000000
00000000
00002020
00000000
00000000
00003030
00000000
00000000
,
00000001
00000000
00000010
00000000
00001000
00000000
00000000
00000000
00000000
00000000
00220000
00000000
00000000
00330000
00000000
00000000
,
01000000
00000000
00010000
00000000
00100000
00000000
00001000
00010000
,
00000000
00010000
00000010
00000000
00001000
00000100
00001000
00000100
,
00000020
00000000
00000001
00000000
00000130
00000000
00000010
00000100
,
00020000
00000000
00001000
00000000
00030010
00000000
00010000
00001000
,
02000000
00000000
00010000
00000000
03100000
00000000
01000000
00001000
,
00010000
00000100
00010000
00001000
00200000
00000000
00320000
00000000
,
02030000
00000000
00100000
00000000
03010000
00000000
01000000
00001000
,
00020000
00000000
00000100
00000000
00031000
00000000
00010000
00000010
,
00002000
00000000
00000100
00000000
00003001
00000000
00001000
00000010
,
00010000
00001000
00100000
00001000
00020000
00000000
00230000
00000000
,
10300000
01000000
00100000
01000000
20000000
00000000
30020000
00000000
,
01030000
00010000
00100000
00001000
00010000
00000010
00001000
00000100
,
00020000
00000000
00000000
00000000
00000000
00000000
00000000
00000000
00000000
00000000
00000000
00000000
00000000
00000000
00000000
00030000
,
00000000
00002000
00000000
00000000
00000000
00000000
00000000
00000000
00000000
00000000
00000000
00000000
00000000
00000000
00000000
00000000
,
00003000
01000000
00000000
00000000
00000000
00000000
00000000
00000000
;

//--------------- dance-double - forcednature ----------------
#NOTEDATA:;
#STEPSTYPE:dance-double;
#DESCRIPTION:forcednature;
#DIFFICULTY:Hard;
#METER:16;
#RADARVALUES:0,0,0,0,0;
#CREDIT:forcednature;
#NOTES:
00000000
00000000
00000000
00000000
,
00000000
00000000
00000000
00000000
,
00000000
00000000
00000000
00000000
,
00000000
00000000
00000000
00000000
,
00000000
00000000
00000000
00000000
,
00001000
00000000
01000000
00000000
01001000
00000000
00000000
00000000
00000000
00000000
00020020
00000000
00000000
00030030
00000000
00000000
,
00010000
00000000
00000100
00000000
00010100
00000000
00000000
00000000
00000000
00000000
00202000
00000000
00000000
00303000
00000000
00000000
,
00001000
01000000
00010000
01000000
00100000
01000000
00010000
01000000
,
00000000
01000000
00001000
00010000
00000200
00000000
00001000
00000000
,
00000310
00000000
00000100
00010000
00100000
00000000
01000000
00001000
,
00010000
00000000
00000010
00010000
01000000
00000000
00100000
00001000
,
00010000
00100000
01000000
00100000
10000000
00010000
10000000
01000000
,
00010000
00000000
00011000
00000000
00000010
00000110
00000000
00000000
,
00010000
00000000
00000100
00000000
00010100
00000000
00000000
00000000
00000000
00000000
00202000
00000000
00000000
00303000
00000000
00000000
,
00001000
00000000
01000000
00000000
01001000
00000000
00000000
00000000
00000000
00000000
00020020
00000000
00000000
00030030
00000000
00000000
,
00000010
00000100
00001000
00000100
00000001
00000100
00000010
00001000
,
00000000
00001000
00010000
01000000
00100000
00000000
10000000
00000000
,
00010000
00000000
00100000
00000000
00110000
00000000
00000000
00000000
00000000
00000000
00002200
00000000
00000000
00003300
00000000
00000000
,
00001000
00000000
00000010
00000000
00001010
00000000
00000000
00000000
00000000
00000000
02020000
00000000
00000000
03030000
00000000
00000000
,
00010000
00100000
10000000
00100000
00010000
00001000
00000100
00000110
,
00000000
00000010
00000010
00000001
00000200
00000000
00001000
00000000
,
00000310
00000000
00000100
00000000
00001000
00000000
00000100
00000000
00000010
00000000
00001000
00000010
00001000
00000000
00000100
00000000
,
00010000
00000000
00001000
00000000
00010000
00000000
00100000
00000000
01000000
00000000
00010000
01000000
00010000
00000000
00100000
00010000
,
00100000
00000000
01000000
00000000
00100000
00000000
00001000
00000000
00010000
00000000
00000010
00001000
00000010
00000000
00001000
00000100
,
00001000
00000000
00000001
00000100
00000001
00000000
00000010
00000001
00000020
00000000
00000000
00000000
00000230
00000000
00000000
00000000
,
00010300
00000000
00001000
00000000
01000000
00000000
00001000
00000000
00100000
00000000
00010000
00100000
00010000
00000000
10000000
00000000
,
00100000
00000000
01000000
00000000
10000000
00000000
01000000
00000000
00010000
00000000
00100000
00010000
00100000
00000000
00001000
00010000
,
00001000
00000000
00010000
00000000
00000010
00000000
00010000
00000000
00001000
00000000
00000010
00001000
00000010
00000000
00000100
00000010
,
00000100
00000000
00001000
00000100
00001000
00000000
00000001
00001000
00000001
00000000
00000001
00000000
00000100
00000000
00000100
00000000
,
00001000
00010000
00100000
00010000
00001000
00010000
01000000
00010000
,
00001000
00000010
00001000
00010000
00001000
00000100
00001000
00010000
,
00100000
10000000
00100000
00010000
00001000
00000010
00000001
00000010
,
00001000
00010000
01000000
10000000
01000000
01000000
00010000
00001000
,
00000010
00000100
00010000
00000100
00001000
00000010
00000100
00000010
,
00001000
00010000
01000000
00010000
00100000
00001000
00010000
00001000
,
01000000
00010000
00100000
00010000
00001000
00000100
00001000
00000010
,
00000100
00001000
00010000
00001000
00100000
00100000
01000000
01000000
,
10010000
00000000
00000000
00000000
10000000
01000000
10000000
01000000
10000000
00000000
01000000
00000000
00010000
00000000
00001000
00000000
,
00000010
00000000
00000000
00000000
00000001
00000100
00000001
00000100
00000001
00000000
00000100
00000000
00001000
00000000
00010000
00000000
,
00100000
10000000
00010000
10000000
01000000
00010000
00001000
00000010
,
00000002
00000000
00002003
00000000
00003010
00010000
00010000
00010000
,
00100000
02200000
00000000
03300000
,
01000000
01000000
00001000
00001000
00010000
00010000
00000100
00000100
,
00001000
00000010
00000001
00000010
00000100
00001000
00010000
00001000
,
00100000
00000000
01100000
00000000
01000000
10000000
00100000
10000000
,
01000000
00000000
00010000
00001000
00010000
00000000
00000100
00000000
00010000
00001000
00010000
00000000
00000010
00000000
00010000
00001000
,
00010000
00000000
00000100
00000000
00001000
00000000
00000001
00000000
00000100
00000001
00000100
00000000
00000010
00001000
00000010
00000000
,
00000100
00000000
00001000
00010000
00001000
00000000
01000000
00000000
00001000
00010000
00001000
00000000
00100000
00000000
00001000
00010000
,
00001000
00000000
01000000
00000000
00010000
00000000
00100000
01000000
00100000
00000000
00010000
00000000
10000000
00100000
10000000
00000000
,
02000000
00000000
00000000
00000000
00000000
00000000
03010000
00000000
00001000
00010000
00001000
00000000
00010000
00000000
00000010
00000000
,
00001000
00000010
00001000
00000000
00000100
00001000
00000100
00000000
00010000
00001000
00010000
00000000
00100000
00000000
01000000
00100000
,
00000000
10000000
01000000
00010000
00001000
00000000
00000110
00000000
,
00000000
00000001
00000100
00010000
01000000
00000000
01100000
00000000
,
00001000
00000000
01001000
00000000
01001000
00000000
00000000
00000000
00000000
00000000
00020020
00000000
00000000
00030030
00000000
00000000
,
00010000
00000000
00010100
00000000
00010100
00000000
00000000
00000000
00000000
00000000
00202000
00000000
00000000
00303000
00000000
00000000
,
00100000
01000000
00010000
01000000
10000000
00100000
00010000
00011000
,
00000000
00000000
00001000
00000000
00001000
00000000
00000010
00000000
00000010
00000000
00000100
00000000
00001000
00000100
00001000
00000000
,
00000010
00000000
00010010
00000000
00010010
00000000
00000000
00000000
00000000
00000000
02002000
00000000
00000000
03003000
00000000
00000000
,
00100000
00000000
00110000
00000000
00110000
00000000
00000000
00000000
00000000
00000000
00002200
00000000
00000000
00003300
00000000
00000000
,
00000100
00000010
00001000
00000010
00000100
00010000
00001000
00011000
,
00000000
00000000
00010000
00000000
00010000
00000000
00100000
00000000
01000000
00010000
01000000
00010000
10000000
00000000
00000000
00000000
,
11000000
00000000
11000000
00000000
11000000
00000000
00000000
00000000
00000000
00000000
00220000
00000000
00000000
00330000
00000000
00000000
,
00001100
00000000
00001100
00000000
00001100
00000000
00000000
00000000
00000000
00000000
00000022
00000000
00000000
00000033
00000000
00000000
,
00000001
00000100
00010000
00000100
00000001
00000100
00001000
00011000
,
00000000
00000000
00010000
00000000
00010000
00000000
00000100
00000000
00001000
00000010
00001000
00000010
00010000
00000000
00000000
00000000
,
00000101
00000000
00000101
00000000
00000101
00000000
00000000
00000000
00000000
00000000
00002020
00000000
00000000
00003030
00000000
00000000
,
01010000
00000000
01010000
00000000
01010000
00000000
00000000
00000000
00000000
00000000
20200000
00000000
00000000
30300000
00000000
00000000
,
10000000
01000000
00001000
01000000
10000000
01000000
00010000
00011000
,
00000000
00000000
00001000
00000000
00001000
00000000
00000010
00000000
00000100
00001000
00000100
00001000
00000002
00000000
00000000
00000000
,
00000103
00000000
00001000
00000000
00010000
00000000
00001000
00000000
01000000
00000000
00010000
10000000
00010000
00000000
00100000
00000000
,
01000000
00000000
00010000
00000000
00001000
00000000
00010000
00000000
00000010
00000000
00001000
00000100
00001000
00000000
00000001
00000100
,
00000001
00000000
00000010
00000000
00000100
00000000
00000010
00000000
00001000
00000000
00010000
00001000
00010000
00000000
00001000
01000000
,
00001000
00000000
01000000
00010000
01000000
00000000
00100000
10000000
00200000
00000000
00000000
00000000
02300000
00000000
00000000
00000000
,
03010000
00000000
00100000
00000000
01000000
00000000
00100000
00000000
00001000
00000000
00010000
00000100
00010000
00000000
00001000
00000000
,
00000010
00000000
00000001
00000000
00000010
00000000
00000100
00000000
00001000
00000000
00000001
00000100
00000001
00000000
00001000
00000100
,
00001000
00000000
00000010
00000000
00001000
00000000
00010000
00000000
01000000
00000000
00010000
00100000
00010000
00000000
10000000
00100000
,
10000000
00000000
01000000
10000000
01000000
00000000
00100000
00010000
00100000
00000000
00001000
00000000
00010000
00000000
00001000
00000000
,
00000100
00000001
00000100
00000000
00000001
00000010
00000001
00000000
00000100
00000000
00001000
00000000
00010000
00000000
00100000
00000000
,
01000000
00001000
00000010
00001000
00010000
00100000
00010000
00000100
,
00002000
00000000
00000000
00000000
00000000
00000000
00000000
00000000
00000000
00000000
00000000
00000000
00000000
00000000
00000000
00003000
,
00000000
00000002
00000000
00000000
00000000
00000000
00000000
00000000
00000000
00000000
00000000
00000000
00000000
00000000
00000000
00000000
,
00000003
00000110
00000000
00000000
00000000
00000000
00000000
00000000
;

//--------------- dance-double - forcednature ----------------
#NOTEDATA:;
#STEPSTYPE:dance-double;
#DESCRIPTION:forcednature;
#DIFFICULTY:Challenge;
#METER:17;
#RADARVALUES:0,0,0,0,0;
#CREDIT:forcednature;
#NOTES:
00000000
00000000
00000000
00000000
,
00000000
00000000
00000000
00000000
,
00000000
00000000
00000000
00000000
,
00000000
00000000
00000000
00000000
,
00000000
00000000
00000000
00000000
,
00011000
00000000
00011000
00000000
00011000
00000000
00000000
00000000
00000000
00000000
00202000
00000000
00000000
00303000
00000000
00000000
,
00011000
00000000
00011000
00000000
00011000
00000000
00000000
00000000
00000000
00000000
00020020
00000000
00000000
00030030
00000000
00000000
,
00000010
00000100
00001000
00010000
00100000
01000000
00010000
10010000
,
00000000
00000000
10000000
00000000
10000000
00000000
10000000
00000000
01000000
00100000
00010000
10000000
02000000
00000000
00000000
00000000
,
03010000
00000000
00001000
00000000
00100000
00000000
00010000
00100000
00001000
00000000
00010000
00000000
00000010
00000000
00001000
00000010
,
00010000
00000000
00001000
00000000
01000000
00000000
00010000
01000000
00001000
00000000
00010000
00000000
00000100
00000000
00001000
00000100
,
00010000
00000000
00010000
00000010
00001000
00000000
00001000
00000001
00000010
00000100
00001000
00000100
00010000
00001000
00100000
00010000
,
00100000
00000000
01100000
00000000
01000000
10010000
00000000
00000000
,
01100000
00000000
01100000
00000000
01100000
00000000
00000000
00000000
00000000
00000000
00022000
00000000
00000000
00033000
00000000
00000000
,
00000110
00000000
00000110
00000000
00000110
00000000
00000000
00000000
00000000
00000000
00022000
00000000
00000000
00033000
00000000
00000000
,
00100000
01000000
00010000
00001000
00000010
00000100
00001000
00001001
,
00000000
00000000
00000001
00000000
00000001
00000000
00000001
00000000
00000100
00000001
00000010
00000000
00000100
00001000
00000010
00000000
,
00000101
00000000
00000101
00000000
00000101
00000000
00000000
00000000
00000000
00000000
00022000
00000000
00000000
00033000
00000000
00000000
,
11000000
00000000
11000000
00000000
11000000
00000000
00000000
00000000
00000000
00000000
00022000
00000000
00000000
00033000
00000000
00000000
,
00000010
00000100
00001000
00010000
00100000
01000000
00010000
10010000
,
00000000
00000000
10000000
00000000
10000000
00000000
10000000
00000000
01000000
00100000
01000000
00100000
00010000
10000000
00010000
10000000
,
00200000
00000000
00000000
00000000
00310000
00000000
00100000
00000000
01000000
00000000
00010000
10000000
00100000
00000000
10000000
00000000
,
02000000
00000000
00000000
00000000
03010000
00000000
00001000
00000000
00010000
00000000
00000100
00001000
00000100
00010000
00001000
00010000
,
00000020
00000000
00000000
00000000
00001030
00000000
00000001
00000000
00000100
00000000
00000001
00000010
00000100
00000010
00000100
00001000
,
00000100
00010000
00001000
00100000
00001000
00010000
00001000
01000000
00020000
00000000
00000000
00000000
00230000
00000000
00000000
00000000
,
02300000
00000000
00000000
00000000
03010000
00000000
01000000
00000000
10000000
00000000
00010000
00100000
01000000
00000000
00100000
00000000
,
00002000
00000000
00000000
00000000
00013000
00000000
00000010
00000000
00001000
00000000
00000001
00000010
00000100
00001000
00000100
00000010
,
00000002
00000000
00000000
00000000
00000103
00000000
00001000
00000000
00010000
00000000
00001000
00010000
00001000
00100000
00010000
00100000
,
01000000
10000000
00010000
10000000
00100000
01000000
00010000
01000000
00001000
00000000
00001000
00000000
00010000
00000000
00010000
00000000
,
00001000
00000010
00000001
00000100
00001000
00000100
00000001
00000010
,
00000000
00001000
00010000
01000000
00010000
00001000
00010000
00100000
,
00000000
10000000
01000000
00010000
00001000
00000100
00000001
00000010
,
00000000
00000001
00000100
00001000
00011000
00011000
00020000
00000000
,
00130000
10000000
01000000
00010000
01000000
10000000
00100000
00010000
,
00000000
00001000
00000100
00002000
00000000
00013000
01000000
00020000
,
00000000
00031000
00000010
00000001
00000100
00000100
00001000
00020000
,
00000000
00000000
00130000
00000000
01000000
00000000
00100000
00000000
10000000
00000000
10000000
00010000
00100000
00000000
01000000
00000000
,
01200000
00000000
00000000
00000000
00310000
00100000
00001000
00010000
00000100
00000000
00001000
00000000
00000001
00000000
00001000
00000000
,
00000020
00000000
00000000
00000000
00001030
00000010
00010000
00001000
01000000
00000000
00010000
00000000
10000000
00000000
00010000
00000000
,
00100000
01000000
00010000
00001000
00010000
01000000
00100000
00001000
,
00000020
00000000
00000230
00000000
00001300
00000001
00000100
00001000
,
00010000
00022000
00000000
00033000
,
01000000
00010000
00100000
00001000
00010000
00000010
00001000
00000100
,
00010000
00001000
00010000
00001000
01000000
00010000
01000000
00010000
10000000
01000000
10000000
01000000
00100000
00010000
00100000
00010000
,
10000000
00000000
10010000
00000000
10000000
01000000
00010000
00001000
,
00000010
00000000
00000100
00010000
00001000
00000000
00000010
00000000
00000100
00010000
00001000
00000000
00000010
00000000
00000100
00010000
,
00001000
00000000
00000010
00000000
00000001
00000000
00000010
00000000
00000100
00001000
00000100
00000000
00010000
00001000
00010000
00000000
,
00100000
00000000
01000000
00001000
00010000
00000000
00100000
00000000
01000000
00001000
00010000
00000000
00100000
00000000
01000000
00001000
,
00010000
00000000
00100000
00000000
10000000
00100000
00010000
00000000
00001000
00000000
00010000
00000000
01000000
10000000
00010000
10000000
,
00200000
00000000
00000000
00000000
00000000
00000000
10300000
00000000
01000000
00100000
01000000
00100000
00010000
00100000
00010000
00100000
,
00001000
00010000
00001000
00010000
00000010
00001000
00000010
00001000
00000001
00000100
00000001
00000100
00000010
00001000
00000001
00001000
,
00000000
00000020
00000230
00002300
00023000
00030000
00200000
01000000
,
00300000
01100000
01100000
01100000
01100000
00000000
10010000
00000000
,
11000000
00000000
11000000
00000000
11000000
00000000
01000000
00010000
00001000
00000000
00022000
00000000
00000000
00033000
00000000
00000000
,
00000101
00000000
00000101
00000000
00000101
00000000
00000100
00001000
00010000
00000000
00022000
00000000
00000000
00033000
00000000
00000000
,
00100000
01000000
00010000
00000100
00001000
00000010
00000100
00001001
,
00000000
00000000
00000001
00000000
00000001
00000000
00000001
00000000
00001000
00000010
00000100
00000001
00001000
00000000
00000000
00000000
,
00000101
00000000
00000101
00000000
00000101
00000000
00000100
00001000
00010000
00000000
00022000
00000000
00000000
00033000
00000000
00000000
,
11000000
00000000
11000000
00000000
11000000
00000000
01000000
00010000
00001000
00000000
00022000
00000000
00000000
00033000
00000000
00000000
,
00000010
00000100
00001000
01000000
00010000
00100000
01000000
10010000
,
00000000
00000000
10000000
00000000
10000000
00000000
10000000
00000000
00010000
00100000
01000000
10000000
00010000
00000000
00000000
00000000
,
11000000
00000000
10010000
00000000
10100000
00000000
00100000
00010000
00001000
00000000
00022000
00000000
00000000
00033000
00000000
00000000
,
00000101
00000000
00001001
00000000
00000011
00000000
00000010
00001000
00010000
00000000
00022000
00000000
00000000
00033000
00000000
00000000
,
00100000
01000000
00010000
00000010
00001000
00100000
00010000
00011000
,
00000000
00000000
00001000
00010000
00001000
00000000
00010000
00000100
00001000
00000100
00010000
00001000
00010000
00000010
00001000
00000000
,
00000101
00000000
00001001
00000000
00000011
00000000
00000010
00001000
00010000
00000000
00022000
00000000
00000000
00033000
00000000
00000000
,
11000000
00000000
10010000
00000000
10100000
00000000
00100000
00010000
00001000
00000000
00022000
00000000
00000000
00033000
00000000
00000000
,
00000010
00000100
00001000
00100000
00010000
00000010
00001000
00011000
,
00000000
00000000
00010000
00000000
00010000
00000000
00001000
00000000
01000000
00010000
01000000
00010000
10000000
01000000
00100000
00010000
,
10000000
00000000
00100000
00000000
00010000
00000000
00100000
00000000
10000000
00000000
00010000
01000000
00001000
00000000
00010000
00000000
,
00000100
00000000
00000001
00000000
00000100
00000000
00001000
00000000
00000001
00000000
00000100
00000010
00001000
00000100
00001000
00000010
,
00000100
00000000
00000001
00000000
00000100
00000000
00001000
00000000
00010000
00000000
00100000
10000000
00010000
01000000
00010000
10000000
,
00100000
01000000
00010000
00100000
00010000
01000000
00001000
00010000
00000020
00000000
00000000
00000000
00002030
00000000
00000000
00000000
,
00003001
00000000
00000010
00000000
00000100
00000000
00000010
00000000
00000001
00000000
00001000
00000010
00010000
00000000
00001000
00000000
,
01000000
00000000
00010000
00000000
00100000
00000000
01000000
00000000
00100000
00000000
00001000
00010000
00000100
00001000
00000100
00000010
,
00000001
00000000
00000100
00000000
00001000
00000000
00000100
00000000
00000001
00000000
00001000
00000010
00010000
00001000
00010000
00000100
,
00001000
00000100
00010000
00001000
00100000
00010000
01000000
00100000
10000000
00000000
11000000
00000000
00010000
00000000
01010000
00000000
,
00010000
00100000
01000000
00100000
00010000
01000000
00001000
00010000
00000010
00000000
00001010
00000000
00000100
00000000
00000101
00000000
,
00000001
00000000
00001000
00000000
00010000
00000000
10000000
00000000
00100000
00000000
01100000
00000000
10000000
00000000
01000000
00010000
,
00002000
00000000
00000000
00000000
,
00000000
00020000
00000000
00000000
00000000
00000000
00000000
00000000
00000000
00000000
00000000
00000000
00000000
00000000
00000000
00000000
,
00033000
00000010
00000000
00000000
00000000
00000000
00000000
00000000
;
