#VERSION:0.83;
#TITLE:entrance;
#SUBTITLE:;
#ARTIST:Kobo project with Masa;
#TITLETRANSLIT:;
#SUBTITLETRANSLIT:;
#ARTISTTRANSLIT:;
#GENRE:TECHNO;
#CREDIT:;
#MUSIC:entrance.ogg;
#BANNER:entrance.png;
#BACKGROUND:entrance-bg.png;
#CDTITLE:./CDTitles/bm IIDX 5th style.png;
#SAMPLESTART:49.691;
#SAMPLELENGTH:15.000;
#SELECTABLE:YES;
#OFFSET:0.955;
#BPMS:0.000=180.000;
#STOPS:116.000=1.000;
#TIMESIGNATURES:0.000=4=4,
116.000=1=4,
117.000=4=4
;
#BGCHANGES:0.000=../BGAs/10ho.mp4=1.000=0=0=0=StretchNoLoop====,
99999.000=-nosongbg-=1.000=0=0=0=StretchNoLoop====
;
#FGCHANGES:;

//--------------- dance-single - forcednature ----------------
#NOTEDATA:;
#STEPSTYPE:dance-single;
#DESCRIPTION:forcednature;
#DIFFICULTY:Beginner;
#METER:3;
#RADARVALUES:0,0,0,0,0;
#CREDIT:forcednature;
#NOTES:
0000
0000
0000
0000
,
0000
0000
0000
0000
,
0000
0000
0000
0000
,
0000
0000
0000
0000
,
0010
0000
0000
0000
,
1001
0000
0000
0000
,
1000
0000
0000
0000
,
0001
0000
0000
0000
,
0000
0000
0000
0000
,
1000
0000
0000
0000
,
0000
0000
0000
0000
,
0010
0000
0000
0000
,
0100
0000
0000
0000
,
0001
0000
0000
0000
,
0010
0000
0000
0000
,
0000
0000
0000
0000
,
0100
0000
0000
0000
,
0000
0000
0000
0000
,
1001
0000
0000
0000
,
0000
0000
0000
0000
,
0001
0000
0000
0000
,
0000
0000
0000
0000
,
0100
0000
0000
0000
,
0001
0000
0000
0000
,
0100
0000
0000
0000
,
0010
0000
0000
0000
,
1000
0000
0000
0000
,
0010
0000
0000
0000
,
1000
0000
0000
0000
,
0001
0000
0000
0000
,
0000
0110
0000
0000
,
0000
0000
0000
0000
,
0000
1001
0000
0000
,
0000
0000
0000
0000
,
0000
0110
0000
0000
,
0000
0000
0000
0000
,
0000
1001
0000
0000
,
0000
1000
0000
0100
,
0000
1000
0000
0000
,
0000
0001
0000
0100
,
0000
0001
0000
0000
,
0000
1000
0000
0010
,
0000
1000
0000
0000
,
0000
0001
0000
0010
,
0000
0001
0000
0000
,
0000
0100
0000
0100
,
0000
0100
0000
0000
,
0000
0010
0000
0010
,
0000
0010
0000
0000
,
0000
1000
0000
1000
,
0000
1000
0000
0000
,
0000
0001
0000
0001
,
0000
0001
0000
0000
,
0000
0010
0000
0000
,
0000
1001
0000
0000
,
0000
0000
0000
0000
,
0000
1000
0000
0000
,
0000
0000
0000
0000
,
0000
0001
0000
0000
,
0000
0000
0000
0000
,
0000
0100
0000
0000
,
0000
0000
0000
0000
,
0000
0010
0000
0000
,
0000
1000
0000
0000
,
0000
0010
0000
0000
,
0000
0100
0000
0000
,
0000
0001
0000
0000
,
0000
1000
0000
0000
,
0000
0001
0000
0000
,
0000
0010
0000
0000
,
0000
0100
0000
0000
,
0000
2002
0000
0000
,
0000
0000
3003
0000
;

//--------------- dance-single - forcednature ----------------
#NOTEDATA:;
#STEPSTYPE:dance-single;
#DESCRIPTION:forcednature;
#DIFFICULTY:Easy;
#METER:6;
#RADARVALUES:0,0,0,0,0;
#CREDIT:forcednature;
#NOTES:
0000
0000
0000
0000
,
0000
0000
0000
0000
,
0000
0000
0000
0000
,
0000
0000
0000
0000
,
0010
0000
0000
0010
0000
0000
0000
0000
,
2002
0000
3003
0000
,
0110
0000
0001
0000
,
1000
0000
0000
0000
,
0100
0000
0010
0000
,
0001
0000
0000
0000
,
0100
0100
0100
0000
,
0010
1000
0001
0000
,
0010
0010
0010
0000
,
0100
1000
0001
0000
,
1001
0000
1000
0000
,
0100
0010
0100
0000
,
1000
0000
0001
0000
,
0100
0010
0100
0000
,
1001
0000
0001
0000
,
0010
0100
0010
0000
,
0001
0000
1000
0000
,
0010
0100
0010
0000
,
1000
0100
1000
0000
,
0001
0100
0001
0000
,
0010
0100
1000
0000
,
0010
0100
0001
0000
,
1000
0010
1000
0000
,
0001
0010
0001
0000
,
0100
0010
1000
0000
,
0110
1001
0000
0001
,
0100
0010
1000
0001
,
0000
1001
0000
1000
,
0100
0010
0001
1000
,
0000
0110
0000
0001
,
0100
0010
1000
0001
,
0000
0110
0000
1000
,
0100
0000
0020
0000
0000
0000
0000
0030
,
0000
0110
0010
0001
,
1000
0010
0100
0001
,
0000
1000
0100
1000
,
0010
0100
0001
0001
,
0001
1001
1000
0100
,
1000
0010
0100
0001
,
0000
0010
0100
1000
,
0100
0010
0001
1000
,
0000
0010
0100
0001
,
0010
0100
0010
0001
,
0000
1000
0010
1000
,
0100
1000
0001
0001
,
0001
1001
1000
0010
,
0100
0001
0010
0001
,
0000
1000
0010
1000
,
0100
0010
0001
0010
,
0000
2002
0000
0000
,
3003
2000
0000
0000
,
0000
3020
0000
0000
,
0000
0230
0000
0000
,
0000
0302
0000
0023
,
0000
0230
0000
0000
,
0000
2300
0000
0000
,
0000
3002
0000
0000
,
0000
0203
0000
0000
,
0000
0310
0010
1000
,
0001
0010
0100
1000
,
0001
0100
0100
0001
,
1000
0100
1000
0010
,
0100
0001
0001
0010
,
0100
0010
0001
1000
,
0010
1000
1000
0100
,
0001
0100
0010
0001
,
1000
1001
0000
0010
,
0100
2002
0000
0000
,
0000
0000
3003
0000
;

//--------------- dance-single - forcednature ----------------
#NOTEDATA:;
#STEPSTYPE:dance-single;
#DESCRIPTION:forcednature;
#DIFFICULTY:Medium;
#METER:10;
#RADARVALUES:0,0,0,0,0;
#CREDIT:forcednature;
#NOTES:
0000
0000
0000
0000
,
0000
0000
0000
0000
,
0000
0000
0000
0000
,
0000
0000
0000
0000
,
0110
0000
0000
0110
0000
0000
0000
0000
,
2002
0000
0000
3003
,
0101
0000
0000
0101
0000
0000
0000
0000
,
1010
0000
0000
0000
,
1100
0000
0000
1100
0000
0000
0000
0000
,
0011
0000
0000
0000
,
0001
0000
0000
0100
0000
0000
0001
0000
0000
0000
1000
0000
0010
0000
0000
0000
,
1000
0100
1000
0000
0001
0010
0001
0000
,
0100
0000
0000
0010
0000
0000
0100
0000
0000
0000
0001
0000
1000
0000
0000
0000
,
0100
0010
0100
0000
1000
0001
1000
0001
,
0100
0000
0100
0000
1000
0100
0001
0000
,
0010
0000
0100
0000
0010
0001
0100
0000
,
0010
0000
0001
0000
0010
1000
0001
0000
,
1000
0000
0100
0000
0001
0100
1000
0000
,
1010
0000
0010
0000
0100
1000
0100
0000
,
0001
0000
0010
0000
0100
1000
0010
0000
,
0100
0000
1000
0000
0100
0001
0010
0000
,
0100
0000
0001
0000
0100
1000
0010
0000
,
0100
0000
0000
0100
0000
0000
0001
0000
0000
0000
0010
0000
0100
0000
0000
0000
,
1000
0010
1000
0000
0001
0010
0001
0000
,
0100
0000
0000
0100
0000
0000
0010
0000
0000
0000
1000
0000
0001
0000
0000
0000
,
0010
0100
0010
0000
0001
0100
0001
0000
,
1000
0000
0000
1000
0000
0000
0100
0000
0000
0000
1000
0000
0010
0000
0000
0000
,
0100
1000
0100
0000
0100
0001
0100
0000
,
0010
0000
0000
0010
0000
0000
1000
0000
0000
0000
0001
0000
0010
0000
0000
0000
,
2002
3003
0000
0000
0110
0000
0000
0000
0001
0000
0000
0000
1000
0000
0010
0000
,
1000
0000
0110
0000
1000
0000
0001
0010
,
0001
0000
0110
0000
0001
0000
1000
0100
,
1000
0000
0110
0000
1000
0000
0001
0100
,
0001
0000
0110
0000
0000
0110
0000
1000
,
0001
0000
1001
0000
1000
0000
0100
0010
,
0100
0000
0110
0000
1000
0000
0001
0100
,
0001
2002
0000
0000
,
3003
0000
1010
0000
0010
0100
0000
1000
,
0000
0100
0001
0010
0100
0000
0010
0000
,
0001
0000
1000
0000
0010
0100
0000
0001
,
0000
0000
0010
0000
0100
0000
1000
0000
0010
0000
0000
0000
0010
0000
0000
0010
,
0000
0010
0100
0000
0001
0010
0000
0100
,
0000
1000
0001
0100
0010
0000
1000
0000
,
0100
0000
0010
0000
0100
1000
0000
0001
,
0000
0100
1000
0100
0010
0000
1000
0000
,
0001
0000
0110
0000
1000
0001
0000
0100
,
0000
0010
1000
0001
0010
0000
0100
0000
,
0001
0000
0100
0000
1000
0001
0000
0010
,
0000
0000
1000
0000
0010
0000
0001
0000
0100
0000
0000
0000
0100
0000
0000
0100
,
0000
0100
0010
0000
1000
0001
0000
0010
,
0000
0100
1000
0100
0010
0000
0001
0000
,
1000
0000
0010
0000
0100
1000
0000
0100
,
0000
0001
0010
0001
1000
0000
0010
0000
,
1000
2002
0000
0000
,
3003
0220
0330
0001
,
1000
0010
1000
0001
,
0000
0020
0000
0130
,
1000
0100
0010
0001
,
0000
0200
0000
0310
,
1000
0001
0010
0001
,
0000
2000
0000
3010
,
0100
0001
0010
0200
,
0000
0300
1000
0100
1100
0000
0001
0000
,
0010
0001
1000
0010
,
0100
0000
0001
0010
0011
0000
1000
0000
,
0010
0100
0001
1000
,
0100
0000
1000
0010
1010
0000
0001
0000
,
0100
0010
1000
0001
,
0010
0000
0001
0100
0101
0000
1000
0000
,
0100
0010
0001
0100
,
0010
0000
0000
0000
1001
0000
0000
0010
0000
0010
0000
0010
0000
0000
1000
0000
,
0001
0220
0000
0000
,
0000
0000
0330
0000
;

//--------------- dance-single - forcednature ----------------
#NOTEDATA:;
#STEPSTYPE:dance-single;
#DESCRIPTION:forcednature;
#DIFFICULTY:Hard;
#METER:14;
#RADARVALUES:0,0,0,0,0;
#CREDIT:forcednature;
#NOTES:
0000
0000
0000
0000
,
0000
0000
0000
0000
,
0000
0000
0000
0000
,
0000
0000
0000
0000
,
1001
0000
0000
1001
0000
0000
0000
0000
,
0220
0000
0000
0330
,
1001
0000
0001
0100
0000
1000
0100
0000
,
0110
0000
0010
0000
1000
0001
0000
0010
,
0100
0000
0001
0100
0000
1000
0100
0000
,
0110
0000
0010
0000
0001
1000
0000
0010
,
0100
0000
0000
0100
0000
0000
0001
0000
0000
0000
0001
0000
0010
0000
0001
0000
,
1000
0000
0010
0000
1000
0000
0100
1000
0100
0000
1000
0000
0010
0000
1000
0000
,
0001
0000
0000
0010
0000
0000
0001
0000
0000
0000
1000
0000
0100
0000
1000
0000
,
0001
0000
0100
0000
0001
0000
0010
0001
0010
0000
0010
0000
0010
0000
0010
0000
,
0001
0100
1000
0100
0010
1000
0001
0000
,
0010
0100
0001
0100
0010
0001
1000
0001
,
0100
0010
0001
0010
0100
0001
1000
0000
,
0010
1000
0100
0001
0100
1000
0010
0100
,
0110
0010
1000
0001
0010
0001
0100
0000
,
0010
0001
0010
1000
0001
1000
0100
0001
,
0100
0010
0001
1000
0010
0100
0001
0000
,
1000
0100
1000
0010
0001
0010
0100
0001
,
0011
0000
0000
0010
0000
0000
0100
0000
0000
0000
1000
0000
0001
0000
0100
0000
,
0001
0000
0010
0000
0001
0000
0010
0100
0010
0000
0100
0000
1000
0000
0001
0000
,
1000
0000
0000
1000
0000
0000
0010
0000
0000
0000
0100
0000
0001
0000
1000
0000
,
0100
0000
1000
0000
0010
0000
1000
0100
1000
0000
0010
0000
0100
0000
0001
0000
,
0011
0000
0000
0010
0000
0000
0100
0000
0000
0000
1000
0000
0001
0000
0100
0000
,
0010
0000
1000
0000
0001
0000
0010
0001
0010
0000
0100
0000
1000
0000
0001
0000
,
0100
0000
0000
0100
0000
0000
0010
0000
0000
0000
1000
0000
0001
0000
0010
0000
,
0220
0330
0000
0000
1001
0000
0000
0000
0001
0000
0100
0000
1000
0000
0001
0000
,
0010
0000
1010
0000
1000
0100
0001
0100
,
0010
0000
1001
0000
1000
0100
0001
1000
,
0010
0000
0011
0000
0001
0100
0010
0001
,
0010
0000
1000
0010
0001
1000
0100
0001
,
0010
0000
0110
0000
0100
1000
0001
0100
,
0010
0000
1001
0000
0001
0010
1000
0001
,
0100
0220
0000
0000
,
0330
0000
0000
0000
0010
0000
0001
0010
0001
0000
1000
0000
0010
0000
0100
0000
,
0001
0000
0010
0000
0100
0000
0010
0000
0001
0000
0000
0000
1000
0000
0000
1000
,
0010
0000
0100
0000
1000
0000
0100
0001
0100
0000
0010
0000
1000
0000
0001
0000
,
0010
0000
0100
0000
0001
0000
0100
0000
1100
0000
0000
0000
0011
0000
0000
0011
,
0000
0000
1000
0000
0001
0000
0100
0010
0100
0000
0001
0000
0010
0000
0001
0000
,
1000
0000
0010
0000
0001
0000
0010
0000
0100
0000
0000
0000
0001
0000
0000
0001
,
0010
0000
0100
0000
0001
0000
0100
1000
0100
0000
0010
0000
0001
0000
1000
0000
,
0010
0000
0100
0000
1000
0000
0100
0000
0010
0000
1000
0000
0001
0000
0010
0100
,
1000
0000
1000
0000
0001
0000
0100
0001
0100
0000
0010
0000
1000
0000
0010
0000
,
0001
0000
0010
0000
0100
0000
0001
0000
1000
0000
0000
0000
0100
0000
0000
0100
,
0010
0000
0001
0000
0100
0000
0010
1000
0010
0000
0100
0000
1000
0000
0100
0000
,
0001
0000
0010
0000
0001
0000
0100
0000
1001
0000
0000
0000
0110
0000
0000
0110
,
0000
0000
0001
0000
1000
0000
0010
0100
0010
0000
1000
0000
0100
0000
1000
0000
,
0010
0000
0100
0000
0001
1000
0001
0000
0010
0000
0100
0000
1000
0000
0000
1000
,
0100
0000
0001
0000
0100
0000
0010
0001
0010
0000
0100
0000
1000
0000
0001
0000
,
0100
0000
0010
0000
0001
0000
0010
0000
1000
0000
0001
0000
0010
0000
0000
0010
,
0100
1000
2002
0000
0000
0000
0000
0000
,
3003
0000
0110
0000
0001
0100
1000
0000
,
0100
0001
0010
0001
1000
0100
1000
0000
,
0010
0100
0002
0000
0010
0000
1003
0000
,
0001
0100
0010
1000
0001
0100
0001
0000
,
0010
0100
2000
0000
0010
0000
3001
0000
,
1000
0100
0010
0100
1000
0001
0010
0000
,
0001
0100
0020
0000
0001
0000
1030
0000
,
0010
0100
0001
1000
0100
0010
0002
0000
,
0003
0000
0011
0010
0110
0000
1000
0001
,
0100
0000
0000
0000
0010
0000
1000
0000
0001
0000
0010
0000
0100
0000
0000
0100
,
1000
0010
0110
0100
0101
0000
0001
0010
,
0100
0000
0000
0000
0010
0000
0001
0000
0100
0000
0001
0000
1000
0000
0000
1000
,
0010
0100
1001
1000
1100
0000
0011
0000
,
0101
0000
0000
0000
1000
0000
0010
0000
0001
0000
0010
0000
0100
0000
0000
0100
,
0001
0010
0110
0100
1100
0000
1000
0001
,
0100
0000
0000
0000
0010
0000
1000
0000
0001
0000
0010
0000
0100
0000
1000
0100
,
1000
0000
0010
0000
0110
0000
0100
0001
0000
0001
0000
0010
0000
0000
0100
1000
,
0001
0000
0100
0010
2000
0000
0000
0000
0000
0000
0000
0000
0000
0000
0000
0000
,
0000
0000
3000
0000
;

//--------------- dance-double - forcednature ----------------
#NOTEDATA:;
#STEPSTYPE:dance-double;
#DESCRIPTION:forcednature;
#DIFFICULTY:Easy;
#METER:6;
#RADARVALUES:0,0,0,0,0;
#CREDIT:forcednature;
#NOTES:
00000000
00000000
00000000
00000000
,
00000000
00000000
00000000
00000000
,
00000000
00000000
00000000
00000000
,
00000000
00000000
00000000
00000000
,
00001000
00000000
00000000
00001000
00000000
00000000
00000000
00000000
,
00020000
00000000
00000000
00030000
,
00000100
00000000
00000000
00000100
00000000
00000000
00000000
00000000
,
00001000
00000000
00000000
00000000
,
00000001
00000000
00000000
00000001
00000000
00000000
00000000
00000000
,
00001000
00000000
00000000
00000000
,
00000010
00000000
00000010
00000000
,
00010000
00001000
00010000
00001000
,
00100000
00000000
00100000
00000000
,
00001000
00010000
00001000
00000000
,
01000000
00010000
01000000
00000000
,
00001000
00000000
00010000
00000000
,
00000100
00001000
00000100
00000000
,
00010000
00000000
00001000
00000000
,
00100000
00010000
00100000
00000000
,
00001000
00000000
00010000
00000000
,
00000010
00001000
00000010
00000000
,
00010000
00000000
00001000
00000000
,
01000000
01000000
01000000
00000000
,
00010000
10000000
00010000
00000000
,
00100000
00100000
00100000
00000000
,
00010000
10000000
00010000
00000000
,
01000000
01000000
01000000
00000000
,
00001000
00010000
00001000
00000000
,
00100000
00100000
00100000
00000000
,
00011000
00010000
00000100
00001000
,
00000000
00000100
00010000
00001000
,
00000000
01000000
00001000
00010000
,
00000000
00001000
01000000
00010000
,
00000000
10000000
01000000
00100000
,
01000000
00100000
00001000
00010000
,
00000000
00000100
00001000
00000001
,
00000000
00002002
00000000
00000000
,
00003003
00000001
00000100
00000001
,
00000100
00000010
00010000
00001000
,
00000000
01000000
00010000
00100000
,
00010000
10000000
00100000
10000000
,
00000000
01000000
00100000
00001000
,
00010000
00001000
01000000
00010000
,
00000000
10000000
01000000
00100000
,
00001000
00010000
00000010
00001000
,
00000000
00000001
00000010
00000100
,
00010000
00000010
00001000
00000001
,
00000000
00000100
00000010
00001000
,
00000100
00010000
00001000
01000000
,
00000000
00010000
00100000
00001000
,
00010000
00001000
01000000
00010000
,
00000000
10000000
01000000
00100000
,
00001000
00010000
00000100
00001000
,
00000000
00002002
00000000
00000000
,
00003003
00000001
00000000
00000100
,
00000000
00001000
00000000
00010000
,
00000000
00100000
00000000
00000000
,
00000000
01000000
00000000
00010000
,
00000000
10000000
00000000
01000000
,
00000000
00010000
00000000
00001000
,
00000000
00000020
00000000
00000000
,
00000000
00000200
00000000
00000000
,
00000330
00000010
00000001
00000100
,
00000001
00000010
00000100
00010000
,
00000000
00001000
00100000
00010000
,
00100000
00001000
01000000
00010000
,
00000000
10000000
01000000
10000000
,
00010000
01000000
00010000
00100000
,
00000000
00001000
00010000
00000010
,
00001000
00000010
00010000
00001000
,
00000000
00022000
00000000
00033000
,
00000000
00000200
00000000
00000000
,
00000000
00000000
00000300
00000000
;

//--------------- dance-double - forcednature ----------------
#NOTEDATA:;
#STEPSTYPE:dance-double;
#DESCRIPTION:forcednature;
#DIFFICULTY:Medium;
#METER:11;
#RADARVALUES:0,0,0,0,0;
#CREDIT:forcednature;
#NOTES:
00000000
00000000
00000000
00000000
,
00000000
00000000
00000000
00000000
,
00000000
00000000
00000000
00000000
,
00000000
00000000
00000000
00000000
,
00011000
00000000
00000000
00011000
00000000
00000000
00000000
00000000
,
02002000
00000000
00000000
03003000
,
01000000
00000000
00010000
10000000
00000000
00010000
00100000
00000000
,
01100000
00000000
01000000
00010000
,
00001000
00000000
00010000
00000100
00000000
00001000
00000100
00000000
,
00000110
00000000
00000010
00000001
,
00001000
00000000
00000000
00001000
00000000
00000000
00001000
00000000
00000000
00000000
00000000
00000000
00000010
00000000
00000000
00000000
,
00010000
00000000
00001000
00010000
00001000
00000000
00100000
00000000
,
01000000
00000000
00000000
01000000
00000000
00000000
01000000
00000000
00000000
00000000
00000000
00000000
10000000
00000000
00000000
00000000
,
00010000
00000000
01000000
00001000
00020000
00000000
00000000
00000000
,
00030100
00001000
00000100
00000000
00000010
00000000
00000001
00000000
,
00001000
00000010
00001000
00000000
00010000
00000000
01000000
00000000
,
00001000
00010000
00001000
00000000
00100000
00000000
00010000
00000000
,
10000000
00100000
10000000
00000000
01000000
00000000
00010000
00000000
,
00001000
00100000
00010000
00000000
01000000
00000000
00001000
00000000
,
00010000
00000100
00010000
00000000
00001000
00000000
00000010
00000000
,
00000001
00001000
00000001
00000000
00000100
00000000
00000010
00000000
,
00001000
00000100
00001000
00000000
00000010
00000000
00010000
00000000
,
00001000
00000000
00000000
00001000
00000000
00000000
00001000
00000000
00000000
00000000
00100000
00000000
00010000
00000000
00000000
00000000
,
10000000
00100000
10000000
00000000
01000000
10000000
01000000
00000000
,
00100000
00000000
00000000
00100000
00000000
00000000
00100000
00000000
00000000
00000000
00001000
00000000
00010000
00000000
00000000
00000000
,
00000010
00001000
00000010
00000000
00000100
00000001
00000100
00000000
,
00000010
00000000
00000000
00000010
00000000
00000000
00000010
00000000
00000000
00000000
00001000
00000000
00000001
00000000
00000000
00000000
,
00001000
00000100
00001000
00000000
00000100
00010000
00000100
00000000
,
00010000
00000000
00000000
00010000
00000000
00000000
00010000
00000000
00000000
00000000
00001000
00000000
01000000
00000000
00000000
00000000
,
02020000
03030000
00000000
00000000
10010000
00000000
00000000
00000000
10000000
00000000
00000000
00000000
01000000
00000000
00000000
00000000
,
00010000
00001000
00100000
00000000
00001000
00000000
00010000
00000000
,
00000010
00001000
00000001
00000000
00000010
00000000
00001000
00000000
,
00010000
00000100
00001000
00000000
00000010
00000000
00000100
00000000
,
00001000
00010000
00100000
00000000
00010000
00001000
00000000
00010000
,
00100000
01000000
00010000
10000000
,
01000000
00010000
00001000
00000000
00100000
00000000
00001000
00000000
,
00010000
00000010
00002000
00000000
00000000
00000000
00000000
00000000
,
00003000
00000000
00000001
00000010
00000100
00001000
00000000
00000100
,
00000010
00000000
00000100
00010000
00001000
00000000
00100000
00000000
,
00010000
00000000
10000000
00100000
01000000
00010000
00000000
00100000
,
01000000
00000000
00000000
00000000
00100000
00000000
00001000
00000000
00010000
00000000
00000000
00000000
00000010
00000000
00000000
00000010
,
00000000
00000010
00001000
00000001
00001000
00000100
00000000
00010000
,
00001000
00000000
01000000
00010000
10000000
00000000
01000000
00000000
,
00100000
00000000
00001000
00010000
00000010
00001000
00000000
00000001
,
00000010
00000000
00000100
00001000
00000010
00000000
00010000
00000000
,
00001000
00000000
01000000
00010000
10000000
01000000
00000000
00100000
,
00001000
00000000
00010000
00100000
01000000
00000000
00010000
00000000
,
10000000
00000000
01000000
00100000
00010000
00100000
00000000
00001000
,
00010000
00000000
00000000
00000000
00000010
00000000
00001000
00000000
00000100
00000000
00000000
00000000
00000100
00000000
00000000
00000100
,
00000000
00000100
00000010
00000001
00001000
00000010
00000000
00010000
,
00001000
00000000
00100000
00010000
00100000
00000000
01000000
00000000
,
10000000
00000000
00010000
01000000
00001000
00010000
00000000
00000100
,
00001000
00000000
00000001
00000010
00000001
00000000
00000100
00000000
,
00001000
00022000
00000000
00000000
,
00033000
00000000
00010000
00000000
00000100
00001000
00000100
00000000
,
00000010
00000001
00001000
00000010
,
00000000
00000000
00010000
00000000
00001000
01000000
00001000
00000000
,
00010000
00100000
10000000
01000000
,
00000000
00000000
00100000
00000000
00010000
10000000
00010000
00000000
,
01000000
00001000
00010000
00000010
,
00000000
00000000
00001000
00000000
00000100
00000010
00000100
00000000
,
00000010
00000002
00000000
00000000
,
00000003
00000000
00000100
00000100
00000100
00000000
00000001
00000000
,
00000010
00001000
00010000
01000000
,
10000000
00000000
00100000
00100000
00100000
00000000
10000000
00000000
,
01000000
00010000
00001000
00000100
,
00000001
00000000
00000010
00000010
00000010
00000000
00000001
00000000
,
00000100
00001000
00010000
00100000
,
10000000
00000000
01000000
01000000
01000000
00000000
10000000
00000000
,
00100000
00010000
00001000
00000010
,
00000001
00002002
00000000
00003003
,
00000010
00022000
00000000
00000000
,
00000000
00000000
00033000
00000000
;

//--------------- dance-double - forcednature ----------------
#NOTEDATA:;
#STEPSTYPE:dance-double;
#DESCRIPTION:forcednature;
#DIFFICULTY:Hard;
#METER:15;
#RADARVALUES:0,0,0,0,0;
#CREDIT:forcednature;
#NOTES:
00000000
00000000
00000000
00000000
,
00000000
00000000
00000000
00000000
,
00000000
00000000
00000000
00000000
,
00000000
00000000
00000000
00000000
,
00011000
00000000
00000000
00011000
00000000
00000000
00000000
00000000
,
00020200
00000000
00000000
00030300
,
00000100
00000000
00001000
00000010
00000000
00001000
00000001
00000000
,
00000101
00000000
00000100
00000000
00000010
00001000
00000000
00000100
,
00010000
00000000
00001000
01000000
00000000
00010000
00100000
00000000
,
00110000
00000000
00010000
00000000
01000000
00100000
00000000
10000000
,
01000000
00000000
00000000
01000000
00000000
00000000
01000000
00000000
00000000
00000000
00010000
00000000
00001000
00000000
00010000
00000000
,
00001000
00100000
00010000
00100000
00001000
00010000
00000010
00001000
,
00000010
00000000
00000000
00000010
00000000
00000000
00000010
00000000
00000000
00000000
00000100
00000000
00000001
00000000
00001000
00000000
,
00000001
00000010
00000100
00001000
00000002
00000000
00000000
00000000
,
00000103
00001000
00010000
00000100
00010000
00001000
00101000
00000000
,
00001000
00010000
00100000
00000000
01100000
00000000
10010000
00000000
,
10000000
01000000
00010000
00001000
00100000
00010000
00110000
00000000
,
00010000
01000000
00001000
00000000
00011000
00000000
00010010
00000000
,
00000010
00010000
00000100
00000010
00000001
00000100
00000110
00000000
,
00000010
00010000
00001000
00000000
00101000
00000000
00110000
00000000
,
01000000
10000000
00010000
01000000
00001000
00010000
00010100
00000000
,
00000100
00001000
00000010
00000000
00000110
00000000
00000101
00000000
,
00000001
00000000
00000000
00000001
00000000
00000000
00000001
00000000
00000000
00000000
00000010
00000000
00000100
00000000
00001000
00000000
,
00000100
00010000
00001000
00010000
00000010
00001000
00000010
00010000
,
00001000
00000000
00000000
00001000
00000000
00000000
00001000
00000000
00000000
00000000
01000000
00000000
00010000
00000000
01000000
00000000
,
00001000
00010000
00001000
00100000
00010000
00100000
01000000
10000000
,
00010000
00000000
00000000
00010000
00000000
00000000
00010000
00000000
00000000
00000000
01000000
00000000
00100000
00000000
01000000
00000000
,
00010000
00100000
00010000
01000000
00001000
01000000
00010000
00100000
,
00001000
00000000
00000000
00001000
00000000
00000000
00001000
00000000
00000000
00000000
00010000
00000000
00000010
00000000
00001000
00000000
,
00000200
00000300
00000000
00000000
00000210
00000000
00000000
00000000
00000310
00000000
00000001
00000000
00000100
00000000
00000000
00000000
,
00001000
00000000
00012000
00000000
00013000
00100000
10000000
00000000
,
01000000
00000000
02100000
00000000
03100000
00001000
00010000
00000000
,
00100000
00000000
01200000
00000000
01300000
00010000
10000000
00000000
,
01000000
00000000
02100000
00000000
03100000
00001000
00000000
00000010
,
00001000
00000000
00012000
00000000
00013000
00000100
00001000
00000000
,
00000010
00000000
00000120
00000000
00000130
00001000
00010000
00000000
,
01000000
02200000
00000000
00000000
,
03300000
00000000
00000000
00000000
00100000
00010000
00100000
00000000
00001000
00000000
00010000
00001000
00010000
00000000
00000100
00001000
,
00000100
00000000
00000010
00000100
00000010
00000000
00000001
00000000
00000100
00000000
00001000
00000000
00010000
00001000
00000000
00010000
,
00001000
00000000
00100000
00000000
00010000
00100000
00010000
00000000
10000000
00000000
00100000
01000000
00100000
00000000
01000000
00010000
,
01000000
00000000
00001000
00010000
00001000
00000000
00100000
00000000
01100000
00000000
00000000
00000000
00110000
00000000
00000000
01100000
,
00000000
00000000
00110000
00000000
00100000
00001000
00010000
00000000
00001000
00000000
00010000
00000010
00010000
00000000
00000010
00001000
,
00000010
00000000
00001000
00000100
00001000
00000000
00000001
00000000
00000100
00000000
00000001
00000000
00000010
00000100
00000000
00000010
,
00000100
00000000
00001000
00000000
00000010
00001000
00000010
00000000
00010000
00000000
00001000
00100000
00001000
00000000
00100000
00010000
,
00100000
00000000
01000000
00100000
01000000
00000000
10000000
00000000
00100000
00000000
00010000
00000000
00001000
00010000
00000000
00010000
,
00001000
00000000
00000010
00000000
00000100
00001000
00000001
00000000
00000100
00000000
00000010
00001000
00000010
00000000
00010000
00001000
,
00010000
00000000
00000100
00001000
00000100
00000000
00010000
00000000
00001000
00000000
01000000
00000000
00010000
00100000
00000000
00010000
,
00100000
00000000
01000000
00000000
10000000
00100000
10000000
00000000
00010000
00000000
01000000
00001000
01000000
00000000
00001000
00010000
,
00001000
00000000
00100000
00010000
00100000
00000000
01000000
00000000
01100000
00000000
00000000
00000000
00110000
00000000
00000000
00011000
,
00000000
00000000
00110000
00000000
00001000
00010000
00000100
00000000
00001000
00000000
00000001
00000100
00000001
00000000
00000010
00000100
,
00000010
00000000
00000001
00001000
00000001
00000000
00000100
00000000
00001000
00000000
00010000
00000000
00100000
01000000
00000000
01000000
,
00100000
00000000
10000000
00000000
00010000
00100000
01000000
00000000
10000000
00000000
00010000
01000000
00010000
00000000
00100000
00010000
,
00100000
00000000
00001000
00010000
00001000
00000000
00000010
00000000
00000001
00000000
00000100
00000000
00000001
00001000
00000000
00000001
,
00001000
00000010
00000220
00000000
00000000
00000000
00000000
00000000
,
00000330
00000000
00000010
00010000
00001000
00000010
00001000
00010000
,
01000000
00100000
00002000
00000000
00000000
00000000
00000000
00000000
,
00000000
00000000
00013000
00100000
10000000
01000000
00010000
00001000
,
01000000
00010000
00200000
00000000
00000000
00000000
02300000
00000000
,
00000000
00000000
03010000
00001000
00000010
00000100
00010000
00000010
,
00001000
00000001
00000020
00000000
00000000
00000000
00000000
00000000
,
00000000
00000000
00001030
00010000
00100000
01000000
00010000
10000000
,
01000000
00010000
00002000
00000000
00000000
00000000
00000000
00000000
,
00003000
00000000
00110000
00100000
01100000
00000000
01000000
00010000
,
00001000
00000000
00100000
00000000
00001000
00000000
00010000
00000000
00000010
00001000
00000010
00000000
00000100
00000000
00000001
00000000
,
00000010
00000000
00000110
00000100
00001100
00000000
00001000
00000010
,
00010000
00000000
00001000
00000000
01000000
00000000
00010000
00000000
00100000
00010000
00100000
00000000
01000000
00000000
10000000
00000000
,
00010000
00000000
01010000
01000000
01001000
00000000
00001000
00010000
,
00000010
00000000
00001000
00000000
00000100
00000000
00000010
00000000
00000001
00001000
00000001
00000000
00000100
00000000
00000010
00000000
,
00001000
00000000
00001100
00000100
00010100
00000000
00010000
00001000
,
01000000
00000000
00010000
00000000
00100000
00010000
00100000
00000000
01000000
00000000
10000000
00000000
00100000
00000000
01000000
00000000
,
00010000
00000000
00000000
00000000
10010000
00000000
00000000
10000000
00000000
01000000
00000000
00010000
00000000
00000000
00001000
00000000
,
00000010
00000000
00000001
00001000
00000020
00000000
00000000
00000000
00000000
00000000
00000000
00000000
00000000
00000000
00000000
00000000
,
00000000
00000000
00000030
00000000
;
