#VERSION:0.83;
#TITLE:encounter;
#SUBTITLE:;
#ARTIST:猫叉Master+;
#TITLETRANSLIT:;
#SUBTITLETRANSLIT:;
#ARTISTTRANSLIT:Nekomata Master+;
#GENRE:DRUM'N'BASS;
#CREDIT:;
#MUSIC:encounter.ogg;
#BANNER:encounter.png;
#BACKGROUND:encounter-bg.png;
#CDTITLE:./CDTitles/jubeat ripples APPEND.png;
#SAMPLESTART:93.974;
#SAMPLELENGTH:15.000;
#SELECTABLE:YES;
#OFFSET:0.753;
#BPMS:0.000=190.000
,68.000=270.000
,70.000=190.000
,120.000=95.000
,128.000=190.000
,256.000=95.000
,264.000=190.000
,348.000=95.000
;
#STOPS:68.000=0.047
,68.500=0.047
,69.000=0.047
,69.500=0.048
;
#DISPLAYBPM:95.000:190.000;
#BGCHANGES:0.000=../BGAs/22bk.mp4=1.000=0=0=0=StretchNoLoop====,
99999.000=-nosongbg-=1.000=0=0=0=StretchNoLoop====
;
#FGCHANGES:;

//--------------- dance-single - forcednature ----------------
#NOTEDATA:;
#STEPSTYPE:dance-single;
#DESCRIPTION:forcednature;
#DIFFICULTY:Beginner;
#METER:3;
#RADARVALUES:0,0,0,0,0;
#CREDIT:forcednature;
#NOTES:
0000
0000
0000
0000
,
0000
0000
0000
0000
,
0000
0000
0000
0000
,
0000
0000
0000
0000
,
0000
0000
0000
0000
,
0000
0000
0000
0000
,
1000
0000
0000
0000
,
0000
0000
0000
0000
,
0001
0000
0000
0000
,
0000
0000
0000
0000
,
1001
0000
0000
0000
,
1000
0000
0000
0000
,
0010
0000
0000
0000
,
1000
0000
0000
0000
,
0001
0000
0000
0000
,
0010
0000
0000
0000
,
0001
0000
0000
0000
,
0100
0000
0100
0000
,
0010
0000
0000
0010
,
0000
0000
0010
0000
,
1000
0000
0000
1000
,
0000
0000
1000
0000
,
0001
0000
0000
0001
,
0000
0000
0001
0000
,
0100
0000
0000
0100
,
0000
0000
0100
0000
,
0001
0000
0000
1000
,
0000
0000
1001
0000
,
0000
0110
0000
0000
,
1000
0000
0001
0000
,
2000
0000
0000
0000
,
3000
0000
0000
0000
,
1001
0000
0000
0000
,
0001
0000
0100
0000
,
0001
0000
0000
0000
,
0100
0000
0010
0000
,
0100
0000
0000
0000
,
0010
0000
1000
0000
,
0010
0000
0000
0000
,
1000
0000
0000
0000
,
1001
0000
0000
0000
,
1000
0000
0100
0000
,
1000
0000
0000
0000
,
0100
0000
0010
0000
,
0100
0000
0000
0000
,
0010
0000
0001
0000
,
0010
0000
0000
0000
,
0001
0000
0000
0000
,
1001
0000
0000
1000
,
0000
0000
1000
0000
,
0010
0000
0000
0010
,
0000
0000
0100
0000
,
0001
0000
0000
0001
,
0000
0000
0001
0000
,
0010
0000
0000
0010
,
0000
0000
0100
0000
,
1000
0000
0000
0001
,
0000
0000
1000
0000
,
0010
0000
0000
0010
,
0000
0000
0100
0000
,
0001
0000
0000
1000
,
0000
0000
0001
0000
,
0010
0000
0000
0010
,
0000
0000
0100
0000
,
2000
0000
0000
0000
,
3000
0000
0000
0000
,
0001
0000
0000
0000
,
0100
0000
0000
0000
,
0010
0000
0000
0000
,
1000
0000
0000
0000
,
0200
0000
0300
0000
,
1000
0000
1000
0000
,
1000
0000
0000
0000
,
0001
0000
0001
0000
,
0001
0000
0000
0000
,
0100
0000
0100
0000
,
0100
0000
0000
0000
,
0010
0000
0100
0000
,
1001
0000
0000
0000
,
0001
0000
0010
0000
,
0001
0000
0000
0000
,
0010
0000
0100
0000
,
0010
0000
0000
0000
,
0100
0000
1000
0000
,
0100
0000
0000
0000
,
1000
0000
0001
0000
,
1001
0000
0000
0000
,
0220
0000
0000
0000
,
0000
0000
0000
0000
,
0000
0000
0000
0000
0330
0000
0000
0000
0000
0000
0000
0000
;

//--------------- dance-single - forcednature ----------------
#NOTEDATA:;
#STEPSTYPE:dance-single;
#DESCRIPTION:forcednature;
#DIFFICULTY:Easy;
#METER:8;
#RADARVALUES:0,0,0,0,0;
#CREDIT:forcednature;
#NOTES:
0000
0000
0000
0000
,
0000
0000
0000
0000
,
0000
0000
0000
0000
,
0000
0000
0000
0000
,
0000
0000
0000
0000
,
0000
0000
0000
0000
,
0001
0100
0001
0000
,
1000
0100
1000
0000
,
0010
0100
0001
0000
,
0010
0100
1000
0000
,
1001
0000
0001
0010
,
0001
1000
0100
0000
,
1000
0000
0010
0100
,
0001
1000
0010
0000
,
0110
0000
0100
0001
,
0010
0100
1000
0000
,
0100
0010
0001
0000
,
0100
0100
0010
0000
,
1000
0000
0000
1001
0000
0000
0001
0000
,
0000
1001
0000
0000
0100
0000
0000
0000
,
0001
0000
0000
1001
0000
0000
1000
0000
,
0000
1001
0000
0000
0010
0000
0000
0000
,
1000
0000
0000
1100
0000
0000
0001
0000
,
0000
0101
0000
0000
0010
0000
0000
0000
,
0001
0000
0000
0101
0000
0000
1000
0000
,
0000
1100
0000
0000
0010
0000
0000
0000
,
1000
0000
0000
1001
0000
0000
0100
0000
,
0000
0110
0000
0000
0001
0000
0000
1001
,
0000
0000
0010
0000
0000
0110
0000
0000
,
1001
0000
0000
0110
0000
0000
0000
0000
,
2002
0000
0000
0000
,
3003
0000
1000
0001
,
1001
0000
1000
0100
,
1000
0001
0010
0100
,
1000
0000
0001
0100
,
0001
1000
0010
0100
,
0001
0000
0010
0100
,
1000
0010
1000
0100
,
0010
0000
0000
0110
0000
0000
0000
0000
,
0100
0000
0000
1001
0000
0000
0000
0000
,
0001
0100
0010
0100
,
0001
1000
0010
0000
,
1000
0100
0010
0100
,
1000
0001
0010
0000
,
0001
0100
0010
0100
,
0001
1000
0010
0000
,
0100
0000
0000
1001
0000
0000
0000
0000
,
0010
0000
0000
0110
0000
0000
0000
0000
,
1001
0000
1000
0100
,
0010
0001
0010
0100
,
1000
0000
0001
0100
,
0010
1000
0010
0100
,
0001
0000
0010
0100
,
1000
0010
1000
0100
,
0010
0000
0110
0000
,
1000
0001
1000
0000
,
0001
0100
0010
1000
,
0010
0100
0001
0000
,
1000
0100
0010
0001
,
0010
0100
1000
0000
,
0010
0100
0001
0010
,
0001
0100
0010
0000
,
1000
0100
0010
0100
,
1000
0010
0100
0000
,
2002
0000
0000
0000
,
0000
0000
3003
0000
,
0001
0100
0001
0001
,
1000
0100
1000
1000
,
0010
0100
0010
0010
,
1000
0000
0001
0000
1000
0001
1000
0000
,
0020
0000
0030
0000
,
1000
0000
0001
1000
0000
0001
1000
0000
,
0001
1000
0000
0001
0100
0000
0010
0000
,
1000
0000
0001
1000
0000
0001
1000
0000
,
0001
1000
0000
0001
0010
0000
0100
0000
,
0010
0000
0001
1000
0000
0001
1000
0000
,
0001
1000
0000
0001
0100
0000
0010
0000
,
1001
0000
0000
0220
0000
0000
0330
0000
,
0110
0000
0000
2002
0000
0000
3003
0000
,
0001
0000
1000
0001
0000
1000
0001
0000
,
1000
0001
0000
1000
0100
0000
0010
0000
,
0001
0000
1000
0001
0000
1000
0001
0000
,
1000
0001
0000
1000
0010
0000
0100
0000
,
0010
0000
1000
0001
0000
1000
0001
0000
,
1000
0001
0000
1000
0100
0000
0010
0000
,
1001
0000
0000
0220
0000
0000
0330
0000
,
0110
0000
0000
2002
0000
0000
3003
0000
,
0220
0000
0000
0000
,
0000
0000
0000
0000
,
0000
0000
0330
0000
1001
0000
0000
0000
0000
0000
0000
0000
;

//--------------- dance-single - forcednature ----------------
#NOTEDATA:;
#STEPSTYPE:dance-single;
#DESCRIPTION:forcednature;
#DIFFICULTY:Medium;
#METER:13;
#RADARVALUES:0,0,0,0,0;
#CREDIT:forcednature;
#NOTES:
0000
0000
0000
0000
,
0000
0000
0000
0000
,
0000
0000
0000
0000
,
0000
0000
0000
0000
,
0000
0000
0000
0000
,
0000
0000
0000
0000
,
1000
0000
0100
1000
0000
0001
0010
0000
,
0001
0000
0100
0001
0000
1000
0010
0000
,
0100
0000
0001
1000
0000
0100
0010
0000
,
0100
0000
1000
0001
0000
0100
0010
0000
,
1001
0000
1000
0100
0000
1000
0001
0000
,
0010
0001
1000
0000
0100
1000
0001
0000
,
1000
0000
0001
0100
0000
0010
1000
0000
,
0001
0010
0100
0000
1000
0100
0010
0000
,
1001
0000
1000
0010
0000
1000
0100
0000
,
0010
0001
1000
0000
0001
1000
0010
0000
,
0100
0000
0001
0010
0000
0001
0100
0000
,
0010
0100
0010
0100
0010
0000
1001
0000
,
2200
0000
0000
3300
0000
0000
0220
0000
0000
0330
0000
0000
0022
0000
0000
0033
,
0000
0000
2002
0000
0000
3003
0000
0000
1000
0000
0100
0000
0010
0000
0000
0000
,
0202
0000
0000
0303
0000
0000
0220
0000
0000
0330
0000
0000
2020
0000
0000
3030
,
0000
0000
2002
0000
0000
3003
0000
0000
0001
0000
0100
0000
0010
0000
0000
0000
,
2200
0000
0000
3300
0000
0000
0202
0000
0000
0303
0000
0000
0022
0000
0000
0033
,
0000
0000
2020
0000
0000
3030
0000
0000
0001
0000
1000
0000
0010
0000
0000
0000
,
0202
0000
0000
0303
0000
0000
2200
0000
0000
3300
0000
0000
2020
0000
0000
3030
,
0000
0000
0022
0000
0000
0033
0000
0000
1000
0000
0001
0000
0010
0000
0000
0000
,
0220
0000
0000
0330
0000
0000
2200
0000
0000
3300
0000
0000
0022
0000
0000
0033
,
0000
0000
0220
0000
0000
0330
0000
0000
2002
0000
0000
3003
0000
0000
0202
0000
,
0000
0303
0000
0000
2020
0000
0000
3030
0000
0000
2002
0000
0000
3003
0000
0000
,
0220
0000
0000
0000
0000
0000
0000
0000
0000
0330
0000
0000
0000
0000
0000
0000
0000
0000
1000
0000
0000
0000
0000
0000
0001
0000
0000
0000
0100
0000
0000
0000
0001
0000
0000
0000
1000
0000
0000
0000
0100
0000
0000
0000
0010
0000
0000
0000
,
0002
0000
0000
0000
0000
0000
0000
0003
,
1000
0000
0000
0000
0010
0000
0000
0000
0100
0000
0000
0000
0002
0000
0000
0000
0000
0000
0000
0000
0000
0000
0000
0000
0010
0000
0000
0010
0000
0000
0013
0000
0000
0000
0000
0000
0001
0000
0000
1000
0000
0000
0001
0000
0000
0000
0000
0000
,
1001
0000
1000
0100
0000
0010
0100
0000
,
1000
0001
0020
0000
0031
1000
0020
0000
,
0130
0000
0001
0010
0000
0001
0100
0000
,
0010
1000
0002
0000
0013
0001
2000
0000
,
3010
0000
0100
0001
0000
0010
0001
0000
,
1000
0010
0200
0000
0301
0010
0100
0000
,
0110
0000
0010
0001
0000
0100
0001
0000
,
0110
0000
0100
1000
0000
0010
1000
0000
,
0110
0000
0001
0100
0000
0010
1000
0000
,
0001
0010
0200
0000
1300
0100
0020
0000
,
0031
0000
1000
0010
0000
1000
0100
0000
,
0010
0001
2000
0000
3010
1000
0001
0000
,
0011
0000
0010
0100
0000
1000
0100
0000
,
0010
0001
2000
0000
3010
0100
0001
1000
,
0010
0000
0010
1000
0000
1000
0100
0000
,
0010
0000
0010
0001
0000
0001
0100
0000
,
0010
0000
0000
0010
0000
0000
0010
0000
0000
0000
0000
0000
1000
0000
0001
0000
,
0100
0001
1000
0000
0100
1000
0001
0000
,
0010
0000
0000
0010
0000
0000
0010
0000
0000
0000
0000
0000
0001
0000
0000
0001
,
0000
0001
0000
0000
0100
0010
1000
0000
,
0100
0000
0000
0100
0000
0000
0100
0000
0000
0000
0000
0000
1000
0000
0001
0000
,
0010
0001
1000
0000
0010
0100
0001
0000
,
1000
0000
0000
0001
0000
0000
1001
0000
0000
0000
0000
0000
0010
0000
0000
0100
,
0000
0110
0000
0000
0001
1000
0001
0000
,
1000
0000
0000
0100
0000
0000
1100
0000
0000
0000
0000
0000
0002
0000
0000
0023
,
0000
0000
0230
0000
0000
0320
0000
0000
0032
0000
0000
0000
2003
0000
0000
0000
,
3001
0000
0000
0100
0000
0000
0101
0000
0000
0000
0000
0000
1000
0000
0000
0010
,
0000
0000
1010
0000
0000
0001
0000
0000
0020
0000
0000
0230
0000
0000
2300
0000
,
3010
0000
0000
0100
0000
0000
0110
0000
0000
0000
0000
0000
0001
0000
0000
1000
,
0000
1001
0000
0001
0010
0100
1000
0100
,
0010
0000
0000
0001
0000
0000
1001
0000
0000
0000
0000
0000
1000
0000
0000
0010
,
0000
0110
0000
0001
1000
0010
0100
0010
,
2000
0000
0000
0000
0000
0000
0000
0000
0000
0000
0000
0000
0000
0000
0000
0000
3000
0000
0000
0000
0000
0000
0000
0000
0000
0000
0002
0000
0000
0023
0000
0000
,
0230
0000
0000
0300
2000
0000
0000
3000
,
0001
0000
0101
0000
0001
1000
0010
0000
,
1000
0000
1100
0000
1000
0001
0010
0000
,
0100
1000
0001
0000
0100
0001
1000
0000
,
0010
0100
0010
0100
0001
1000
0010
0100
,
0002
0000
0000
0000
0000
0000
0000
0000
1003
0000
0000
1000
0000
0000
1000
0000
,
0001
0010
0100
1000
0100
0010
0001
0010
,
0100
1000
0100
0010
0001
1000
0010
0000
,
1000
0100
1000
0001
0100
0001
1000
0100
,
1000
0001
0100
0001
0010
0100
1000
0000
,
0010
0100
0001
0010
0100
1000
0010
0100
,
0001
0010
0100
1000
0010
0100
0001
0000
,
0012
0000
1003
0200
0000
0301
0100
0000
,
2010
0000
3001
0200
0000
1300
0100
0000
,
0001
0010
0100
1000
0010
0100
0001
0010
,
0100
1000
0010
0100
0001
0010
0001
0000
,
1000
0010
0100
0001
0010
0100
1000
0010
,
0100
0001
0010
0100
1000
0010
1000
0000
,
0001
0100
0010
1000
0100
0010
0001
0100
,
0010
1000
0100
0010
0001
0100
0001
0000
,
2100
0000
3001
0020
0000
0130
1000
0000
,
0102
0000
1003
0020
0000
0130
0001
0000
,
2002
0000
0003
0000
,
3100
0010
0001
1000
0010
0020
0000
0000
0000
0000
0000
0000
,
0000
0000
0030
0000
1001
0000
0000
0000
0000
0000
0000
0000
;

//--------------- dance-single - forcednature ----------------
#NOTEDATA:;
#STEPSTYPE:dance-single;
#DESCRIPTION:forcednature;
#DIFFICULTY:Hard;
#METER:16;
#RADARVALUES:0,0,0,0,0;
#CREDIT:forcednature;
#NOTES:
0000
0000
0000
0000
,
0000
0000
0000
0000
,
0000
0000
0000
0000
,
0000
0000
0000
0000
,
0000
0000
0000
0000
,
0000
0000
0000
0000
,
1000
1000
0100
1000
1000
0010
0100
0000
,
0001
0001
0010
0001
0001
0100
0010
0000
,
1000
1000
0100
0001
0001
0100
1000
0000
,
0001
0001
0100
1000
1000
0100
0001
0000
,
0011
0000
0010
0100
1000
0001
0100
0000
,
0010
1000
0100
1000
0001
0100
0001
0000
,
0011
0000
0010
0100
1000
0010
0100
0000
,
0001
1000
0010
1000
0100
0010
0001
0000
,
0101
0000
1000
0100
1000
0001
0100
0000
,
0010
1000
0100
0010
0001
0100
0010
0000
,
1001
0000
0001
0010
0001
1000
0010
0000
,
0100
0000
0100
0000
0010
0000
0010
0000
0100
0010
0100
0010
1000
0000
0000
0000
,
0011
0000
1000
1100
0000
0001
0101
0000
,
1000
1010
0000
0001
0010
0100
1000
0000
,
1010
0000
0001
0101
0000
1000
1100
0000
,
0001
0011
0000
0010
0100
1000
0001
0000
,
0110
0000
0001
0101
0000
1000
1100
0000
,
0010
1001
0000
1000
0100
0010
0001
0000
,
0110
0000
0001
0101
0000
1000
1100
0000
,
0010
1001
0000
0001
0100
0010
1000
0000
,
1100
0000
0100
0110
0000
0010
0011
0000
,
0001
0101
0000
1000
1010
0000
0001
0011
,
0000
1000
1100
0000
0010
1001
0000
0100
,
0110
0000
0000
0000
0000
0000
1000
0000
0000
0001
0000
0000
1000
0000
0100
0000
0010
0000
0001
0000
0100
0000
0010
0000
,
2000
0000
0000
0000
0000
0000
0000
0000
3000
0000
0000
0000
,
0001
0000
0000
0000
0000
0000
0000
0000
0010
0000
0000
0000
0000
0000
0000
0000
0100
0000
0000
0000
0000
0000
0000
0000
1000
0000
0000
0000
0000
0000
0000
0000
0010
0000
0000
0000
0000
0000
0000
0000
0010
0000
0000
0000
0000
0000
0000
0000
0110
0000
0000
0000
0000
0000
0000
0000
0001
0000
0000
0000
0100
0000
0000
0000
0001
0000
0000
0000
0100
0000
0000
0000
0001
0000
0000
0000
0000
0000
1000
0000
0000
0000
0000
0000
0100
0000
0000
0000
0000
0000
1000
0000
0000
0001
0000
0000
,
1000
0000
0010
0100
0001
0010
0100
0000
,
0011
0000
1100
0000
0001
0100
2000
0000
,
3100
0001
1000
0010
1000
0001
0010
0000
,
1100
0000
1010
0000
1000
0100
0002
0000
,
0103
1000
0001
0010
0001
1000
0010
0000
,
0101
0000
1010
0000
0001
0010
0100
1000
,
0020
0000
1030
1100
0000
0001
0100
0000
,
0021
0000
0031
0101
0000
1000
0010
0000
,
0110
0000
0100
0001
1000
0001
0010
0000
,
0100
0001
0100
1000
0001
0010
0002
0000
,
1003
0000
0010
0100
1000
0100
0001
0000
,
1000
0010
1000
0100
0001
0100
0010
0000
,
1001
0000
0001
0100
1000
0100
0001
0000
,
1000
0010
1000
0100
0010
0001
0100
0001
,
0012
0000
1003
2010
0000
3001
0100
1000
,
0200
0000
0000
0000
0310
0000
1001
0000
0000
0000
1000
0100
1000
0000
0001
0100
,
0001
0000
0000
0010
0000
0000
0011
0000
0000
0000
0000
0000
1000
0000
0000
0010
,
0000
1010
2000
3200
0302
0203
0320
2030
,
3010
0000
0000
0001
0000
0000
0101
0000
0000
0000
0000
0000
0010
0000
0000
1000
,
0000
0000
1100
0000
0000
0000
0001
0000
1000
0001
1000
0001
2000
0000
0000
0000
,
3001
0000
0000
0100
0000
0000
0110
0000
0000
0000
0000
0000
1000
0000
0000
0100
,
0000
0110
0010
0001
0100
1000
0100
0001
,
1000
0000
0000
1010
0000
0000
1100
0000
0000
0000
0000
0000
0001
0000
0000
0011
,
0000
0000
0101
0000
0000
1000
0001
1000
0001
0000
0100
0001
0100
0000
0010
1000
,
0010
0000
0000
1100
0000
0000
1001
0000
0000
0000
0010
0001
0010
0000
0001
0010
,
0000
0100
0010
0000
0100
1000
0000
0010
1000
0000
0001
0010
0001
0000
0010
0100
,
0010
0000
0000
0011
0000
0000
0101
0000
0000
0000
0100
0010
1000
0000
0000
1100
,
0000
0000
1001
0000
0000
0001
0000
0000
0200
0000
0000
2300
0000
0000
3002
0000
,
0013
0000
1000
0001
0000
1000
0100
0000
0110
0000
0000
0000
0010
0000
0001
1000
,
0000
0000
0000
0001
0000
0000
0100
0000
0000
0000
0000
0000
0010
0000
0000
0000
1000
0000
0000
0000
0100
0000
0000
0000
0010
0000
0000
0000
0001
0000
0000
0000
0100
0000
0000
0000
0001
0000
0000
0010
0000
0000
0001
0000
0000
1000
0000
0000
,
0100
0000
0000
0110
0000
0000
0011
0000
0001
0000
0100
0001
0100
0000
0000
0110
,
0000
0000
1010
0000
1000
0000
0100
1000
0100
0000
1000
0100
0010
0000
0100
0010
,
0002
0000
0000
0000
0000
0000
0000
0000
0000
0000
0000
0000
0000
0000
0000
0000
0003
0000
0000
0000
0000
0000
0000
0000
0000
0000
0200
0000
0000
0320
0000
0000
,
2030
0000
0000
3000
0002
0000
0000
0003
,
0011
0000
0101
0000
1000
0010
0001
0000
,
1010
0000
1100
0000
0001
0010
1000
0000
,
0010
0000
0001
0000
1000
0000
0001
0100
0001
0000
1000
0000
0001
0000
0010
0100
,
1000
0000
0010
1000
0010
0000
0000
0000
0100
0000
0001
1000
0100
0000
1000
0001
,
0020
0000
0000
0000
0000
0000
0000
0000
0130
0000
0000
0110
0000
0000
0001
0000
,
1000
0100
0010
0000
0001
0000
1000
0100
0010
0000
0001
0000
1000
0100
0010
0000
,
0001
0000
1000
0100
0010
0000
0001
0000
0010
0100
1000
0000
0001
0000
0010
0000
,
0001
0100
0010
0000
1000
0000
0001
0100
0010
0000
1000
0000
0001
0100
0010
0000
,
1000
0000
0001
0100
0010
0000
1000
0000
0010
0100
0001
0000
1000
0001
1000
0000
,
0001
0010
0100
0000
1000
0000
0001
0010
0100
0000
1000
0000
0001
0010
0100
0000
,
1000
0000
0001
0010
0100
0000
1000
0000
0100
0010
0001
0000
1000
0001
1000
0000
,
0020
0000
0000
0000
0130
0000
0101
0000
0000
0000
0001
0010
0001
0000
0010
0100
,
2000
0000
0000
0000
3010
0000
0110
0000
0000
0000
0001
0100
0001
0000
1000
0000
,
0001
0010
0100
0000
1000
0000
0001
0010
0100
0000
1000
0000
0001
0010
0100
0000
,
1000
0000
0001
0010
0100
0000
1000
0000
0100
0010
0001
0000
1000
0000
0100
0000
,
1000
0010
0100
0000
0001
0000
1000
0010
0100
0000
0001
0000
1000
0010
0100
0000
,
0001
0000
1000
0010
0100
0000
0001
0000
0100
0010
1000
0000
0001
1000
0001
0000
,
1000
0100
0010
0000
0001
0000
1000
0100
0010
0000
0001
0000
1000
0100
0010
0000
,
0001
0000
1000
0100
0010
0000
0001
0000
0010
0100
1000
0000
0001
1000
0001
0000
,
0200
0000
0000
0000
0310
0000
1010
0000
0000
0000
1000
0100
1000
0000
0100
0010
,
0002
0000
0000
0000
0103
0000
0110
0000
0000
0000
1000
0010
1000
0000
0001
0010
,
0002
0000
0000
0000
0000
0000
0000
0003
,
0100
0001
1000
0100
0110
0120
0000
0000
0000
0000
0000
0000
,
0000
0000
0000
0000
0000
0000
0000
0000
0000
0000
0000
0000
0000
0000
0031
0000
0000
0000
0000
0000
0000
0000
0000
1000
0000
0000
0000
0000
0000
0000
0000
0000
1001
0000
0000
0000
0000
0000
0000
0000
0000
0000
0000
0000
0000
0000
0000
0000
0000
0000
0000
0000
0000
0000
0000
0000
0000
0000
0000
0000
0000
0000
0000
0000
0000
0000
0000
0000
0000
0000
0000
0000
0000
0000
0000
0000
0000
0000
0000
0000
0000
0000
0000
0000
0000
0000
0000
0000
0000
0000
0000
0000
0000
0000
0000
0000
;

//--------------- dance-single - forcednature ----------------
#NOTEDATA:;
#STEPSTYPE:dance-single;
#DESCRIPTION:forcednature;
#DIFFICULTY:Challenge;
#METER:17;
#RADARVALUES:0,0,0,0,0;
#CREDIT:forcednature;
#NOTES:
0000
0000
0000
0000
,
0000
0000
0000
0000
,
0000
0000
0000
0000
,
0000
0000
0000
0000
,
0000
0000
0000
0000
,
0000
0000
0000
0000
,
0001
0000
0000
0001
0100
0000
0001
0000
0000
0001
0100
0000
0010
0000
0000
0000
,
1000
0100
0000
0100
1000
0000
0001
0100
0000
0100
0001
0000
0010
0000
0000
0000
,
0001
0000
0000
0001
1000
0000
0001
0000
0000
0001
1000
0000
0010
0000
0000
0000
,
0100
0001
0000
0001
1000
0000
0100
1000
0000
1000
0001
0000
0010
0000
0000
0000
,
1001
0000
0000
0001
0100
0000
0001
0000
0000
0100
0010
0000
1000
0000
0001
0000
,
0010
0100
0000
0100
1000
0000
0100
0010
0000
0010
0001
0000
1000
0000
0000
0000
,
0010
0000
0000
0100
0001
0000
0010
0000
0000
0001
0100
0000
0010
0000
1000
0000
,
0001
0010
0000
0010
0100
0000
1000
0010
0000
0010
0100
0000
0001
0000
0000
0000
,
1000
0100
1000
0100
1000
0000
0001
0010
0001
0010
0001
0000
0000
0000
0000
0000
,
0001
0100
0001
0100
0001
0000
1000
0010
1000
0010
1000
0000
0000
0000
0000
0000
,
0100
0000
0000
0010
0001
0000
0100
0000
0000
0010
1000
0000
0000
0000
0000
0000
,
0001
0000
0001
0000
0010
0000
0010
0000
0100
1000
0010
1000
0002
0000
0000
0000
,
0013
0100
0010
0100
2000
0000
3010
0100
0010
0100
0002
0000
1003
0100
1000
0100
,
0020
0000
0031
0100
0001
0100
0020
0000
1030
0100
1000
0001
0010
0000
0000
0000
,
0001
1000
0001
1000
0020
0000
1030
0001
1000
0001
0020
0000
0130
1000
0100
1000
,
0002
0000
0103
0001
0100
0001
2000
0000
3100
0010
0001
1000
0100
0000
0000
0000
,
0010
0001
0010
0001
2000
0000
3010
1000
0010
1000
0002
0000
0013
0100
0010
0100
,
2000
0000
3010
0100
0010
0100
0002
0000
0013
0001
0100
0010
1000
0000
0000
0000
,
0100
1000
0100
1000
0020
0000
0130
0001
0100
0001
0020
0000
0031
1000
0001
1000
,
0020
0000
1030
0001
1000
0001
0020
0000
0130
0000
0000
0000
0100
0000
1000
0000
,
0010
1000
0001
1000
0010
0000
0100
0001
1000
0001
0100
0000
0010
1000
0001
1000
,
0010
0000
0100
0001
1000
0001
0100
0000
0001
0010
0001
1000
0100
0000
1000
0100
,
1000
0001
0010
0000
0001
0010
0001
1000
0100
0000
1000
0100
1000
0001
0010
0000
,
0001
0000
0000
0100
0000
0000
0010
0000
0000
1000
0000
0000
0001
0000
0000
0000
0000
0000
1000
0000
0000
0100
0000
0000
0010
0000
0000
0000
0001
0000
0000
0000
1000
0000
0000
0000
0010
0000
0000
0000
0100
0000
0000
0000
0001
0000
0000
0000
,
0020
0000
0000
0000
0000
0000
0000
0000
0030
0000
0000
0000
,
0100
0000
0000
0000
0000
0000
0000
0000
1000
0000
0000
0000
0000
0000
0000
0000
0001
0000
0000
0000
0000
0000
0000
0000
0100
0000
0000
0000
0000
0000
0000
0000
0110
0000
0000
0000
0000
0000
0000
0000
0110
0000
0000
0000
0000
0000
0000
0000
0010
0000
0000
0000
0000
0000
0000
0000
1000
0000
0000
0000
0001
0000
0000
0000
1000
0000
0000
0000
0100
0000
0000
0000
0010
0000
0000
0000
0000
0000
0001
0000
0000
1000
0000
0000
0001
0000
0000
1000
0000
0000
0001
0000
0000
1000
0000
0000
,
0010
0000
0000
1000
0100
0000
0110
0000
0000
0000
0010
0000
0001
0000
0100
0000
,
0002
0000
0000
0000
0013
0000
0100
0000
1000
0010
0100
0001
2000
0000
0100
0000
,
3100
0000
0000
1000
0010
0000
1010
0000
0000
0000
0001
0000
0010
0000
0001
0000
,
2000
0000
0000
0000
3001
0000
1000
0001
0010
0100
1000
0100
0020
0000
0001
0000
,
0031
0000
0000
0100
0010
0000
1001
0000
0000
0000
1000
0001
0010
0000
0001
0010
,
0200
0000
0000
0000
2300
0000
0000
0000
3001
0000
0100
0000
0010
1000
0001
1000
,
0010
0000
0000
0100
0001
0000
0021
0000
0000
0000
0130
0000
1000
0000
0001
0000
,
0011
0000
0000
1000
0100
0000
2010
0000
0000
0000
3001
0100
0001
0000
1000
0010
,
2000
0000
0010
0001
0000
0100
3002
0000
,
0023
0000
0000
0000
0130
0000
1000
0000
0001
0100
0010
1000
0001
0100
0010
1000
,
0002
0000
0010
1000
0000
0100
2003
0000
,
3020
0000
0000
0000
0130
0000
0001
0000
1000
0100
0010
0001
1000
0100
0010
0001
,
0100
0000
0000
0100
0010
0000
2000
0000
0000
0000
3001
0000
0020
0000
0000
0000
,
0230
0000
0000
0000
1300
0000
0001
0000
0100
0010
1000
0001
0100
0000
0001
0000
,
0010
0000
0000
0100
1000
0000
1020
0000
0000
0000
1030
0010
0100
0000
0100
0010
,
1000
0000
0000
1000
0001
0000
0011
0000
0010
0000
0100
1000
0001
1000
0100
1000
,
0010
0000
0000
0110
0000
0000
0110
0000
0001
0000
0001
0000
1000
0100
1000
0100
,
0010
0100
0010
0100
0010
0001
0010
0001
0010
0100
0010
0100
1000
0100
1000
0100
,
0010
0000
0000
0110
0000
0000
0110
0000
2000
0000
0000
0000
3010
0000
0000
0110
,
0000
0000
0110
0000
0001
0000
0100
0001
1000
0001
0100
0001
1000
0001
0010
0001
,
0100
0000
0000
0110
0000
0000
0110
0000
1000
0000
1000
0000
0001
0100
0001
0100
,
0010
0100
0010
0100
0010
1000
0010
1000
0010
0100
0010
0100
0001
0100
0001
0100
,
0010
0000
0000
1100
0000
0000
0101
0000
2000
0000
0000
0000
3010
0000
0000
1100
,
0000
0000
0101
0000
1000
0100
0010
0100
1000
0000
0001
1000
0010
0000
1000
0001
,
0010
0000
0010
0100
0000
0100
1000
0000
1010
0000
0000
1000
0010
0000
0010
0100
,
0000
0100
0001
0000
0011
0000
0000
0001
0010
0100
1000
0000
0010
0100
0001
0000
,
1000
0000
1000
0100
0000
0100
0010
0000
0011
0000
0000
0010
0001
0000
0001
0100
,
0000
0100
0010
0000
0010
1000
0000
0001
0010
0000
0100
1000
0000
0001
0100
0000
,
0110
0000
0000
0101
0000
0000
1010
0000
0001
0000
0000
0000
0110
0000
0000
1100
,
0000
0000
0000
0011
0000
0000
1000
0000
0001
0000
0100
0000
0001
0000
1000
0000
0100
0000
0010
0000
0001
0000
1000
0000
,
0010
0000
0010
0100
0000
0100
0001
0000
0011
0000
0000
0001
0010
0000
0010
0100
,
0000
0100
1000
0000
1010
0000
0010
0100
0001
0000
0010
0100
1000
0100
0010
0001
,
2000
0000
0000
0000
0000
0000
0000
0000
0000
0000
0000
0000
0000
0000
0000
0000
3000
0000
0000
0000
0000
0000
0000
0000
0000
0000
0002
0000
0000
0203
0000
0000
,
0320
0000
0000
0030
2000
0000
0000
3000
,
0001
0000
0000
0001
0010
0000
0000
0000
0100
0000
1000
0000
0010
0000
1000
0000
,
0100
0000
0000
0100
1000
0000
0000
0000
0001
0000
0100
0000
0001
0000
0010
0000
,
0100
0000
0000
0100
1000
0000
0000
0000
0001
0000
0100
0000
0010
0000
0100
0000
,
0001
0000
0010
0000
0100
1000
0001
0000
0100
0010
0100
0010
1000
0000
0001
0000
,
0020
0000
0000
0000
0000
0000
0000
0000
0130
0000
0000
0110
0000
0000
0001
0000
,
1000
0100
0010
0001
1000
0000
0100
0010
0001
1000
0100
0000
0010
0001
1000
0100
,
0010
0000
0001
1000
0100
0010
0001
0000
1000
0001
1000
0001
0100
0010
0100
0000
,
0001
0100
0010
1000
0001
0000
0100
0010
1000
0001
0100
0000
0010
1000
0001
0100
,
0010
0000
1000
0001
0100
0010
1000
0000
0001
0010
0001
0010
0100
1000
0100
0000
,
1000
0010
0100
0001
1000
0000
0010
0100
0001
1000
0010
0000
0100
0001
1000
0010
,
0100
0000
0001
1000
0010
0100
0001
0000
0010
0100
0010
0100
1000
0001
0100
0010
,
2000
0000
0000
0000
3100
0000
0011
0000
0000
0000
0001
0000
0010
0000
0100
1000
,
0002
0000
0000
0000
0103
0000
1010
0000
0000
0000
0010
0100
0001
0000
0100
0010
,
1000
0001
0010
0100
1000
0000
0001
0010
0100
1000
0001
0000
0010
0100
1000
0001
,
0010
0000
0100
1000
0001
0010
0100
0000
1000
0001
1000
0001
0100
0010
0100
0000
,
0001
1000
0010
0100
0001
0000
1000
0010
0100
0001
1000
0000
0010
0100
0001
1000
,
0010
0000
0100
0001
1000
0010
0100
0000
0001
0010
0001
0010
0100
1000
0100
0000
,
1000
0010
0100
0001
1000
0000
0010
0100
0001
1000
0010
0000
0100
0001
1000
0010
,
0100
0000
0001
1000
0010
0100
0001
0000
1000
0100
1000
0100
0010
0001
0010
0001
,
0200
0000
0000
0000
0310
0000
1001
0000
0000
0000
1000
0001
0010
0000
0001
1000
,
0200
0000
0000
0000
0310
0000
1001
0000
0000
0000
0001
1000
0010
0000
1000
0001
,
0200
0000
0000
0000
0000
0000
0000
0000
0000
0000
0000
0000
0000
0000
0000
0000
0010
0000
0000
0010
0000
0000
0001
0000
0000
0001
0000
0000
0310
0000
0000
0000
,
0100
0000
0000
0000
0000
0000
0000
0000
0000
0000
0000
0000
0000
0000
0000
0000
0001
0000
0000
0000
0000
0000
0000
0000
0000
0000
0000
0000
0000
0000
0000
0000
1000
0000
0000
0000
0000
0000
0000
0000
0000
0000
0000
0000
0000
0000
0000
0000
0100
0000
0000
0000
0000
0000
0000
0000
0000
0000
0000
0000
0000
0000
0000
0000
0110
0000
0000
0000
0000
0000
0000
0000
0000
0000
0000
0000
0000
0000
0000
0000
0011
0000
0000
0000
0000
0000
0000
0000
0000
0000
0000
0000
0000
0000
0000
0000
0000
0000
0000
0000
0000
0000
0000
0000
0000
1000
0000
0000
0000
0000
0000
0000
0000
0000
0000
0000
0000
1000
0000
0000
0000
0000
0000
0000
0000
0000
0000
0000
0000
0000
0000
0000
0000
0000
0000
0010
0000
0000
0000
0000
0000
0000
0000
0000
0000
0000
0010
0000
0000
0000
0000
0000
0000
0000
0000
0000
0000
0000
0000
0000
0000
0000
0000
0000
0000
0000
0000
0000
0000
0000
0000
0000
0000
0000
0100
0000
0000
0000
0000
0000
0000
0000
0000
0000
0000
0000
0000
0100
0000
0000
0000
0000
,
0000
0000
0000
0000
0000
0000
0000
0000
0000
0000
0000
0000
0000
0000
0001
0000
0000
0000
0000
0000
0000
0000
0000
0010
0000
0000
0000
0000
0000
0000
0000
0000
1001
0000
0000
0000
0000
0000
0000
0000
0000
0000
0000
0000
0000
0000
0000
0000
0000
0000
0000
0000
0000
0000
0000
0000
0000
0000
0000
0000
0000
0000
0000
0000
0000
0000
0000
0000
0000
0000
0000
0000
0000
0000
0000
0000
0000
0000
0000
0000
0000
0000
0000
0000
0000
0000
0000
0000
0000
0000
0000
0000
0000
0000
0000
0000
;

//--------------- dance-double - forcednature ----------------
#NOTEDATA:;
#STEPSTYPE:dance-double;
#DESCRIPTION:forcednature;
#DIFFICULTY:Easy;
#METER:9;
#RADARVALUES:0,0,0,0,0;
#CREDIT:forcednature;
#NOTES:
00000000
00000000
00000000
00000000
,
00000000
00000000
00000000
00000000
,
00000000
00000000
00000000
00000000
,
00000000
00000000
00000000
00000000
,
00000000
00000000
00000000
00000000
,
00000000
00000000
00000000
00000000
,
00001000
01000000
00001000
00000000
,
00010000
00000100
00010000
00000000
,
00001000
00100000
00001000
00000000
,
00010000
00000010
00010000
00000000
,
00011000
00000000
00001000
01000000
,
00010000
10000000
00100000
00000000
,
10000000
00000000
01000000
00100000
,
00010000
00100000
00001000
00000000
,
00011000
00000000
00010000
00000010
,
00001000
00000001
00000100
00000000
,
00000010
00000000
00001000
00000001
,
00000010
00000010
00000100
00000000
,
00010000
00000000
00000000
00011000
00000000
00000000
00001000
00000000
,
00000000
00011000
00000000
00000000
01000000
00000000
00000000
00000000
,
00001000
00000000
00000000
00011000
00000000
00000000
00010000
00000000
,
00000000
00011000
00000000
00000000
00000100
00000000
00000000
00000000
,
00010000
00000000
00000000
00011000
00000000
00000000
00001000
00000000
,
00000000
00011000
00000000
00000000
00100000
00000000
00000000
00000000
,
00001000
00000000
00000000
00011000
00000000
00000000
00010000
00000000
,
00000000
00011000
00000000
00000000
00000010
00000000
00000000
00000000
,
00010000
00000000
00000000
00011000
00000000
00000000
01000000
00000000
,
00000000
00011000
00000000
00000000
00001000
00000000
00000000
00011000
,
00000000
00000000
00000100
00000000
00000000
00011000
00000000
00000000
,
00100000
00000000
00000000
00011000
00000000
00000000
00000000
00000000
,
00000020
00000000
00000000
00000000
,
00000030
00000000
00000000
00000000
00001000
00000000
00000001
00001000
,
00001001
00000000
00001000
00000100
,
00010000
00001000
00100000
00010000
,
00100000
00000000
01000000
10000000
,
00010000
01000000
00001000
00010000
,
00000010
00000000
00001000
00000100
,
00010000
00001000
00010000
00000010
,
00001000
00000000
00000000
00001001
00000000
00000000
00000000
00000000
,
00000100
00000000
00000000
00011000
00000000
00000000
00000000
00000000
,
01000000
00010000
10000000
00100000
,
10000000
01000000
00100000
00000000
,
00010000
01000000
00001000
00010000
,
00001000
00100000
00010000
00000000
,
01000000
00001000
00010000
00000010
,
00010000
00000100
00001000
00000000
,
00000010
00000000
00000000
00011000
00000000
00000000
00000000
00000000
,
01000000
00000000
00000000
00011000
00000000
00000000
00000000
00000000
,
10010000
00000000
10000000
01000000
,
00100000
00010000
00001000
00000100
,
00000010
00000000
00000001
00000100
,
00000010
00001000
00010000
01000000
,
00100000
00000000
10000000
01000000
,
00100000
00010000
00001000
00000100
,
00000010
00000000
00001001
00000000
,
00000001
00000100
00001000
00000000
,
00011000
00000000
00010000
00100000
,
10000000
01000000
00010000
00000000
,
00011000
00000000
00001000
00000010
,
00000001
00000100
00001000
00000000
,
00010000
00100000
10000000
01000000
,
00010000
01000000
00100000
00001000
,
00010000
00000010
00001000
00000001
,
00000010
00001000
00010000
00000000
,
00022000
00000000
00000000
00000000
,
00000000
00000000
00033000
00000000
,
00010000
00000100
00010000
00010000
,
00001000
01000000
00001000
00001000
,
00010000
00000010
00010000
00010000
,
00001000
00000000
00100000
00000000
00001000
00010000
00001000
00000000
,
02000000
00000000
03000000
00000000
,
00010000
00000000
10000000
00010000
00000000
10000000
00010000
00000000
,
01000000
00001000
00000000
00010000
00000100
00000000
00001000
00000000
,
00000001
00000000
00001000
00000001
00000000
00001000
00000001
00000000
,
00001000
00000100
00000000
00010000
00001000
00000000
01000000
00000000
,
00010000
00000000
10000000
00010000
00000000
10000000
00010000
00000000
,
00100000
00001000
00000000
00010000
00000010
00000000
00001000
00000000
,
00001001
00000000
00000000
00000220
00000000
00000000
00000330
00000000
,
00011000
00000000
00000000
02200000
00000000
00000000
03300000
00000000
,
00010000
00000000
10000000
00010000
00000000
10000000
00010000
00000000
,
00100000
00001000
00000000
00010000
00000010
00000000
00000010
00000000
,
00001000
00000000
00000001
00001000
00000000
00000001
00001000
00000000
,
00000010
00010000
00000000
00001000
00100000
00000000
00100000
00000000
,
00010000
00000000
10000000
00010000
00000000
10000000
00010000
00000000
,
01000000
00001000
00000000
00010000
00000100
00000000
00000100
00000000
,
00000110
00000000
00000000
00022000
00000000
00000000
00033000
00000000
,
01100000
00000000
00000000
20020000
00000000
00000000
30030000
00000000
,
02200000
00000000
00000000
00000000
,
00000000
00000000
00000000
00000000
,
00000000
00000000
03300000
00000000
10010000
00000000
00000000
00000000
00000000
00000000
00000000
00000000
;

//--------------- dance-double - forcednature ----------------
#NOTEDATA:;
#STEPSTYPE:dance-double;
#DESCRIPTION:forcednature;
#DIFFICULTY:Medium;
#METER:13;
#RADARVALUES:0,0,0,0,0;
#CREDIT:forcednature;
#NOTES:
00000000
00000000
00000000
00000000
,
00000000
00000000
00000000
00000000
,
00000000
00000000
00000000
00000000
,
00000000
00000000
00000000
00000000
,
00000000
00000000
00000000
00000000
,
00000000
00000000
00000000
00000000
,
00001000
00000000
00010000
00000100
00000000
00001000
00000010
00000000
,
00010000
00000000
00001000
01000000
00000000
00010000
00100000
00000000
,
00001000
00000000
00010000
00000010
00000000
00001000
00000100
00000000
,
00010000
00000000
00001000
00100000
00000000
00010000
01000000
00000000
,
10010000
00000000
10000000
01000000
00000000
00010000
00001000
00000000
,
00100000
00001000
00010000
00000000
00000010
00010000
00001000
00000000
,
00000010
00000000
00000001
00000100
00000000
00001000
00000100
00000000
,
00000001
00001000
00000010
00000000
00010000
00001000
01000000
00000000
,
10010000
00000000
10000000
01000000
00000000
00010000
01000000
00000000
,
00100000
00001000
00010000
00000000
00000010
00010000
00001000
00000000
,
00000010
00000000
00000100
00010000
00000000
00001000
00100000
00000000
,
01000000
10000000
01000000
10000000
01000000
00000000
00100000
00000000
,
20020000
00000000
00000000
30030000
00000000
00000000
02002000
00000000
00000000
03003000
00000000
00000000
00020200
00000000
00000000
00030300
,
00000000
00000000
00002002
00000000
00000000
00003003
00000000
00000000
00000010
00000000
00000100
00000000
00000010
00000000
00000000
00000000
,
00002002
00000000
00000000
00003003
00000000
00000000
00020020
00000000
00000000
00030030
00000000
00000000
00202000
00000000
00000000
00303000
,
00000000
00000000
20020000
00000000
00000000
30030000
00000000
00000000
00100000
00000000
01000000
00000000
00100000
00000000
00000000
00000000
,
20020000
00000000
00000000
30030000
00000000
00000000
00202000
00000000
00000000
00303000
00000000
00000000
00020200
00000000
00000000
00030300
,
00000000
00000000
00002002
00000000
00000000
00003003
00000000
00000000
00000010
00000000
00000100
00000000
00000010
00000000
00000000
00000000
,
00002002
00000000
00000000
00003003
00000000
00000000
00020020
00000000
00000000
00030030
00000000
00000000
02002000
00000000
00000000
03003000
,
00000000
00000000
20020000
00000000
00000000
30030000
00000000
00000000
10000000
00000000
01000000
00000000
00010000
00000000
00000000
00000000
,
00022000
00000000
00000000
00033000
00000000
00000000
00202000
00000000
00000000
00303000
00000000
00000000
00020020
00000000
00000000
00030030
,
00000000
00000000
02002000
00000000
00000000
03003000
00000000
00000000
00020200
00000000
00000000
00030300
00000000
00000000
00202000
00000000
,
00000000
00303000
00000000
00000000
00020020
00000000
00000000
00030030
00000000
00000000
00002200
00000000
00000000
00003300
00000000
00000000
,
00000022
00000000
00000000
00000033
00000000
00000000
00000001
00000000
00000100
00000000
00001000
00000000
00010000
00000000
00100000
00000000
,
20000000
00000000
00000000
00000000
00000000
00000000
00000000
00000000
30000000
00000000
00000000
00000000
,
01000000
00000000
00000000
00000000
00010000
00000000
00000000
00000000
00001000
00000000
00000000
00000000
00020000
00000000
00000000
00000000
00000000
00000000
00000000
00000000
00000000
00000000
00000000
00000000
00000100
00000000
00000000
00000100
00000000
00000000
00030100
00000000
00000000
00000000
00000000
00000000
00010000
00000000
00000000
00001000
00000000
00000000
00010000
00000000
00000000
00000000
00000000
00000000
,
00011000
00000000
00001000
00000010
00000000
00000001
00000010
00000000
,
00000100
00010000
00002000
00000000
01003000
00001000
00020000
00000000
,
00130000
00000000
10000000
00100000
00000000
00010000
00100000
00000000
,
10000000
01000000
00020000
00000000
00031000
00010000
02000000
00000000
,
13000000
00000000
00010000
00100000
00000000
00001000
00010000
00000000
,
00000010
00001000
00000020
00000000
00000130
00000001
00001000
00000001
,
00000010
00000000
00000100
00010000
00000000
00001000
01000000
00000000
,
00100000
00000000
01000000
00001000
00000000
00010000
00000100
00000000
,
00001000
00000000
00000001
00000100
00000000
00001000
00000100
00000000
,
00000010
00010000
00002000
00000000
00103000
00001000
00020000
00000000
,
00130000
00000000
10000000
01000000
00000000
10000000
00100000
00000000
,
10000000
01000000
00020000
00000000
00031000
00000010
00000001
00000000
,
00001001
00000000
00001000
00000100
00000000
00010000
00001000
00000000
,
01000000
00010000
00200000
00000000
01300000
10000000
00010000
10000000
,
00100000
00000000
00010000
00001000
00000000
00010000
00001000
00000000
,
00000010
00000000
00001000
00010000
00000000
00001000
00010000
00000000
,
01000000
00000000
00000000
01000000
00000000
00000000
01000000
00000000
00000000
00000000
00000000
00000000
10000000
00000000
00010000
00000000
,
00100000
00001000
00010000
00000100
00001000
00000001
00000010
00000000
,
00000100
00000000
00000000
00000100
00000000
00000000
00000100
00000000
00000000
00000000
00000000
00000000
00010000
00000000
00000000
00010000
,
00000000
00010000
00000000
00000000
00001000
00100000
00010000
00000000
,
01000000
00000000
00000000
01000000
00000000
00000000
01000000
00000000
00000000
00000000
00000000
00000000
00010000
00000000
10000000
00000000
,
01000000
00100000
00001000
00010000
00000100
00000010
00000001
00000000
,
00000100
00000000
00000000
00001000
00000000
00000000
00011000
00000000
00000000
00000000
00000000
00000000
00010000
00000000
00000000
00100000
,
00000000
01100000
00000000
00000000
01000000
00010000
10000000
00000000
,
01000000
00000000
00000000
00100000
00000000
00000000
01100000
00000000
00000000
00000000
00000000
00000000
20000000
00000000
00000000
32000000
,
00000000
00000000
03020000
00000000
00000000
00032000
00000000
00000000
00003020
00000000
00000000
00000000
00000032
00000000
00000000
00000000
,
00000103
00000000
00000000
00001000
00000000
00000000
00010000
00000000
00000000
00000000
00000000
00000000
01000000
00000000
00000000
00010000
,
00000000
00000000
00001000
00000000
00000000
00020000
00000000
00000000
00230000
00000000
00000000
20300000
00000000
00000000
30020000
00000000
,
00130000
00000000
00000000
01000000
00000000
00000000
01100000
00000000
00000000
00000000
00000000
00000000
00010000
00000000
00000000
00001000
,
00000000
00011000
00000000
00010000
00001000
00000010
00000100
00000010
,
00001000
00000000
00000000
00010000
00000000
00000000
00010100
00000000
00000000
00000000
00000000
00000000
00010000
00000000
00000000
00001000
,
00000000
01001000
00000000
01000000
00010000
10000000
00010000
00100000
,
02000000
00000000
00000000
00000000
00000000
00000000
00000000
00000000
00000000
00000000
00000000
00000000
00000000
00000000
00000000
00000000
03000000
00000000
00000000
00000000
00000000
00000000
00000000
00000000
00000000
00000000
00020000
00000000
00000000
00032000
00000000
00000000
,
00003020
00000000
00000000
00000030
00000002
00000000
00000000
00000003
,
00000100
00000000
00001001
00000000
00000001
00000100
00001000
00000000
,
00010000
00000000
00011000
00000000
00001000
00010000
00100000
00000000
,
01000000
00010000
10000000
00000000
01000000
00010000
00001000
00000000
,
00100000
00010000
00100000
00001000
00010000
00000010
00001000
00000010
,
00020000
00000000
00000000
00000000
00000000
00000000
00000000
00000000
00031000
00000000
00000000
00001000
00000000
00000000
00001000
00000000
,
00100000
01000000
00010000
00001000
00010000
01000000
00100000
00001000
,
00010000
01000000
00010000
00001000
00100000
00001000
00010000
00000000
,
00000010
00000100
00001000
00010000
00001000
00000100
00000010
00010000
,
00001000
00000100
00001000
00010000
00000010
00001000
00000001
00000000
,
00000010
00001000
00010000
01000000
00010000
00001000
00100000
00001000
,
00010000
01000000
00010000
00001000
00100000
00010000
01000000
00001000
,
00020000
00000000
00030100
00002000
00000000
00003001
00000100
00000000
,
00002000
00000000
01003000
00020000
00000000
10030000
01000000
00000000
,
00100000
00001000
00010000
00000010
00010000
00001000
01000000
00001000
,
00010000
00000100
00010000
00001000
00000010
00000001
00000100
00000000
,
00001000
00010000
00100000
00010000
00001000
00000010
00001000
00010000
,
01000000
00010000
00001000
00000100
00000001
00001000
00000010
00000000
,
00010000
00001000
00100000
00010000
01000000
00001000
00010000
00000100
,
00001000
00000010
00010000
00001000
00100000
00010000
01000000
00000000
,
01100000
00000000
00100000
00010000
00000000
00001000
00000010
00000000
,
00000110
00000000
00000100
00001000
00000000
00000001
00000100
00000000
,
00000220
00000000
00000030
00000000
,
00000301
00000010
00001000
00010000
00100000
00200000
00000000
00000000
00000000
00000000
00000000
00000000
,
00000000
00000000
00300000
00000000
10010000
00000000
00000000
00000000
00000000
00000000
00000000
00000000
;

//--------------- dance-double - forcednature ----------------
#NOTEDATA:;
#STEPSTYPE:dance-double;
#DESCRIPTION:forcednature;
#DIFFICULTY:Hard;
#METER:16;
#RADARVALUES:0,0,0,0,0;
#CREDIT:forcednature;
#NOTES:
00000000
00000000
00000000
00000000
,
00000000
00000000
00000000
00000000
,
00000000
00000000
00000000
00000000
,
00000000
00000000
00000000
00000000
,
00000000
00000000
00000000
00000000
,
00000000
00000000
00000000
00000000
,
00010000
00001000
01000000
00010000
00100000
00010000
01000000
00000000
,
00001000
00010000
00000100
00001000
00000010
00001000
00000100
00000000
,
00010000
00001000
00100000
00010000
01000000
00010000
00100000
00000000
,
00001000
00010000
00000010
00001000
00000100
00001000
00000010
00000000
,
00000110
00000000
00000100
00000001
00001000
00000001
00000010
00000000
,
00000100
00010000
00001000
01000000
00001000
00010000
00100000
00000000
,
01100000
00000000
01000000
00010000
10000000
00010000
00100000
00000000
,
01000000
00001000
00010000
00000100
00010000
00001000
00000010
00000000
,
00000110
00000000
00000100
00001000
00000001
00000100
00001000
00000000
,
00010000
00100000
10000000
01000000
10000000
00100000
00010000
00000000
,
01100000
00000000
01000000
00010000
10000000
01000000
00010000
00000000
,
00001000
00000000
00001000
00000000
00010000
00000000
00010000
00000000
00001000
00010000
00001000
00010000
00001000
00000000
00000000
00000000
,
00010000
00100000
10000000
01000000
10000000
00100000
00010000
00001000
,
00000010
00000001
00000010
00001000
00010000
01000000
00010000
00000000
,
00001000
00000010
00000001
00000100
00000001
00000010
00001000
00010000
,
01000000
10000000
01000000
00010000
00001000
00000010
00001000
00000000
,
00010000
01000000
10000000
00100000
10000000
01000000
00010000
00001000
,
00000100
00000001
00000100
00001000
00010000
00100000
00010000
00000000
,
00001000
00000100
00000001
00000010
00000001
00000100
00001000
00010000
,
00100000
10000000
00100000
00010000
00001000
00000010
00001000
00000000
,
00010000
01000000
10000000
01000000
00010000
00001000
00000010
00000100
,
00010000
00000100
00000010
00000001
00000100
00001000
00010000
00100000
,
00010000
00001000
00000010
00001000
00010000
01000000
00010000
00001000
,
00000100
00000000
00000000
00001000
00000000
00000000
00010000
00000000
00000000
00001000
00000000
00000000
00010000
00000000
00100000
00000000
00010000
00000000
00100000
00000000
10000000
00000000
00100000
00000000
,
20000000
00000000
00000000
00000000
00000000
00000000
00000000
00000000
30000000
00000000
00000000
00000000
,
01000000
00000000
00000000
00000000
00000000
00000000
00000000
00000000
00010000
00000000
00000000
00000000
00000000
00000000
00000000
00000000
00001000
00000000
00000000
00000000
00000000
00000000
00000000
00000000
00000010
00000000
00000000
00000000
00000000
00000000
00000000
00000000
00000100
00000000
00000000
00000000
00000000
00000000
00000000
00000000
00000100
00000000
00000000
00000000
00000000
00000000
00000000
00000000
00000110
00000000
00000000
00000000
00000000
00000000
00000000
00000000
00001000
00000000
00000000
00000000
00000001
00000000
00000000
00000000
00001000
00000000
00000000
00000000
00000001
00000000
00000000
00000000
00001000
00000000
00000000
00000000
00000000
00000000
00000010
00000000
00000000
00000000
00000000
00000000
00000100
00000000
00000000
00000000
00000000
00000000
00000001
00000000
00000000
00001000
00000000
00000000
,
00000010
00000000
00000100
00000001
00000100
00001000
00010000
00000000
,
00011000
00000000
00001000
00010000
00100000
10000000
02000000
00000000
,
13000000
00000000
01000000
00010000
00001000
00100000
00001000
00000000
,
00011000
00000000
00010000
00001000
00000010
00000001
00000200
00000000
,
00000301
00000000
00000100
00001000
00010000
00100000
00010000
00000000
,
00011000
00000000
00001000
00000010
00000001
00000100
00000001
00000010
,
00002000
00000000
00013000
00010100
00000000
00100000
00001000
00000000
,
00020000
00000000
00031000
01001000
00000000
00000010
00010000
00000000
,
00011000
00000000
00000010
00010000
00001000
00000010
00000001
00000000
,
00000100
00001000
00010000
00100000
01000000
00001000
00010000
00000000
,
00011000
00000000
00100000
00001000
00010000
00100000
10000000
00000000
,
01000000
00010000
00001000
00000010
00000100
00010000
00001000
00000000
,
00011000
00000000
00000100
00010000
00001000
00000100
00000001
00000000
,
00000010
00001000
00010000
01000000
00100000
00001000
00010000
00100000
,
20000000
00000000
31000000
00020000
00000000
00031000
00000010
00000000
,
00000002
00000000
00000000
00000000
00000103
00000000
00002000
00000000
00000000
00000000
00013000
00001000
00010000
00000000
00001000
00010000
,
00000100
00000000
00000000
00000100
00000000
00000000
00001100
00000000
00000000
00000000
00000000
00000000
00000010
00000000
00000000
00000010
,
00000000
00000011
00000002
00000203
00000320
00002030
00023000
02030000
,
03100000
00000000
00000000
00100000
00000000
00000000
10100000
00000000
00000000
00000000
00000000
00000000
01000000
00000000
00000000
01000000
,
00000000
00000000
01010000
00000000
00000000
00000000
00001000
00000000
00010000
00001000
00010000
00001000
00020000
00000000
00000000
00000000
,
00030010
00000000
00000000
00000010
00000000
00000000
00001010
00000000
00000000
00000000
00000000
00000000
00010000
00000000
00000000
00010000
,
00000000
00011000
00001000
00100000
01000000
00010000
01000000
00100000
,
00001000
00000000
00000000
00011000
00000000
00000000
00010100
00000000
00000000
00000000
00000000
00000000
00010000
00000000
00000000
00011000
,
00000000
00000000
01001000
00000000
00000000
01000000
00010000
01000000
00010000
00000000
01000000
00100000
01000000
00000000
00100000
10000000
,
00100000
00000000
00000000
01100000
00000000
00000000
01010000
00000000
00000000
00000000
00001000
00010000
00001000
00000000
00010000
00000100
,
00000000
00001000
00000100
00000000
00000010
00000100
00000000
00000010
00000001
00000000
00000100
00000001
00000100
00000000
00000010
00000100
,
00000010
00000000
00000000
00001010
00000000
00000000
00001100
00000000
00000000
00000000
00010000
00001000
00010000
00000000
00000000
00011000
,
00000000
00000000
01001000
00000000
00000000
02000000
00000000
00000000
03020000
00000000
00000000
00230000
00000000
00000000
00302000
00000000
,
00013000
00000000
00001000
00010000
00000000
00000100
00001000
00000000
00000110
00000000
00000000
00000000
00000010
00000000
00000001
00000100
,
00000000
00000000
00000000
00000010
00000000
00000000
00000100
00000000
00000000
00000000
00000000
00000000
00000001
00000000
00000000
00000000
00001000
00000000
00000000
00000000
00000010
00000000
00000000
00000000
00010000
00000000
00000000
00000000
00001000
00000000
00000000
00000000
01000000
00000000
00000000
00000000
00010000
00000000
00000000
00000000
10000000
00000000
00000000
00000000
00100000
00000000
00000000
00000000
,
01000000
00000000
00000000
01100000
00000000
00000000
10010000
00000000
10000000
00000000
01000000
00000000
00010000
00000000
00000000
00011000
,
00000000
00000000
00010100
00000000
00000100
00000000
00001000
00000100
00000010
00000000
00000100
00000010
00000001
00000000
00000010
00000001
,
00000200
00000000
00000000
00000000
00000000
00000000
00000000
00000000
00000000
00000000
00000000
00000000
00000000
00000000
00000000
00000000
00000300
00000000
00000000
00000000
00000000
00000000
00000000
00000000
00000000
00000000
00002000
00000000
00000000
00023000
00000000
00000000
,
00230000
00000000
00000000
00300000
20000000
00000000
00000000
30000000
,
10010000
00000000
01100000
00000000
10000000
01000000
00010000
00000000
,
01100000
00000000
00011000
00000000
00001000
00000010
00000001
00000000
,
00001000
00000000
00000100
00000000
00010000
00000000
00001000
00010000
00001000
00000000
00100000
00000000
00010000
00000000
00100000
01000000
,
10000000
00000000
00100000
10000000
00100000
00000000
00000000
00000000
01000000
00000000
00010000
01000000
00010000
00000000
01000000
00001000
,
00020000
00000000
00000000
00000000
00000000
00000000
00000000
00000000
00030010
00000000
00000000
00000110
00000000
00000000
00001000
00000000
,
00000001
00000100
00000010
00000000
00001000
00000000
00000010
00000100
00000001
00000000
00001000
00000000
00000010
00010000
00001000
00000000
,
01000000
00000000
00001000
00010000
00000010
00000000
00010000
00000000
00001000
00010000
00100000
00000000
01000000
00000000
00100000
00000000
,
10000000
01000000
00100000
00000000
00010000
00000000
00100000
01000000
10000000
00000000
00010000
00000000
00100000
00001000
00010000
00000000
,
00000100
00000000
00010000
00001000
00100000
00000000
00001000
00000000
00010000
00001000
00000010
00000000
00000001
00000000
00001000
00000000
,
00000001
00000100
00000010
00000000
00001000
00000000
00000010
00000100
00000001
00000000
00001000
00000000
00000010
00010000
00001000
00000000
,
01000000
00000000
00001000
00010000
00000010
00000000
00010000
00000000
00001000
00010000
00100000
00000000
10000000
00000000
00010000
00000000
,
00200000
00000000
00000000
00000000
00301000
00000000
00011000
00000000
00000000
00000000
00010000
00001000
00010000
00000000
00000010
00001000
,
00000020
00000000
00000000
00000000
00010030
00000000
00011000
00000000
00000000
00000000
01000000
00010000
01000000
00000000
00010000
00000000
,
10000000
01000000
00010000
00000000
00001000
00000000
00010000
01000000
10000000
00000000
00010000
00000000
00100000
00001000
00010000
00000000
,
00100000
00000000
00010000
00001000
00100000
00000000
00001000
00000000
00010000
00001000
00000010
00000000
00000100
00000000
00000010
00000000
,
00000001
00000100
00001000
00000000
00010000
00000000
00001000
00000100
00000001
00000000
00001000
00000000
00000010
00010000
00001000
00000000
,
00000010
00000000
00001000
00010000
00000010
00000000
00010000
00000000
00001000
00010000
00100000
00000000
01000000
00000000
00100000
00000000
,
10000000
01000000
00010000
00000000
00001000
00000000
00010000
01000000
10000000
00000000
00010000
00000000
00100000
00001000
00010000
00000000
,
00100000
00000000
00010000
00001000
00100000
00000000
00001000
00000000
00010000
00001000
00000010
00000000
00000001
00000000
00001000
00000000
,
00000200
00000000
00000000
00000000
00010300
00000000
00011000
00000000
00000000
00000000
00001000
00010000
00001000
00000000
01000000
00010000
,
02000000
00000000
00000000
00000000
03001000
00000000
00011000
00000000
00000000
00000000
00010000
00001000
00010000
00000000
00000010
00001000
,
00000020
00000000
00000000
00000000
00000000
00000000
00000000
00000030
,
00000100
00001000
00010000
00100000
01100000
02100000
00000000
00000000
00000000
00000000
00000000
00000000
,
00000000
00000000
00000000
00000000
00000000
00000000
00000000
00000000
00000000
00000000
00000000
00000000
00000000
00000000
03010000
00000000
00000000
00000000
00000000
00000000
00000000
00000000
00000000
10000000
00000000
00000000
00000000
00000000
00000000
00000000
00000000
00000000
10010000
00000000
00000000
00000000
00000000
00000000
00000000
00000000
00000000
00000000
00000000
00000000
00000000
00000000
00000000
00000000
00000000
00000000
00000000
00000000
00000000
00000000
00000000
00000000
00000000
00000000
00000000
00000000
00000000
00000000
00000000
00000000
00000000
00000000
00000000
00000000
00000000
00000000
00000000
00000000
00000000
00000000
00000000
00000000
00000000
00000000
00000000
00000000
00000000
00000000
00000000
00000000
00000000
00000000
00000000
00000000
00000000
00000000
00000000
00000000
00000000
00000000
00000000
00000000
;

//--------------- dance-double - forcednature ----------------
#NOTEDATA:;
#STEPSTYPE:dance-double;
#DESCRIPTION:forcednature;
#DIFFICULTY:Challenge;
#METER:17;
#RADARVALUES:0,0,0,0,0;
#CREDIT:forcednature;
#NOTES:
00000000
00000000
00000000
00000000
,
00000000
00000000
00000000
00000000
,
00000000
00000000
00000000
00000000
,
00000000
00000000
00000000
00000000
,
00000000
00000000
00000000
00000000
,
00000000
00000000
00000000
00000000
,
00001000
00000000
00000000
01000000
00000000
00000000
00010000
00000000
00000000
00100000
00000000
00000000
00001000
00000000
00000000
00000000
,
00010000
00001000
00000000
00010000
00000100
00000000
00001000
00000100
00000000
00010000
00001000
00000000
00010000
00000000
00000000
00000000
,
00010000
00000000
00000000
00000100
00000000
00000000
00001000
00000000
00000000
00000010
00000000
00000000
00010000
00000000
00000000
00000000
,
00001000
00010000
00000000
00001000
01000000
00000000
00010000
01000000
00000000
00001000
00010000
00000000
00001000
00000000
00000000
00000000
,
00100000
00000000
00000000
00010000
00100000
00000000
01000000
00000000
00000000
10000000
01000000
00000000
00100000
00000000
00000000
00000000
,
00001000
00010000
00000000
00000100
00001000
00000000
00000100
00010000
00000000
00001000
00010000
00000000
00001000
00000000
00000000
00000000
,
00010000
00000000
00000000
00000010
00001000
00000000
00000100
00000000
00000000
00001000
00000010
00000000
00010000
00000000
00000000
00000000
,
00001000
00100000
00000000
00010000
00100000
00000000
00001000
00010000
00000000
00001000
01000000
00000000
00010000
00000000
00000000
00000000
,
10000000
01000000
10000000
01000000
10000000
00000000
00010000
00100000
00010000
00100000
00010000
00000000
00000000
00000000
00000000
00000000
,
00001000
00000100
00001000
00000100
00001000
00000000
00000001
00000010
00000001
00000010
00000001
00000000
00000000
00000000
00000000
00000000
,
00000100
00000000
00000000
00001000
00010000
00000000
00100000
00000000
00000000
00010000
00001000
00000000
00000000
00000000
00000000
00000000
,
01000000
00000000
01000000
00000000
00010000
00000000
00010000
00000000
01000000
00010000
10000000
00100000
02000000
00000000
00000000
00000000
,
03001000
00010000
00000100
00001000
00000200
00000000
00010300
00001000
00100000
00010000
00200000
00000000
00301000
00010000
00000100
00001000
,
00000200
00000000
00010300
00001000
00100000
00010000
00200000
00000000
00301000
00010000
00000100
00001000
00000100
00000000
00000000
00000000
,
00010000
00001000
01000000
00010000
02000000
00000000
03001000
00010000
00000010
00001000
00000020
00000000
00010030
00001000
01000000
00010000
,
02000000
00000000
03001000
00010000
00000010
00001000
00000020
00000000
00010030
00001000
01000000
00010000
01000000
00000000
00000000
00000000
,
00001000
00010000
00000010
00001000
00000020
00000000
00010030
00001000
01000000
00010000
02000000
00000000
03001000
00010000
00000010
00001000
,
00000020
00000000
00010030
00001000
01000000
00010000
02000000
00000000
03001000
00010000
00000010
00001000
00000010
00000000
00000000
00000000
,
00010000
00001000
00100000
00010000
00200000
00000000
00301000
00010000
00000100
00001000
00000200
00000000
00010300
00001000
00100000
00010000
,
00200000
00000000
00301000
00010000
00000100
00001000
00000200
00000000
00010300
00001000
00100000
00010000
00100000
00000000
00000000
00000000
,
00001000
00010000
00000100
00001000
00000020
00000000
00010030
00001000
01000000
00010000
00200000
00000000
00301000
00010000
00000100
00001000
,
00000020
00000000
00010030
00001000
01000000
00010000
00200000
00000000
00301000
00010000
00000010
00001000
00000200
00000000
00010300
00001000
,
00100000
00010000
02000000
00000000
03001000
00010000
00000010
00001000
00000200
00000000
00010300
00001000
00100000
00010000
02000000
00000000
,
03001000
00000000
00000000
00010000
00000000
00000000
00000100
00000000
00000000
00001000
00000000
00000000
00000020
00000000
00000000
00000000
00000000
00000000
00010030
00000000
00000000
00001000
00000000
00000000
01000000
00000000
00000000
00000000
00010000
00000000
00000000
00000000
00100000
00000000
00000000
00000000
00001000
00000000
00000000
00000000
00010000
00000000
00000000
00000000
00100000
00000000
00000000
00000000
,
20000000
00000000
00000000
00000000
00000000
00000000
00000000
00000000
30000000
00000000
00000000
00000000
,
10000000
00000000
00000000
00000000
00000000
00000000
00000000
00000000
01000000
00000000
00000000
00000000
00000000
00000000
00000000
00000000
00010000
00000000
00000000
00000000
00000000
00000000
00000000
00000000
00001000
00000000
00000000
00000000
00000000
00000000
00000000
00000000
00011000
00000000
00000000
00000000
00000000
00000000
00000000
00000000
00011000
00000000
00000000
00000000
00000000
00000000
00000000
00000000
00010000
00000000
00000000
00000000
00000000
00000000
00000000
00000000
00001000
00000000
00000000
00000000
00000010
00000000
00000000
00000000
00000001
00000000
00000000
00000000
00001000
00000000
00000000
00000000
00000100
00000000
00000000
00000000
00000000
00000000
00010000
00000000
00000000
00001000
00000000
00000000
00010000
00000000
00000000
00001000
00000000
00000000
00010000
00000000
00000000
00001000
00000000
00000000
,
00100000
00000000
00000000
00010000
01000000
00000000
01100000
00000000
00000000
00000000
00100000
00000000
10000000
00000000
01000000
00000000
,
00020000
00000000
00000000
00000000
00031000
00000000
00010000
00000000
00000100
00001000
00000100
00010000
00002000
00000000
00000000
00000000
,
00003010
00000000
00000000
00000001
00000010
00000000
00000110
00000000
00000000
00000000
00000100
00000000
00001000
00000000
00000001
00000000
,
00000200
00000000
00000000
00000000
00001300
00000000
00010000
00001000
01000000
00010000
01000000
00001000
00020000
00000000
00000000
00000000
,
00130000
00000000
00000000
10000000
01000000
00000000
01100000
00000000
00000000
00000000
00100000
00010000
00100000
00000000
00001000
00010000
,
00000200
00000000
00000000
00000000
00002300
00000000
00000000
00000000
00003001
00000000
00000100
00000000
00000010
00001000
00000001
00001000
,
00000010
00000000
00000000
00010000
00001000
00000000
00021000
00000000
00000000
00000000
01030000
00000000
10000000
00000000
00010000
00000000
,
00100000
00000000
00000000
00001000
00010000
00000000
00012000
00000000
00000000
00000000
00003100
00000000
00000001
00000000
00001000
00000010
,
00000200
00000000
00001000
00001000
00000000
00000001
00000302
00000000
,
00000023
00000000
00000000
00000000
00000130
00000000
00001000
00000000
00000100
00010000
00001000
00100000
00010000
00000000
10000000
00000000
,
02000000
00000000
00010000
00010000
00000000
10000000
23000000
00000000
,
30200000
00000000
00000000
00000000
01300000
00000000
00010000
00000000
01000000
00001000
00010000
00000010
00001000
00000000
00000001
00000000
,
00000100
00000000
00000000
00000010
00000100
00000000
00002000
00000000
00000000
00000000
00013000
00000000
00200000
00000000
00000000
00000000
,
20300000
00000000
00000000
00000000
30010000
00000000
00100000
00000000
00010000
10000000
01000000
00100000
00010000
00000000
01000000
00000000
,
00001000
00000000
00000000
00010000
00000100
00000000
00002100
00000000
00000000
00000000
00003010
00001000
00000001
00000000
00001000
00000100
,
00010000
00000000
00000000
00001000
01000000
00000000
01010000
00000000
00010000
00000000
10000000
01000000
00100000
01000000
10000000
00010000
,
00100000
00000000
00000000
01100000
00000000
00000000
01100000
00000000
01000000
00000000
00010000
00000000
00001000
00010000
00001000
00010000
,
00000100
00010000
00000100
00010000
00000100
00001000
00000100
00001000
00000100
00000010
00000100
00000010
00000001
00000010
00000001
00000010
,
00000100
00000000
00000000
00000110
00000000
00000000
00000110
00000000
00000002
00000000
00000000
00000000
00000103
00000000
00000000
00000110
,
00000000
00000000
00000110
00000000
00000010
00000000
00010000
00000000
00001000
00010000
00000100
00000000
00001000
00000100
00001000
00000000
,
00000010
00000000
00000000
00000110
00000000
00000000
00000110
00000000
00000100
00000000
00001000
00000000
00010000
00001000
00010000
00001000
,
01000000
00001000
01000000
00001000
01000000
00010000
01000000
00010000
01000000
00100000
01000000
00100000
10000000
00100000
10000000
00100000
,
01000000
00000000
00000000
01100000
00000000
00000000
00010000
00000000
00002000
00000000
00000000
00000000
00003010
00000000
00000000
00000110
,
00000000
00000000
00001000
00000000
00010000
00001000
00010000
00001000
02000000
00000000
00010000
00000000
03200000
00000000
10000000
00000000
,
01300000
00000000
00100000
10000000
00000000
01000000
10000000
00000000
01000000
00000000
00010000
00000000
00001000
00000000
00000010
00000001
,
00000000
00000100
00000001
00000000
00000100
00001000
00000000
00010000
00001000
00000000
00010000
00001000
00100000
00001000
00010000
00000000
,
00100000
00000000
10000000
01000000
00000000
10000000
00100000
00000000
00010000
00000000
00001000
00000000
00000010
00000000
00000001
00000100
,
00000000
00000001
00000010
00000000
00000100
00000010
00000000
00000100
00010000
00000000
00001000
00100000
00000000
01000000
00100000
00000000
,
10010000
00000000
00000000
01001000
00000000
00000000
00010010
00000000
00000020
00000000
00000030
00000000
00001001
00000000
00000000
00010100
,
00000000
00000000
00000000
00101000
00000000
00000000
00100000
00000000
00010000
00000000
10000000
00000000
00100000
00000000
10000000
00000000
00010000
00000000
00100000
00000000
01000000
00000000
00010000
00000000
,
00001000
00000000
00010000
00001000
00000000
00010000
00000100
00000000
00001000
00000010
00010000
00001000
00010000
00000000
00001000
01000000
,
00000000
00010000
01000000
00000000
00100000
10000000
00010000
01000000
00100000
00000000
10000000
00010000
00100000
00010000
10000000
01000000
,
20000000
00000000
00000000
00000000
00000000
00000000
00000000
00000000
00000000
00000000
00000000
00000000
00000000
00000000
00000000
00000000
30000000
00000000
00000000
00000000
00000000
00000000
00000000
00000000
00000000
00000000
02000000
00000000
00000000
03020000
00000000
00000000
,
00032000
00000000
00000000
00003000
00000020
00000000
00000000
00000030
,
00000001
00000000
00000000
00000100
00000001
00000000
00000000
00000000
00000100
00000000
00001000
00000000
00010000
00000000
00100000
00000000
,
10000000
00000000
00000000
01000000
10000000
00000000
00000000
00000000
01000000
00000000
00010000
00000000
00001000
00000000
00000010
00000000
,
00000001
00000000
00000000
00000100
00000001
00000000
00000000
00000000
00000010
00000000
00001000
00000000
00010000
00000000
01000000
00000000
,
10000000
00000000
00100000
00000000
10000000
00010000
00100000
00000000
00001000
00010000
00001000
00010000
00000010
00000000
00001000
00000000
,
00000002
00000000
00000000
00000000
00000000
00000000
00000000
00000000
00000013
00000000
00000000
00000110
00000000
00000000
00001000
00000000
,
00000001
00000100
00000010
00001000
00000010
00000000
00001000
00000010
00010000
00001000
00010000
00000000
00001000
00010000
00001000
01000000
,
00010000
00000000
01000000
00010000
01000000
00100000
10000000
00000000
00010000
10000000
01000000
00100000
01000000
10000000
00010000
00000000
,
10000000
01000000
00100000
00010000
00100000
00000000
00010000
00100000
00001000
00010000
00001000
00000000
00010000
00001000
00010000
00000100
,
00001000
00000000
00000100
00001000
00000100
00000010
00000001
00000000
00001000
00000001
00000100
00000010
00000100
00000001
00001000
00000000
,
00000001
00000010
00000100
00001000
00000100
00000000
00001000
00000100
00010000
00001000
00010000
00000000
00001000
00010000
00001000
00100000
,
00010000
00000000
00100000
00010000
00100000
01000000
10000000
00000000
00010000
10000000
00100000
01000000
00100000
10000000
00010000
01000000
,
00200000
00000000
00000000
00000000
00310000
00000000
00011000
00000000
00000000
00000000
00010000
00000000
00000100
00000000
00001000
00000001
,
00000020
00000000
00000000
00000000
00001030
00000000
00011000
00000000
00000000
00000000
00001000
01000000
00010000
00000000
01000000
00010000
,
10000000
01000000
00100000
00010000
10000000
00000000
01000000
00100000
00010000
00100000
00001000
00000000
00010000
00000100
00001000
00000100
,
00000010
00000000
00000001
00001000
00000100
00000010
00000001
00000000
00001000
00000010
00010000
00001000
00010000
00000100
00001000
00000000
,
00000001
00000100
00000010
00001000
00000001
00000000
00000100
00000010
00001000
00000010
00010000
00000000
00001000
01000000
00010000
01000000
,
00100000
00000000
10000000
00010000
01000000
00100000
10000000
00000000
00010000
00100000
00001000
00010000
00001000
01000000
00010000
00000000
,
10000000
00100000
01000000
00010000
10000000
00000000
00100000
01000000
00010000
01000000
00001000
00000000
00010000
00000010
00001000
00000010
,
00000100
00000000
00000001
00001000
00000010
00000100
00000001
00000000
00001000
00000100
00010000
00001000
00010000
00000010
00001000
00000001
,
00000200
00000000
00000000
00000000
00001300
00000000
00011000
00000000
00000000
00000000
00010000
00001000
00100000
00000000
00010000
10000000
,
02000000
00000000
00000000
00000000
03010000
00000000
00012000
00000000
00000000
00000000
00013000
00000100
00001000
00000000
00000001
00000010
,
00000200
00000000
00000000
00000000
00000000
00000000
00000000
00000000
00000000
00000000
00000000
00000000
00000000
00000000
00000000
00000000
00000001
00000000
00000000
00000001
00000000
00000000
00000010
00000000
00000000
00000010
00000000
00000000
00001300
00000000
00000000
00000000
,
00000100
00000000
00000000
00000000
00000000
00000000
00000000
00000000
00000000
00000000
00000000
00000000
00000000
00000000
00000000
00000000
00010000
00000000
00000000
00000000
00000000
00000000
00000000
00000000
00000000
00000000
00000000
00000000
00000000
00000000
00000000
00000000
00001000
00000000
00000000
00000000
00000000
00000000
00000000
00000000
00000000
00000000
00000000
00000000
00000000
00000000
00000000
00000000
00100000
00000000
00000000
00000000
00000000
00000000
00000000
00000000
00000000
00000000
00000000
00000000
00000000
00000000
00000000
00000000
00110000
00000000
00000000
00000000
00000000
00000000
00000000
00000000
00000000
00000000
00000000
00000000
00000000
00000000
00000000
00000000
01010000
00000000
00000000
00000000
00000000
00000000
00000000
00000000
00000000
00000000
00000000
00000000
00000000
00000000
00000000
00000000
00000000
00000000
00000000
00000000
00000000
00000000
00000000
00000000
00000000
10000000
00000000
00000000
00000000
00000000
00000000
00000000
00000000
00000000
00000000
00000000
00000000
10000000
00000000
00000000
00000000
00000000
00000000
00000000
00000000
00000000
00000000
00000000
00000000
00000000
00000000
00000000
00000000
00000000
00000000
00100000
00000000
00000000
00000000
00000000
00000000
00000000
00000000
00000000
00000000
00000000
00100000
00000000
00000000
00000000
00000000
00000000
00000000
00000000
00000000
00000000
00000000
00000000
00000000
00000000
00000000
00000000
00000000
00000000
00000000
00000000
00000000
00000000
00000000
00000000
00000000
00000000
00000000
00000000
00010000
00000000
00000000
00000000
00000000
00000000
00000000
00000000
00000000
00000000
00000000
00000000
00000000
00010000
00000000
00000000
00000000
00000000
,
00000000
00000000
00000000
00000000
00000000
00000000
00000000
00000000
00000000
00000000
00000000
00000000
00000000
00000000
00001000
00000000
00000000
00000000
00000000
00000000
00000000
00000000
00000000
00000100
00000000
00000000
00000000
00000000
00000000
00000000
00000000
00000000
00000001
00000000
00000000
00000000
00000000
00000000
00000000
00000000
00000000
00000000
00000000
00000000
00000000
00000000
00000000
00000000
00000000
00000000
00000000
00000000
00000000
00000000
00000000
00000000
00000000
00000000
00000000
00000000
00000000
00000000
00000000
00000000
00000000
00000000
00000000
00000000
00000000
00000000
00000000
00000000
00000000
00000000
00000000
00000000
00000000
00000000
00000000
00000000
00000000
00000000
00000000
00000000
00000000
00000000
00000000
00000000
00000000
00000000
00000000
00000000
00000000
00000000
00000000
00000000
;
