#VERSION:0.83;
#TITLE:俗物フェスティバル;
#SUBTITLE:;
#ARTIST:Micelle feat. Yshida;
#TITLETRANSLIT:Zokubutsu Festival;
#SUBTITLETRANSLIT:;
#ARTISTTRANSLIT:;
#GENRE:SELF-INTRODUCTION;
#CREDIT:;
#MUSIC:Zokubutsu Festival.ogg;
#BANNER:Zokubutsu Festival.png;
#BACKGROUND:Zokubutsu Festival-bg.png;
#CDTITLE:;
#SAMPLESTART:68.306;
#SAMPLELENGTH:15.000;
#SELECTABLE:YES;
#OFFSET:0.812;
#BPMS:0.000=197.000;
#STOPS:;
#TIMESIGNATURES:0.000=4=4;
#BGCHANGES:0.000=Zokubutsu Festival.mp4=1.000=0=0=0=StretchNoLoop====,
99999.000=-nosongbg-=1.000=0=0=0=StretchNoLoop====
;
#FGCHANGES:;

//--------------- dance-single - forcednature ----------------
#NOTEDATA:;
#STEPSTYPE:dance-single;
#DESCRIPTION:forcednature;
#CREDIT:forcednature;
#DIFFICULTY:Beginner;
#METER:4;
#RADARVALUES:0,0,0,0,0;
#NOTES:
0000
0000
0000
0000
,
0000
0000
0000
0000
,
0000
0000
0000
0000
,
1000
0000
0000
0000
,
0001
0000
0000
0000
,
0100
0000
0000
0000
,
0001
0000
0000
0000
,
1000
0000
0000
0000
,
0100
0000
0000
0000
,
1000
0000
0000
0000
,
0000
0000
0000
0000
,
1001
0000
0000
0000
,
0001
0000
0000
0000
,
0100
0000
0000
0000
,
0001
0000
0000
0000
,
0010
0000
0000
0000
,
0100
0000
0000
0000
,
1000
0000
0000
0000
,
0100
0000
0100
0000
,
0010
0000
0000
0000
,
0001
0000
0000
0000
,
1000
0000
0000
0000
,
0001
0000
0000
0000
,
0100
0000
0000
0000
,
0010
0000
0000
0000
,
1000
0000
1000
0000
,
0001
0000
0000
0000
,
1000
1000
1000
0000
,
0001
0001
0001
0000
,
0010
0000
0100
0000
,
0010
0000
0000
0000
,
0001
0001
0001
0000
,
1000
1000
1000
0000
,
0010
0000
0100
0000
,
0010
0000
0000
0000
,
1000
0000
0000
0000
,
0001
0000
0000
0000
,
0010
0000
0010
0000
,
0100
0000
0100
0000
,
0000
0000
0000
0000
,
0000
0000
0000
0000
,
0000
0000
0000
0000
,
1000
0000
0000
0000
,
1001
0000
0000
0000
,
0000
0000
0000
0000
,
0001
0000
0000
0000
,
0000
0000
0000
0000
,
0100
0000
0000
0000
,
0000
0000
0000
0000
,
0010
0000
0000
0000
,
0010
0000
0000
0000
,
1000
0000
0000
0000
,
1000
0000
0000
0000
,
0001
0000
0000
0000
,
0010
0000
0000
0000
,
0001
0000
0001
0000
,
0001
0000
0000
0000
,
1000
0000
0000
0000
,
0100
0000
0000
0000
,
1000
0000
0000
0000
,
0001
0000
0000
0000
,
1000
0000
0000
0000
,
0010
0000
0000
0000
,
0100
0000
0100
0000
,
0100
0000
0000
0000
,
0001
0000
0000
0000
,
0010
0000
0000
0000
,
0001
0000
0000
0000
,
1000
0000
1000
0000
,
1000
0000
0000
0000
,
0001
0000
0000
0000
,
0100
0000
0000
0000
,
0001
0000
0000
0000
,
0010
0000
0010
0000
,
0010
0000
0000
0000
,
1001
0000
0000
0000
,
1000
0000
0000
0000
,
0010
0000
0000
0000
,
0100
0000
0000
0000
,
0001
0000
0000
0000
,
1000
0000
0000
0000
,
0100
0000
0000
0000
,
0010
0000
0000
0000
,
0001
0000
0000
0000
,
1000
0000
0000
0000
,
0010
0000
0000
0000
,
0000
0000
0000
0000
,
1001
0000
0000
0000
,
1000
0000
0000
0000
,
0100
0000
0000
0000
,
0010
0000
0000
0000
,
0001
0000
0000
0000
,
0100
0000
0000
0000
,
0010
0000
0000
0000
,
1000
0000
0000
0000
,
1001
0000
0000
0000
,
0001
0000
0000
0000
,
0010
0000
0000
0000
,
0100
0000
0000
0000
,
1000
0000
0000
0000
,
0001
0000
0000
0000
,
1000
0000
1000
0000
,
1000
0000
0000
0000
,
1001
0000
0000
0000
;

//--------------- dance-single - forcednature ----------------
#NOTEDATA:;
#STEPSTYPE:dance-single;
#DESCRIPTION:forcednature;
#CREDIT:forcednature;
#DIFFICULTY:Easy;
#METER:9;
#RADARVALUES:0,0,0,0,0;
#NOTES:
0000
0000
0000
0000
,
0000
0000
0000
0000
,
0000
0000
0000
0000
,
1000
0001
0100
0001
,
1000
0010
0100
0000
,
0001
0010
0100
0010
,
0001
1000
0010
0100
,
0110
0010
1000
0001
,
0010
0100
0010
0000
,
2002
3003
0000
0000
,
1000
0001
0100
0000
,
1001
0010
0000
1000
,
0001
0010
0001
0100
,
0010
0010
0100
0100
,
0002
0000
0000
2000
0000
0000
3003
0000
,
1000
0100
0010
0100
,
1000
0001
0100
0010
,
1000
0001
0000
0001
,
1000
0100
0020
0030
,
1001
0001
0100
0010
,
1000
0100
0010
0100
,
1000
0010
0100
0001
,
0020
0000
0000
0200
0000
0000
0330
0000
,
1000
0001
0100
0001
,
1000
0100
0010
0000
,
0110
0000
1001
0000
,
0110
0000
1001
0000
,
0001
1000
0001
0000
0001
0000
0000
0000
,
1000
0001
1000
0000
1000
0000
0000
0000
,
0010
0010
0010
0010
,
1000
0001
0010
0000
,
0001
1000
0001
0000
0001
0000
0000
0000
,
1000
0001
1000
0000
1000
0000
0000
0000
,
0010
0010
0100
0100
,
0010
0100
0010
0100
0010
0000
0000
0000
,
1000
0001
0100
1001
,
0001
1000
0100
1001
,
1000
0010
0100
0001
,
0010
1001
0100
1001
,
0000
1000
0000
1000
,
0000
0001
0000
0001
,
0000
1000
0000
0001
,
0100
0001
0010
0100
,
2002
0000
0000
0000
,
0000
0000
3003
0000
,
0001
0000
1000
0000
,
0001
0000
0000
0000
,
0010
0000
0100
0000
,
1000
0000
0000
0000
,
1001
0000
0000
0000
,
0100
0000
0000
0000
0000
0010
0000
0000
,
1001
0000
0000
0000
,
0110
0100
0010
0000
,
1000
0001
0000
1000
,
0001
1000
0000
0001
,
0010
0100
0010
0100
,
1000
0001
0100
0000
,
0010
1000
0001
0100
,
0001
0000
0010
0000
0100
1000
0100
0000
,
0010
0001
1000
0010
,
0100
0000
0001
0000
0010
0100
0010
0100
,
0010
0000
0001
1000
,
0010
1000
0001
0000
,
0010
0010
0100
0100
,
1000
1000
0001
0001
,
1001
0000
1000
0010
,
0100
0001
0100
0000
0010
0000
1000
0000
,
0001
0010
0100
1000
,
0010
0000
0010
0000
0100
0001
1000
0000
,
0100
0100
0010
0010
,
0100
0000
1000
0000
0001
1000
0001
0000
,
0100
0100
0010
0010
,
0100
0000
0100
0000
0001
1000
0001
0000
,
0010
0010
0010
0001
,
0100
0010
0100
0000
0100
0000
0000
0000
,
0002
0000
0003
0000
,
2000
0000
3000
0000
,
0020
0000
0000
0030
0100
0000
0000
0001
,
0000
1000
0100
0000
,
0020
0000
0000
0030
0100
0000
0000
1000
,
0000
0001
0100
0000
,
0010
0010
0010
0010
,
0010
0000
0000
1000
0000
0001
1000
0000
,
0001
0010
1000
0010
,
0001
0100
1000
0100
,
0020
0000
0000
0030
,
0000
0000
0000
0000
,
1000
0001
0010
0001
,
0100
0000
0010
0000
1000
0001
1000
0000
,
0100
0010
0001
1000
,
0010
0000
0010
0000
0100
0001
0100
0000
,
0010
1000
0001
0010
,
0100
0000
1000
0000
0010
0100
0010
0000
,
1000
0001
0010
0100
,
0010
0000
0010
0000
0001
1000
0001
0000
,
0001
0100
0010
1000
,
0100
0010
0100
1000
,
0001
0100
0001
0010
,
0001
0000
1000
0000
0010
0100
0010
0000
,
1000
0001
0010
0100
,
0010
0001
0100
0010
,
1000
0000
0001
0000
0010
0100
0010
0000
,
0001
0000
1000
0000
0010
0100
0010
0000
,
2002
0000
0000
0000
,
0000
0000
0000
0000
,
3003
0000
0000
0000
;

//--------------- dance-single - forcednature ----------------
#NOTEDATA:;
#STEPSTYPE:dance-single;
#DESCRIPTION:forcednature;
#CREDIT:forcednature;
#DIFFICULTY:Medium;
#METER:12;
#RADARVALUES:0,0,0,0,0;
#NOTES:
0000
0000
0000
0000
,
0000
0000
0000
0000
,
0000
0000
0000
0000
0000
0000
1000
0001
,
0100
0001
1000
0000
0100
1000
0001
0000
,
0010
0100
0010
0001
1000
0001
1000
0000
,
0010
0100
0010
0000
1000
0001
1000
0000
,
0100
0010
0001
0100
0010
1000
0001
0000
,
1000
0010
1000
0000
0001
0010
0001
0000
,
0100
0010
1000
0001
0010
0100
1000
0000
,
0002
0000
0000
0003
,
1000
0000
0010
0100
0000
0001
1000
0000
,
1001
0000
1100
0000
0000
0010
0001
0000
,
0100
0000
0010
0000
1000
0001
0010
0000
,
0100
0000
0110
0000
0000
0010
0001
0000
,
1000
0000
0010
1000
0000
0001
0100
0000
,
0010
0000
0110
0000
0000
1000
0001
0000
,
1000
0000
0100
0000
0010
0001
0100
0000
,
0010
0000
1000
0001
0000
1000
0001
0000
,
0010
0100
0010
0100
0000
1000
0001
0000
,
0110
0000
0101
0000
0001
0010
0100
0000
,
1000
0000
0001
1000
0010
0010
1000
0000
,
0100
0110
0010
1001
,
0001
0100
0010
1000
0000
0001
0010
0000
,
0100
0000
1100
0000
1000
0001
0100
0000
,
0010
1000
0001
0000
1000
0100
0010
0000
,
0110
1000
0110
0001
,
0110
0100
1001
0000
,
1000
1000
1000
1000
1000
0000
0000
0000
,
0001
0001
0001
0001
0001
0000
0000
0000
,
0100
0100
0010
0010
,
0100
0010
0100
0010
0100
0000
0000
0000
,
0001
0001
0001
0001
0001
0000
0000
0000
,
1000
1000
1000
1000
1000
0000
0000
0000
,
0100
0010
0100
0010
,
0100
0010
0100
0010
0100
0000
0000
0000
,
1000
0000
0000
0100
0000
0000
0010
0000
0001
0000
0000
0000
1001
0000
0000
0000
,
0001
0100
0001
1000
0010
0000
1001
0000
,
1000
0100
0001
0000
0001
0100
1000
0000
,
0010
0100
0010
0100
0010
0100
0020
0000
,
0030
1000
0000
1000
,
0000
0000
0001
0000
0000
0000
0001
0001
,
0000
1000
0000
0001
,
1000
0000
0100
0000
0010
0001
0010
0000
,
2002
0000
0000
0000
,
0000
0000
3003
0000
,
0001
0000
0100
0000
,
0001
0000
1000
0000
,
0100
0000
0010
0000
,
0100
0000
1000
0000
,
2002
0000
0000
3003
,
0020
0000
0000
0000
0000
0000
0030
0000
0000
0000
0200
0000
0000
0300
0000
0000
,
2002
0000
0000
3003
,
1000
0000
1000
0000
0001
1000
0001
1000
,
0010
0220
0330
0220
,
0330
0000
1001
0000
0001
0010
0100
1000
,
0010
0010
0100
0100
,
0001
1000
0001
1000
0001
0000
1000
0100
,
0010
0110
0100
0110
,
0010
0001
1000
0000
0010
1000
0001
0000
,
0100
0110
0010
0110
,
0100
0001
1000
0000
0100
1000
0001
1000
,
0020
0130
0001
1000
,
0100
0010
0001
1000
0010
0100
0001
0000
,
1001
1001
0110
0110
,
1001
0110
2002
3003
,
1000
0000
0100
0000
0010
0001
0100
0000
,
0010
0000
1000
0000
0001
0010
0100
0000
,
0010
0000
0001
0000
0100
0010
1000
0000
,
1001
0000
1001
0000
0100
0010
0100
0000
,
1001
0000
1000
0000
0010
0100
0001
0000
,
0010
0000
0100
0000
1000
0010
1000
0010
,
0100
0001
0010
0100
,
0010
0000
0000
0001
0000
0000
0100
0000
0010
0000
1000
0000
0001
0000
0010
0000
,
0100
1000
0100
1000
0001
0100
0001
0100
,
0010
1000
0001
0010
0100
0000
0000
0000
,
0022
0000
0033
0000
,
2020
0000
3030
0000
,
0002
0000
0000
0003
1000
0000
0000
0010
,
0000
0100
0001
0010
,
0200
0000
0000
0300
0010
0000
0000
0001
,
0000
1000
0010
0100
,
0001
0001
0001
0001
,
0010
0000
0000
0110
0000
1000
0001
0000
,
0010
0000
1001
0000
1000
0010
0000
0100
,
0000
0001
0010
0100
0010
0100
0010
0100
,
0010
2002
0000
3003
,
0000
0000
0000
0000
0000
0000
1000
0010
,
1000
0000
0001
0010
0001
0000
0100
0010
,
1000
0100
0010
0001
0100
0010
1000
0000
,
0001
0100
0001
0000
1000
0100
1000
0000
,
1001
0000
0110
0000
0001
1000
0001
0000
,
1000
0100
0010
0000
0100
1000
0001
0000
,
0100
0010
0100
0010
1000
0001
1000
0000
,
0100
0010
0001
0100
0010
0000
1000
0000
,
0001
0000
0000
0001
0000
0000
0010
0000
0100
0000
1000
0000
0010
0000
0100
0000
,
0001
0010
0001
0000
1000
0010
1000
0000
,
0001
0100
0010
1000
0100
0010
0001
0000
,
0100
0010
1000
0000
0001
0010
0100
0000
,
0010
0001
1000
0001
0100
0010
1000
0000
,
0100
0010
0100
0000
1000
0001
0100
0000
,
0010
1000
0001
0010
0001
0100
0010
0000
,
1000
0000
0000
0001
0000
0000
1000
0000
0100
0000
0010
0000
0001
0000
1000
0000
,
0010
0000
0000
0100
0000
0000
0001
0000
0010
0000
0100
0000
1000
0000
0000
0000
,
2002
0000
0000
0000
,
0000
0000
0000
0000
,
3003
0000
0000
0000
;

//--------------- dance-single - forcednature ----------------
#NOTEDATA:;
#STEPSTYPE:dance-single;
#DESCRIPTION:forcednature;
#CREDIT:forcednature;
#DIFFICULTY:Hard;
#METER:15;
#RADARVALUES:0,0,0,0,0;
#NOTES:
0000
0000
0000
0000
,
0000
0000
0000
0000
,
0000
0000
0000
0000
0000
0000
0001
0100
,
0010
1000
0001
1000
0100
0010
0001
0000
,
0100
0010
1000
0001
0010
0100
0010
0100
,
1000
0001
0100
0010
1000
0001
0010
0000
,
0001
0100
1000
0100
0010
0100
0010
0100
,
0010
1000
0001
0010
0100
0010
0001
0000
,
1000
0000
0010
0000
0100
0000
0001
0000
1000
0001
1000
0001
1000
0000
0000
0000
,
0020
0000
0000
0000
,
0100
0000
0100
0000
0130
0010
0010
0000
,
1001
0000
0101
0000
0001
1000
0100
0000
,
0010
0001
0010
0100
1000
0001
1000
0000
,
0010
0110
0100
0110
,
0001
1000
0001
1000
0000
0100
0010
0000
,
0100
0000
1001
0000
1000
0010
0100
0000
,
0001
0010
0001
0010
0000
0100
1000
0100
,
0010
0000
0110
0000
0000
1000
0001
1000
,
0010
0000
0110
0000
0100
0001
1000
0100
,
0010
0000
0110
0000
0100
1000
0001
1000
,
0000
0010
0100
0000
0001
0010
0100
0100
,
1000
1010
0001
0011
,
0001
0000
0100
0000
0001
0000
1000
0000
0100
0000
0010
0000
0001
1000
0001
0000
,
0100
0001
0100
0000
0010
1000
0000
0001
,
1000
0100
0010
0000
0100
1000
0010
0010
,
0100
0000
0000
0010
1000
0010
1000
0000
0000
0001
0010
0001
,
0010
0000
0000
0001
1000
0001
1000
0000
0000
0000
0000
0000
,
0001
0100
0001
0100
0001
0100
0001
0100
0001
0000
0000
0000
0000
0000
0000
0000
,
1000
0100
1000
0100
1000
0100
1000
0100
1000
0000
0000
0000
0000
0000
0000
0000
,
0110
1001
0110
1001
,
0001
1000
0100
0010
0001
0000
0000
0000
,
1000
0010
1000
0010
1000
0010
1000
0010
1000
0000
0000
0000
0000
0000
0000
0000
,
0001
0010
0001
0010
0001
0010
0001
0010
0001
0000
0000
0000
0000
0000
0000
0000
,
0101
1100
0011
1010
,
1000
0000
0100
0000
0010
0000
0001
0000
1000
0001
1000
0001
1000
0000
0000
0000
,
0001
0100
0000
0001
0100
0000
0010
0000
1000
0000
0000
0000
1001
0000
0000
0000
,
1000
0000
0100
1000
0100
0000
0010
0001
0010
0000
0000
0000
1001
0000
0000
0000
,
0001
0100
0001
0000
1000
0010
1000
0000
,
0100
0010
0100
0010
0001
1000
2002
0000
,
3003
0001
0000
1000
,
0000
0000
0001
0000
0000
0000
1000
1000
,
0000
0001
0000
1000
,
0010
0100
0001
1000
0100
0010
0100
0010
,
0220
0000
0000
0000
,
0000
0000
0330
0000
,
0001
0100
0001
1000
,
0100
0000
1000
0010
,
1000
0000
0001
0010
,
0001
0100
0010
0000
,
2002
0000
0000
3003
,
0220
0000
0000
0000
0000
0000
0330
0000
0000
0000
2002
0000
0000
3003
0000
0000
,
2020
0000
0000
3030
,
0101
0000
0011
0000
1000
0100
0010
0001
,
0100
1001
0010
1001
,
1000
0000
0110
0000
0001
0100
0001
0000
,
1000
0100
1000
0010
0100
0001
0010
0001
,
0100
0010
1000
0001
0010
0000
0100
1000
,
0010
1000
0100
0001
0100
1000
0010
0000
,
0100
0001
0100
1000
0100
0010
1000
0000
,
0001
0010
0100
0010
0001
1000
0010
0000
,
0100
0001
1000
0001
0010
1000
0010
0001
,
1000
0000
0010
0100
0001
0000
0100
0010
,
0000
1000
0100
0010
0002
0000
0003
0000
,
1010
1010
0101
0101
,
1100
0000
0011
0000
1001
0000
0001
0100
,
1000
0100
0010
1000
0001
1000
0100
0000
,
0010
1000
0010
0001
1000
0001
0100
0100
,
0010
1000
0001
0010
0100
1000
0010
0000
,
0110
0000
0000
0000
0110
0000
0000
0000
1000
0001
1000
0001
1000
0000
0000
0000
,
0010
0100
0001
0100
0010
1000
0001
0000
,
0010
0100
0010
0001
0100
1000
0100
0000
,
0010
1000
0001
1000
0100
0001
0100
0010
,
0001
0000
0000
0001
1000
0000
0010
0000
0100
0000
0001
0000
1000
0000
0100
0000
,
1000
0001
1000
0001
1000
0001
1000
0001
,
1000
0001
1000
0001
1000
0001
1000
0001
1000
0000
0000
0000
0001
0000
0100
0000
,
0020
0000
0000
0000
0030
0000
1000
0100
,
0020
0000
0000
0000
0030
0000
0001
1000
,
0020
0000
0000
0130
0001
1000
0000
0100
,
0000
0010
0001
1000
0001
0000
0100
0010
,
2000
0000
0000
3100
0010
0100
0000
1000
,
0000
0001
0100
0010
1000
0001
0000
0000
,
0010
0010
0010
0010
,
0110
0000
1000
0001
0000
0100
0010
0000
,
1001
0000
0110
0000
0001
0100
0000
0110
,
0000
0010
1000
0001
1000
0100
1000
0100
,
0020
0200
0000
0330
,
0000
0000
0000
0000
0000
0000
0001
1000
,
0001
0000
0000
0100
0000
0000
0010
0000
1000
0000
0001
0000
1000
0000
0100
0000
,
0010
0100
0010
0100
1000
0001
0100
0010
,
1000
0001
0010
0001
0100
0001
0010
0000
,
0110
0000
0110
0000
0100
1000
0001
0000
,
0100
1000
0100
0010
0100
0001
1000
0000
,
0100
0001
0100
0010
0100
1000
0010
0000
,
0100
0010
1000
0001
0010
0100
1000
0001
,
0100
0000
0000
0100
0010
0000
1000
0000
0001
1000
0001
1000
0001
1000
0001
1000
,
0001
0010
0100
0000
1000
0010
0100
0000
,
0001
1000
0100
1000
0010
0100
0001
0010
,
0100
0001
0100
1000
0001
1000
0010
0100
,
1000
0000
0100
0000
0010
0000
1000
0000
0100
0000
0100
0010
0001
0000
1000
0001
,
1000
0010
0100
0001
0010
0001
0100
0010
,
1000
0000
0100
0000
0001
0000
0100
0000
1000
0010
1000
0010
1000
0000
0001
0000
,
0100
0000
0000
0100
0010
0000
1000
0000
0001
0000
0010
0000
0100
0000
0010
0000
,
0001
0000
0000
0001
1000
0000
0010
0000
0100
0000
1000
0000
0100
0000
0000
0000
,
0220
0000
0000
0000
,
0000
0000
0000
0000
,
0330
0000
0000
0000
;

//--------------- dance-single - forcednature ----------------
#NOTEDATA:;
#STEPSTYPE:dance-single;
#DESCRIPTION:forcednature;
#CREDIT:forcednature;
#DIFFICULTY:Challenge;
#METER:17;
#RADARVALUES:0,0,0,0,0;
#NOTES:
0000
0000
0000
0000
,
0000
0000
0000
0000
,
0000
0000
0000
0000
0000
0000
0001
0100
,
0010
0000
1000
0001
1000
0000
0100
0000
0010
0000
0001
1000
0001
0000
0100
0000
,
0010
0000
1000
0100
1000
0000
0010
0000
0100
0000
0001
0000
0001
0000
0001
0000
,
0010
0000
0100
1000
0100
0000
0010
0000
0001
0000
1000
0000
0010
0000
0001
0000
,
0010
0000
0100
0001
0100
0000
0010
0000
1000
0000
1000
0100
1000
0000
1000
0000
,
0010
0000
0100
0001
0100
0000
0010
0000
1000
0000
0001
0000
0010
0000
0100
0000
,
0010
0000
0001
1000
0001
0000
0100
0000
0010
1000
0010
1000
0010
0000
0100
0000
,
0002
0000
0000
0003
,
1000
0000
0100
0010
0001
0000
0100
0000
0010
0000
1000
0000
1001
0000
0000
0000
,
1000
0001
1000
0100
0001
0100
1000
0010
,
0100
1000
0100
0001
0010
0100
1000
1000
,
1010
0011
1100
0101
,
0110
0000
0000
0000
0100
0000
1001
0000
0000
0000
0001
0000
1000
0010
1000
0000
,
0100
0001
0100
0010
0001
1000
0000
0010
,
0100
1000
0100
0010
1000
0001
0010
0010
,
0100
0000
1001
0000
1000
0010
0100
0100
,
0101
0000
0000
0000
0010
0000
1001
0000
0001
0000
1000
0100
1000
0100
1000
0100
,
0010
0100
0010
0001
0100
0100
0010
1000
,
0001
0010
0001
0100
0010
0010
1000
0001
,
0010
0000
1100
0000
0001
0100
0101
0001
,
0010
0000
0100
0000
1000
0001
1000
0000
0010
0000
0010
0000
0100
0001
0100
0001
,
0010
0100
0010
1000
0010
0001
0000
1000
,
0001
0100
0010
1000
0100
0100
0010
0010
,
0110
0000
0000
0001
0010
0100
1000
0000
0000
0001
0100
0010
,
1000
0000
0000
0001
1000
0001
1000
0000
0000
0000
0000
0000
,
0001
0100
0001
0100
0001
0100
0001
0100
0010
0000
0000
0000
0010
0000
0000
0000
,
1000
0100
1000
0100
1000
0100
1000
0100
0010
0000
0001
0000
0001
0000
0000
0000
,
0101
1100
0011
1010
,
1000
0000
0100
0000
0010
0000
0001
0000
1000
0010
1000
0010
1000
0000
1000
0000
,
0001
0010
0100
1000
0001
0010
0100
1000
0001
0000
0000
0000
1000
0000
0000
0000
,
1000
0010
0100
0001
1000
0010
0100
0001
2000
0000
0000
0000
3000
0000
0000
0000
,
0011
0101
1010
1100
,
0001
0000
0001
0000
1000
0000
1000
0000
0001
1000
0001
1000
0001
1000
0001
1000
,
0001
0100
0000
0010
1000
0000
0001
0000
1001
0000
0000
0000
0110
0000
0000
0000
,
1000
0000
0100
0010
0001
0000
0100
0010
1000
0000
0000
0000
1001
0000
0000
0000
,
0001
0010
1000
0010
0100
1000
0001
1000
,
0010
0001
0010
1000
0100
0010
0110
0000
,
0001
0101
1000
1100
,
0001
0000
0011
0000
1000
0000
1010
0010
,
0100
0110
0010
1001
,
1000
0000
0100
0000
0010
0001
0010
0001
1000
0001
1000
0001
1000
0001
1000
0001
,
0200
0010
0010
0010
,
0010
0010
0010
0010
,
0320
2030
3002
0023
,
0230
0320
0032
2003
,
3002
0203
0320
2030
,
3200
0010
0010
0310
,
0220
0000
0000
0330
,
2200
0000
0000
0000
0000
0000
3300
0000
0000
0000
0202
0000
0000
0303
0000
0000
,
2002
0000
0000
3003
,
0110
0000
0000
0000
1001
0000
0000
0000
0001
0000
1000
0010
1000
0010
1000
0010
,
0100
0001
0101
0000
0010
1000
1010
0000
,
1000
0000
0100
0010
0001
0000
1000
0000
0001
1000
0001
1000
0001
1000
0001
1000
,
0010
0010
0100
0100
0001
0001
1000
1000
,
0001
0100
0001
0100
0010
1000
0010
1000
0001
1000
0001
1000
0001
1000
0001
1000
,
0100
0000
0010
0001
0100
0000
0010
0000
1000
0000
0100
0000
0110
0000
0000
0000
,
0001
0000
0100
0001
1000
0000
0100
1000
0001
0000
0100
0000
0100
0000
0100
0000
,
0010
0000
1000
0001
0010
0000
0100
0000
0010
0000
0000
0000
0011
0000
0000
0000
,
0001
0000
1000
0010
0100
0000
0001
0000
1000
0000
1000
0000
0100
0000
0100
0000
,
0110
0000
1000
0001
0100
0001
1000
0010
,
0000
0000
0100
0000
0001
0000
0010
0000
0100
0000
1000
0000
0001
0100
0001
0100
,
0010
1000
0001
1000
0000
0100
0010
0000
0100
0010
0000
0000
,
0001
0000
0001
0000
1000
0000
1000
0000
1001
0000
0000
0000
0001
0100
0010
1000
,
0001
0000
0010
0000
0100
0000
0010
0000
0001
0000
1000
0010
0100
0000
0001
0000
,
1000
0000
0100
0010
0001
0000
0100
0000
0010
0000
0010
0000
0010
0000
1000
0000
,
0100
0000
0010
0000
0001
0000
0100
0000
0010
1000
0001
0000
0010
0001
1000
0000
,
1001
0000
0000
0000
1001
0000
0000
0000
0001
0100
0010
1000
0001
1000
0100
0010
,
0001
0000
0000
0100
0001
0000
0010
0000
0100
0000
0001
0000
0100
0000
1000
0000
,
0010
0000
0000
1000
0001
0000
0010
0000
0100
0000
0110
0000
0010
0000
0110
0000
,
0100
1000
0001
0100
0001
1000
0100
0010
,
0011
0000
0000
0001
1000
0000
0010
0000
0100
0000
0100
0000
0010
0000
0010
0000
,
1000
0100
0001
0100
1000
0010
0001
0010
,
1000
0100
1000
0100
0010
0001
0010
0001
0100
0000
0000
0000
0010
0000
1000
0000
,
0001
0100
0001
0100
0001
0100
0001
0100
0001
0000
0000
0000
1000
0000
0001
0000
,
1000
0100
1000
0100
1000
0100
1000
0100
1000
0000
0000
0000
0010
0000
0100
0000
,
0001
0000
1000
0000
0001
0000
1000
0000
0000
0100
0000
0000
0001
0000
0000
0100
0000
0000
1000
0000
0000
0010
0000
0000
,
0000
0100
1000
0100
0001
0000
0010
0100
,
1000
0000
0001
0000
1000
0000
0001
0000
0000
0100
0000
0000
1000
0000
0000
0100
0000
0000
0000
0000
0000
0010
0000
0000
,
0000
1000
0001
0010
0100
0001
0100
1000
,
0010
0010
0010
0010
,
0100
0001
0100
0001
1000
0000
0010
0000
0000
0000
1001
0000
1001
0000
0000
0000
,
1100
0000
0101
0000
0001
1000
0100
0001
,
0100
1000
0010
0001
0010
0100
0010
0100
,
0101
2200
0000
3300
,
0000
0000
0220
0000
0000
0330
0001
1000
,
0001
0000
0000
0010
0100
0000
1000
0000
0001
0000
1000
0000
0010
0000
0100
0000
,
0001
0000
0010
0001
0100
0000
0010
1000
0100
0010
0100
0010
0100
0000
1000
0000
,
0001
0010
1000
0010
0100
1000
0010
0100
,
0101
0000
0000
0000
1100
0000
0000
0000
1000
0100
0010
0001
1000
0010
0100
0001
,
1000
0000
0100
1000
0010
0000
0100
0000
0001
0000
0010
0000
0100
0000
0010
0000
,
0011
0000
0001
1000
0010
0000
0100
0000
0101
0000
0100
0000
1010
0000
0010
0000
,
1000
0100
0010
0100
0001
0100
0010
0100
,
1000
0000
0001
0100
0010
0000
1000
0000
0001
0010
0001
0010
0100
1000
0100
1000
,
0010
0000
0100
0001
0010
0000
0100
0000
1000
0000
0010
0000
1000
0000
0100
0000
,
0010
0001
1000
0001
0100
0000
0010
0000
1000
0000
0100
0000
0100
0000
0100
0000
,
0010
0001
1000
0001
0100
0000
0010
0000
1000
0100
0010
0001
0100
0010
1000
0001
,
1000
0000
0000
0100
0000
0000
0010
0000
0000
0100
0000
0000
1000
0000
0000
0000
0000
0000
0010
0000
0000
0000
0000
0000
0100
0000
0000
0000
0000
0000
0001
0000
1000
0000
0001
0000
1000
0000
0000
0000
0000
0000
0100
0000
0000
0010
0000
0000
,
0001
0000
0100
0000
0001
0000
0010
0000
0100
0000
1000
0001
0100
0000
0010
1000
,
0001
1000
0100
0010
0001
0100
0010
1000
0001
0010
0100
1000
0010
0000
1000
0001
,
1000
0000
0000
0100
0010
0000
0001
0000
0100
0000
0100
0000
0010
0000
0010
0000
,
0110
0000
0000
0001
1000
0000
0100
0000
0010
0000
0100
0000
0110
0000
0000
0000
,
2002
0000
0000
0000
,
0000
0000
0000
0000
,
3003
0000
0000
0000
;

//--------------- dance-double - forcednature ----------------
#NOTEDATA:;
#STEPSTYPE:dance-double;
#DESCRIPTION:forcednature;
#CREDIT:forcednature;
#DIFFICULTY:Easy;
#METER:9;
#RADARVALUES:0,0,0,0,0;
#NOTES:
00000000
00000000
00000000
00000000
,
00000000
00000000
00000000
00000000
,
00000000
00000000
00000000
00000000
,
00001000
00010000
00000100
00010000
,
00001000
00100000
00001000
00000000
,
00010000
00000010
00010000
00001000
,
01000000
00001000
00010000
00000000
,
00011000
00000000
00001000
00100000
,
00010000
00100000
01000000
00000000
,
20020000
30030000
00000000
00000000
,
10000000
10000000
00010000
00000000
,
10010000
00000000
00010000
00000000
,
01000000
00010000
01000000
00001000
,
00010000
00000000
00001000
00000000
,
00020000
00000000
00000000
00002000
00000000
00000000
00033000
00000000
,
00001000
00000000
00010000
00000000
,
00000100
00001000
00000100
00000010
,
00000001
00000000
00000000
00000001
,
00000100
00000100
00000020
00000030
,
00001001
00000000
00001000
00000000
,
00000100
00010000
00001000
00000000
,
01000000
00010000
01000000
00100000
,
20000000
00000000
00000000
00020000
00000000
00000000
30030000
00000000
,
00010000
00000000
00100000
00000000
,
00010000
01000000
00001000
00000000
,
00011000
00000000
00011000
00000000
,
00011000
00000000
00011000
00000000
,
00000100
00001000
00000100
00000000
00010000
00000000
00000000
00000000
,
00001000
01000000
00001000
00000000
00010000
00000000
00000000
00000000
,
00000010
00000010
00000010
00000010
,
00001000
00000001
00000010
00000000
,
00000100
00001000
00000100
00000000
00010000
00000000
00000000
00000000
,
00001000
00010000
00001000
00000000
01000000
00000000
00000000
00000000
,
00100000
00100000
10000000
10000000
,
00010000
10000000
00010000
10000000
00010000
00000000
00000000
00000000
,
00100000
01000000
00100000
00001000
,
00010000
00000010
00001000
00000010
,
00000100
00000001
00000010
00000001
,
00000100
00000100
00000010
00002002
,
00003003
00001000
00000000
00001000
,
00000000
00000100
00000000
00000100
,
00000000
00010000
00000000
00010000
,
00001000
01000000
00010000
01000000
,
20020000
00000000
00000000
00000000
,
00000000
00000000
30030000
00000000
,
10000000
00000000
00000000
00000000
,
00010000
00000000
00000000
00000000
,
00100000
00000000
00000000
00000000
,
00001000
00000000
00000000
00000000
,
00011000
00000000
00000000
00000000
,
00000010
00000000
00000000
00000000
00000000
00000100
00000000
00000000
,
00001001
00000000
00000000
00000000
,
00010000
00010000
00010000
00000000
,
00001000
00010000
00000000
00010000
,
00001000
01000000
00000000
01000000
,
00010000
10000000
00010000
10000000
,
01000000
00100000
00100000
00000000
,
00100000
00010000
00100000
00001000
,
00010000
00000000
00000010
00000000
00001000
00000010
00001000
00000000
,
00000010
00000100
00000001
00000100
,
00000001
00000000
00001000
00000000
00000100
00001000
00000100
00001000
,
00000100
00000000
00010000
00001000
,
01000000
00001000
00010000
00000000
,
00100000
00100000
10000000
10000000
,
00100000
10000000
00010000
00000000
,
10010000
00000000
10000000
01000000
,
00100000
00010000
00100000
00000000
00001000
00000000
00010000
00000000
,
00001000
00000000
00010000
00000010
,
00001000
00000000
00001000
00000000
00000100
00001000
00000100
00000000
,
00000010
00000010
00000001
00000001
,
00001000
00000000
00000001
00000000
00000100
00000001
00000100
00000000
,
00000010
00000010
00001000
00001000
,
00000010
00000000
00000010
00000000
00010000
00001000
00010000
00000000
,
00001000
00001000
00001000
00100000
,
00010000
10000000
00010000
00000000
01000000
00000000
00000000
00000000
,
00200000
00000000
00300000
00000000
,
20000000
00000000
30000000
00000000
,
02000000
00000000
00000000
00000000
03100000
00000000
00000000
00010000
,
00000000
00100000
00001000
00000000
,
00020000
00000000
00000000
00000000
00030010
00000000
00000000
00001000
,
00000000
00000010
00000100
00000000
,
00000001
00000001
00000001
00000001
,
00000001
00000000
00000000
00001000
00000000
00001000
00000001
00000000
,
00001000
00000100
00010000
00001000
,
01000000
00010000
10000000
00010000
,
00200000
00000000
00000000
00300000
,
00000000
00000000
00000000
00000000
,
01000000
10000000
01000000
00100000
,
00010000
00000000
00100000
00000000
00001000
00010000
00001000
00000000
,
00010000
00000010
00001000
00000010
,
00000100
00000000
00000001
00000000
00001000
00000001
00001000
00000000
,
00000001
00000010
00000100
00000010
,
00000100
00000000
00001000
00000000
00000100
00010000
00000100
00000000
,
00010000
00001000
01000000
00010000
,
01000000
00000000
00100000
00000000
10000000
00100000
10000000
00000000
,
00010000
10000000
01000000
00100000
,
01000000
00100000
00001000
00010000
,
00000010
00001000
00000010
00000100
,
00000001
00000000
00001000
00000000
00000100
00001000
00000100
00000000
,
00000010
00000001
00001000
00000001
,
00000100
00000010
00001000
00000010
,
00010000
00000000
00001000
00000000
00100000
00010000
00100000
00000000
,
00001000
00000000
00010000
00000000
00000010
00001000
00000010
00000000
,
00000200
00000000
00000000
00000000
,
00000000
00000000
00000000
00000000
,
00000300
00000000
00000000
00000000
;

//--------------- dance-double - forcednature ----------------
#NOTEDATA:;
#STEPSTYPE:dance-double;
#DESCRIPTION:forcednature;
#CREDIT:forcednature;
#DIFFICULTY:Medium;
#METER:13;
#RADARVALUES:0,0,0,0,0;
#NOTES:
00000000
00000000
00000000
00000000
,
00000000
00000000
00000000
00000000
,
00000000
00000000
00000000
00000000
00000000
00000000
00001000
00010000
,
01000000
10000000
00010000
00000000
01000000
00001000
00010000
00000000
,
00000100
00001000
00000100
00000010
00000001
00000100
00000010
00000000
,
00010000
00001000
00100000
00000000
00001000
00010000
00000010
00000000
,
00000100
00001000
00010000
00100000
10000000
00010000
10000000
00000000
,
01000000
00010000
00001000
00000000
00000010
00001000
00010000
00000000
,
00000100
00001000
00000010
00000100
00001000
00010000
00001000
00000000
,
02000000
00000000
00000000
03000000
,
00100000
10000000
01000000
00100000
00010000
01000000
00001000
00000000
,
00011000
00000000
00010100
00000000
00000100
00001000
00000010
00000000
,
00000100
00000000
00001000
00000000
00000100
00000001
00000010
00000100
,
00001000
00000000
00001010
00000000
00000010
00010000
00001000
00000000
,
00100000
00000000
01000000
10000000
00000000
01000000
00010000
00000000
,
00001000
00000000
00011000
00000000
00010000
00000100
00001000
00000000
,
00000010
00000000
00010000
00000000
00001000
00000010
00000001
00000000
,
00001001
00000000
00000001
00000100
00000000
00001000
00010000
00000000
,
00100000
00010000
00100000
10000000
00010000
10000000
01000000
00000000
,
01100000
00000000
10010000
00000000
10000000
00010000
01000000
00000000
,
00001000
00000000
00010000
00000100
00001000
00001000
00000001
00000001
,
00000100
00000110
00000010
00001001
,
00000001
00000100
00000010
00001000
00000000
00010000
01000000
00000000
,
00100000
00000000
10010000
00000000
10000000
01000000
00010000
00000000
,
00001000
00000100
00000001
00000000
00000010
00000100
00001000
00000000
,
00001001
00000000
00000000
00001000
00000100
00001000
00000100
00000000
00000000
00010000
00001000
00010000
,
00001000
00000000
00000000
01000000
00010000
01000000
00010000
00000000
00000000
00000000
00000000
00000000
,
00100000
00100000
00100000
00100000
00100000
00000000
00000000
00000000
,
00001000
00001000
00001000
00001000
00001000
00000000
00000000
00000000
,
00010100
00010100
01001000
01001000
,
00001000
00010000
00001000
00010000
00001000
00000000
00000000
00000000
,
00010000
00010000
00010000
00010000
00010000
00000000
00000000
00000000
,
00000100
00000100
00000100
00000100
00000100
00000000
00000000
00000000
,
00101000
00101000
00010010
00010010
,
00010000
00001000
00010000
00001000
00100000
00001000
00100000
00000000
,
00010000
10000000
00000000
00010000
10000000
00000000
00000000
00000000
11000000
00000000
00000000
00000000
00110000
00000000
00000000
00000000
,
00001000
00010000
00001000
00000100
00000001
00000000
00001001
00000000
,
00000001
00000010
00001000
00000000
00010000
00100000
10000000
00000000
,
01000000
00010000
00001000
00010000
00000010
00010000
00002000
00000000
,
00013000
00000100
00010000
00001000
,
01000000
00000000
00001000
00000000
00100000
00000000
01000000
01000000
,
10000000
00010000
01000000
00001000
,
00010000
00000100
00001000
00000100
00000010
00000001
00001000
00000001
,
00000200
00000000
00000000
00000000
,
00000000
00000000
00000300
00000000
,
00000010
00010000
00001000
01000000
,
00100000
10000000
01000000
00100000
,
00001000
00010000
00000010
00000100
,
00001000
00000100
00000001
00000000
,
00002002
00000000
00000000
00003003
,
00020200
00000000
00000000
00000000
00000000
00000000
00030300
00000000
00000000
00000000
02002000
00000000
00000000
03003000
00000000
00000000
,
20020000
00000000
00000000
30030000
,
11000000
00000000
11000000
00000000
10000000
01000000
00010000
00001000
,
00010000
00010100
00010000
00010100
,
00001000
00000000
01001000
00000000
00001000
00010000
00100000
00010000
,
00001000
00010000
00001000
00010000
00000100
00010000
00000100
00010000
,
00000010
00010000
00001000
00010000
00000100
00000000
00000010
00000001
,
00000100
00000010
00010000
00000000
00001000
00100000
01000000
00000000
,
00100000
00010000
10000000
00100000
10000000
00010000
00100000
00000000
,
01000000
00010000
00001000
00000000
00000100
00001000
00010000
00000000
,
00000100
00001000
00000100
00001000
00000001
00000100
00000010
00001000
,
00000020
00000000
00000030
00000010
00010000
00000000
00001000
01000000
,
00100000
10000000
00010000
10000000
01000000
00100000
00010000
00000000
,
00110000
00101000
00010010
00001010
,
00010100
01001000
00022000
00033000
,
00001000
01000000
00010000
00000000
10000000
01000000
00100000
00000000
,
00001000
00010000
00000100
00010000
00001000
00100000
00010000
00000000
,
01000000
00000000
00001000
00000000
00010000
00000100
00001000
00000100
,
00000010
00000000
00000110
00000000
00000001
00001000
00000001
00000000
,
00000100
00001000
00010000
00000000
00100000
10000000
00010000
00000000
,
10000000
01000000
00100000
00010000
01000000
00001000
01000000
00001000
,
00010000
00000000
00000100
00000000
00001000
00000001
00000100
00000001
,
00000010
00000000
00000000
00000001
00000000
00000000
00000100
00000000
00000010
00000000
00010000
00000000
00000100
00000000
00010000
00000000
,
00001000
01000000
00001000
01000000
00010000
10000000
00010000
10000000
,
01000000
00010000
00001000
00000010
00000001
00000000
00000000
00000000
,
00000202
00000000
00000303
00000000
,
00022000
00000000
00033000
00000000
,
20000000
00000000
00000000
00000000
31000000
00000000
00000000
00100000
,
00000000
00100000
00001000
00010000
00001000
00000000
00000100
00000000
,
00000002
00000000
00000000
00000003
00000010
00000100
00000000
00010000
,
00000000
00001000
01000000
00000000
00100000
10000000
01000000
00000000
,
00100000
00100000
00100000
00100000
,
00001000
00010000
00000000
00010100
00000000
00000100
00000010
00000000
,
00000011
00000000
00001100
00000000
00010000
00001000
00000000
01000000
,
00000000
00100000
10000000
01000000
00100000
00010000
00100000
00010000
,
02000000
00020000
00000000
03030000
,
00000000
00000000
00000000
00000000
00000000
00000000
00001000
00010000
,
00001000
00000000
00000100
00000001
00000010
00000100
00000010
00000000
,
00000100
00010000
00001000
01000000
00001000
00010000
00001000
00000000
,
00100000
00010000
01000000
00000000
00100000
10000000
01000000
00000000
,
01100000
00000000
01100000
00000000
10000000
01000000
00010000
00000000
,
00011000
00000000
00000100
00001000
00000010
00000100
00000001
00000000
,
00000010
00000100
00000010
00000100
00001000
00000001
00001000
00000000
,
00000010
00000100
00001000
00010000
00000100
00000000
00010000
00001000
,
01000000
00000000
00000000
01000000
00000000
00000000
00100000
00000000
10000000
00000000
01000000
00000000
00100000
00000000
00010000
00000000
,
01000000
00001000
00010000
00000000
00000100
00010000
00001000
00000000
,
00100000
00001000
00010000
00000100
00010000
00001000
00100000
00000000
,
00010000
01000000
00001000
00000000
00010000
00000010
00001000
00000000
,
00000100
00001000
00000010
00000100
00000001
00000010
00000100
00000000
,
00000010
00000001
00000100
00000000
00000010
00010000
00001000
00000000
,
00100000
00001000
00010000
00100000
10000000
00010000
10000000
00000000
,
01000000
00000000
00000000
00010000
00000000
00000000
00001000
00000000
00000010
00000000
00000001
00000000
00001000
00000000
00000001
00000000
,
00000100
00000000
00000000
00001000
00000000
00000000
00010000
00000000
00100000
00000000
10000000
00000000
01000000
00000000
00000000
00000000
,
00022000
00000000
00000000
00000000
,
00000000
00000000
00000000
00000000
,
00033000
00000000
00000000
00000000
;

//--------------- dance-double - forcednature ----------------
#NOTEDATA:;
#STEPSTYPE:dance-double;
#DESCRIPTION:forcednature;
#CREDIT:forcednature;
#DIFFICULTY:Hard;
#METER:16;
#RADARVALUES:0,0,0,0,0;
#NOTES:
00000000
00000000
00000000
00000000
,
00000000
00000000
00000000
00000000
,
00000000
00000000
00000000
00000000
00000000
00000000
00010000
00001000
,
00000100
00000010
00001000
00000100
00000010
00000001
00000100
00000010
,
00010000
00001000
00100000
10000000
00100000
01000000
00100000
01000000
,
10000000
00010000
01000000
10000000
01000000
00010000
00100000
00001000
,
00010000
00100000
00010000
00001000
00000010
00000100
00000010
00000100
,
00001000
00000001
00000100
00001000
00010000
00100000
10000000
00010000
,
10000000
00000000
01000000
00000000
00010000
00000000
00001000
00000000
00010000
00001000
00010000
00001000
00010000
00000000
00000000
00000000
,
00000200
00000000
00000000
00000000
,
00000010
00000010
00000010
00000010
00000310
00000100
00000100
00000000
,
00001010
00000000
00000001
00001000
00000100
00000010
00000100
00000000
,
00010000
00001000
00010000
00100000
01000000
10000000
01000000
00010000
,
00100000
00011000
00000010
00011000
,
00000100
00010000
00001000
01000000
00000000
00100000
10000000
01000000
,
10000000
00000000
10010000
00000000
10000000
01000000
00010000
00000000
,
00001000
00010000
00001000
00010000
00000000
00000100
00001000
00000010
,
00001000
00000000
00001001
00000000
00000001
00000100
00001000
00000100
,
00000010
00010000
00001000
00000010
00001000
00010000
00100000
01000000
,
00010000
00000000
10010000
00000000
10000000
01000000
00010000
00001000
,
00000000
00010000
00000100
00000010
00000001
00000100
00001000
00000100
,
00000010
00000110
00001000
00001001
,
00000001
00000000
00000100
00000000
00000010
00000000
00001000
00000000
00000100
00000000
00010000
00000000
00001000
00100000
00001000
00000000
,
00010000
00000010
00010000
00001000
01000000
00100000
10000000
00010000
,
10000000
01000000
00010000
00001000
00000100
00000001
00000010
00000100
,
00001000
00000000
00000000
00000100
00010000
00001000
01000000
00000000
00000000
00010000
10000000
00100000
,
01000000
00000000
00000000
00010000
00100000
00001000
00020000
00000000
00000000
00030000
00000000
00000000
,
00000100
00010000
00000100
00010000
00001000
00010000
00001000
00010000
00000100
00000000
00000000
00000000
00000000
00000000
00000000
00000000
,
01000000
00001000
01000000
00001000
00010000
00001000
00010000
00001000
01000000
00000000
00000000
00000000
00000000
00000000
00000000
00000000
,
00101000
00010010
01001000
00010100
,
00010000
00001000
00010000
01000000
00100000
00000000
00000000
00000000
,
00000010
00010000
00000010
00010000
00001000
00010000
00001000
00010000
00000010
00000000
00000000
00000000
00000000
00000000
00000000
00000000
,
00100000
00001000
00100000
00001000
00010000
00001000
00010000
00001000
00100000
00000000
00000000
00000000
00000000
00000000
00000000
00000000
,
01001000
00011000
00010100
00011000
,
00010000
00000000
00001000
00000000
00000010
00000000
00000100
00000000
00001000
00000001
00001000
00000001
00001000
00000000
00000000
00000000
,
00000010
00010000
00000000
00000010
00010000
00000000
00001000
00000000
01000000
00000000
00000000
00000000
01100000
00000000
00000000
00000000
,
00100000
00000000
10000000
01000000
00100000
00000000
01000000
10000000
00010000
00000000
00000000
00000000
01010000
00000000
00000000
00000000
,
00001000
01000000
00010000
00100000
01000000
00010000
00001000
00000010
,
00000100
00001000
00000100
00000001
00000100
00001000
00002002
00000000
,
00003003
00000001
00000100
00001000
,
00010000
00000000
01000000
00000000
10000000
00000000
00100000
00100000
,
10000000
01000000
00010000
00001000
,
00000010
00000100
00001000
00000001
00000100
00001000
00010000
00100000
,
02000000
00000000
00000000
00000000
,
00000000
00000000
03000000
00000000
,
00100000
10000000
01000000
00010000
,
00001000
00000000
00000010
00000001
,
00000100
00000000
00000010
00010000
,
01000000
00010000
00001000
00000000
,
00020200
00000000
00000000
00030300
,
02002000
00000000
00000000
00000000
00000000
00000000
03003000
00000000
00000000
00000000
00022000
00000000
00000000
00033000
00000000
00000000
,
00220000
00000000
00000000
00330000
,
01010000
00000000
01010000
00000000
10000000
01000000
00010000
00001000
,
00010000
00010100
00010000
00010100
,
00000010
00000000
00000110
00000000
00000001
00000100
00001000
00000000
,
00010000
00001000
00010000
01000000
00100000
00010000
10000000
00100000
,
00010000
00000000
00100000
00000000
01000000
00000000
00001000
00000000
00010000
00001000
00010000
00001000
00010000
00000000
00000100
00000000
,
00001000
00000010
00000001
00000010
00000100
00000001
00000010
00000000
,
00000100
00010000
00001000
00000100
00001000
00010000
01000000
00000000
,
00100000
10000000
00100000
00010000
10000000
00100000
01000000
00000000
,
10000000
01000000
00010000
00100000
00001000
00010000
00100000
00010000
,
00011000
00000000
00000100
00001000
00000010
00001000
00000100
00000010
,
00000000
00000001
00000100
00001000
00020000
00000000
00030000
00000000
,
00010100
00010100
01001000
01001000
,
00001000
00010000
00001000
00010000
00011000
00000000
00010000
00000100
,
00001000
00000001
00001000
00000010
00010000
00001000
00100000
00000000
,
01000000
00010000
01000000
10000000
00010000
01000000
10000000
10000000
,
01000000
00100000
10000000
01000000
00010000
00001000
00000010
00000000
,
00000110
00000000
00000000
00000000
00000110
00000000
00000000
00000000
00000001
00001000
00000001
00001000
00000200
00000000
00000000
00000000
,
00000301
00000100
00001000
00000010
00000100
00001000
00010000
00000000
,
00100000
10000000
01000000
00010000
00001000
00000010
00000001
00000000
,
00000100
00001000
00010000
00001000
00100000
00001000
00010000
00001000
,
00000010
00000000
00000000
00000010
00000100
00000000
00001000
00000000
00000001
00000000
00000100
00000000
00001000
00000000
00010000
00000000
,
00100000
01000000
10000000
01000000
00100000
01000000
00010000
01000000
,
00001000
00010000
00001000
00010000
00001000
00010000
00001000
00010000
00001000
00000000
00000000
00000000
00010000
00000000
00000100
00000000
,
00000020
00000000
00000000
00000000
00000030
00000000
00001000
01000000
,
00200000
00000000
00000000
00000000
00300000
00000000
10000000
01000000
,
00020000
00000000
00000000
00031000
00010000
00001000
00000000
00000010
,
00000000
00000001
00000100
00001000
00010000
00000000
00100000
10000000
,
02000000
00000000
00000000
03100000
00001000
00010000
00000000
00100000
,
00000000
00010000
00001000
00000010
00000100
00001000
00000001
00000000
,
00000100
00000100
00000100
00000100
,
00000001
00001000
00000001
00001000
00000001
00000000
00000100
00000000
00000000
00000000
00000010
00000000
00000110
00000000
00000000
00000000
,
00010010
00000000
01001000
00000000
00010000
10000000
00000000
01100000
,
00000000
10000000
01000000
00010000
00001000
00000010
00001000
00000010
,
00000002
00002000
00000000
00003003
,
00000000
00000000
00000000
00000000
00000000
00000000
00000001
00000100
,
00000010
00000000
00010000
00001000
00000000
00000000
00100000
00000000
00010000
00000000
00100000
00000000
10000000
00000000
00100000
00000000
,
01000000
10000000
00100000
01000000
10000000
01000000
00010000
00100000
,
00001000
00010000
00100000
00010000
00001000
00000010
00000100
00000000
,
00000110
00000000
00000000
00000000
00001001
00000000
00000000
00000000
00000001
00000100
00000001
00000100
00000010
00000000
00000010
00000000
,
00010000
00001000
00000010
00001000
00010000
00001000
01000000
00100000
,
10000000
00010000
10000000
01000000
00010000
00010000
00001000
00001000
,
00000010
00000100
00001000
00000001
00000100
00001000
00010000
01000000
,
00100000
00000000
00000000
00100000
00010000
00000000
10000000
00000000
00100000
10000000
00100000
10000000
00100000
10000000
00100000
10000000
,
00100000
01000000
00010000
00100000
01000000
00010000
00001000
00000000
,
00000010
00000001
00000100
00001000
00000100
00000001
00000010
00001000
,
00000010
00000100
00010000
00001000
01000000
00100000
00010000
00100000
,
10000000
00000000
01000000
00000000
00010000
00000000
00001000
00000000
01000000
00000000
00010000
00100000
00001000
00000000
00010000
00000010
,
00001000
00000100
00000001
00000100
00001000
00000010
00000100
00001000
,
00010000
00000000
01000000
00000000
00100000
00000000
01000000
00000000
10000000
00010000
10000000
00010000
10000000
00000000
01000000
00100000
,
00010000
00000000
00000000
00010000
01000000
00000000
00001000
00000000
00010000
00000000
00000100
00000000
00000010
00000000
00001000
00000000
,
00000010
00000000
00000000
00000010
00000001
00000000
00000100
00000000
00001000
00000000
00010000
00000000
01000000
00000000
00000000
00000000
,
02200000
00000000
00000000
00000000
,
00000000
00000000
00000000
00000000
,
03300000
00000000
00000000
00000000
;

//--------------- dance-double - forcednature ----------------
#NOTEDATA:;
#STEPSTYPE:dance-double;
#DESCRIPTION:forcednature;
#CREDIT:forcednature;
#DIFFICULTY:Challenge;
#METER:17;
#RADARVALUES:0,0,0,0,0;
#NOTES:
00000000
00000000
00000000
00000000
,
00000000
00000000
00000000
00000000
,
00000000
00000000
00000000
00000000
00000000
00000000
00001000
01000000
,
00010000
00000000
10000000
01000000
10000000
00000000
00010000
00000000
01000000
00000000
00001000
00010000
00001000
00000000
00100000
00000000
,
00010000
00000000
01000000
00001000
01000000
00000000
00100000
00000000
00010000
00000000
00001000
00000000
00001000
00000000
00001000
00000000
,
00000010
00000000
00000100
00001000
00000100
00000000
00000010
00000000
00000001
00000000
00001000
00000000
00000010
00000000
00000001
00000000
,
00000010
00000000
00000100
00000001
00000100
00000000
00001000
00000000
00010000
00000000
00001000
00010000
00001000
00000000
00001000
00000000
,
00100000
00000000
01000000
10000000
01000000
00000000
00100000
00000000
00010000
00000000
00100000
00000000
01000000
00000000
00010000
00000000
,
00001000
00000000
01000000
00010000
01000000
00000000
00100000
00000000
00010000
00001000
00010000
00001000
00010000
00000000
00000100
00000000
,
00000020
00000000
00000000
00000030
,
00000001
00000000
00000100
00000010
00001000
00000000
00010000
00000000
01000000
00000000
00100000
00000000
01100000
00000000
00000000
00000000
,
10000000
01000000
00010000
01000000
00100000
00001000
00010000
00000010
,
00000100
00001000
00000100
00000001
00000010
00000100
00001000
00001000
,
00001100
00000101
00000011
00001010
,
00011000
00000000
00000000
00000000
00000000
00000000
01010000
00000000
00000000
00000000
10000000
00000000
01000000
00100000
01000000
00000000
,
00010000
00001000
01000000
00010000
00100000
00001000
00000000
00010000
,
00100000
00010000
00001000
00000010
00001000
00010000
00000100
00000100
,
00000010
00000000
00001001
00000000
00000001
00000100
00001000
00001000
,
00011000
00000000
00000000
00000000
00100000
00000000
00010000
00000000
01000000
00000000
00100000
10000000
00100000
01000000
00100000
10000000
,
00100000
01000000
00100000
00010000
00001000
00001000
00100000
00010000
,
01000000
00001000
00010000
00000100
00000010
00000010
00001000
00000010
,
00000001
00000000
00001001
00000000
00000001
00000100
00001000
00010000
,
00100000
00000000
10000000
00000000
01000000
00100000
01000000
00000000
00010000
00000000
00010000
00000000
00001000
00010000
00001000
00010000
,
00001000
00000010
00000100
00000010
00000001
00000010
00000000
00000100
,
00000001
00000100
00001000
00000010
00010000
00010000
00001000
00001000
,
00011000
00000000
00000000
01000000
00001000
00100000
00001000
00000000
00000000
00010000
00000100
00010000
,
00000010
00000000
00000000
00010000
00001000
00010000
00001000
00000000
00000000
00000000
00000000
00000000
,
01000000
00010000
01000000
00100000
01000000
00010000
01000000
00001000
00010000
00000000
00000000
00000000
00000000
00000000
00000000
00000000
,
00000100
00001000
00000100
00000010
00000100
00001000
00000100
00010000
00001000
00000000
00000000
00000000
00000000
00000000
00000000
00000000
,
01001000
01001000
00010100
00010100
,
00010000
00000000
00001000
00000000
00000100
00000000
00001000
00000000
00010000
00001000
00010000
00001000
00010000
00000000
00001000
00000000
,
01000000
00001000
00100000
00010000
01000000
00001000
00100000
00010000
01000000
00000000
00000000
00000000
00000000
00000000
00000000
00000000
,
00000100
00001000
00000010
00010000
00000100
00001000
00000010
00010000
00000100
00000000
00000000
00000000
00000000
00000000
00000000
00000000
,
00010010
00101000
00010100
01001000
,
00010000
00000000
00010000
00000000
00001000
00000000
00001000
00000000
00010000
00001000
00010000
00001000
00010000
00001000
00010000
00001000
,
00010000
00000100
00000000
00001000
00000100
00000000
00000010
00000000
00000011
00000000
00000000
00000000
00001100
00000000
00000000
00000000
,
00000001
00000000
00000100
00000010
00001000
00000000
00000010
00010000
00001000
00000000
00000000
00000000
00011000
00000000
00000000
00000000
,
01000000
00010000
01000000
10000000
01000000
00100000
10000000
01000000
,
00010000
00001000
00000100
00000001
00000010
00000100
00000110
00000000
,
00000001
00001001
00010000
10010000
,
10000000
00000000
10010000
00000000
00001000
00000000
00001001
00000001
,
00000001
00001001
00010000
10010000
,
10000000
00000000
01000000
00000000
00100000
00010000
00100000
00001000
00010000
00001000
00010000
00001000
00010000
00001000
00010000
00001000
,
00020000
00000000
00000000
00000000
,
00000000
00000000
00000000
00000000
,
00030100
00001000
00000001
00000100
,
00001000
00010000
01000000
10000000
,
00010000
01000000
00100000
10000000
,
00020000
01000000
10000000
00130000
,
00022000
00000000
00000000
00033000
,
00002200
00000000
00000000
00000000
00000000
00000000
00003300
00000000
00000000
00000000
02020000
00000000
00000000
03030000
00000000
00000000
,
00022000
00000000
00000000
00033000
,
00001100
00000000
00000000
00000000
00000011
00000000
00000000
00000000
00000001
00000000
00000100
00000010
00000100
00000010
00000100
00000010
,
00001000
00001100
00010000
00011000
,
01000000
00000000
00010000
10000000
01000000
00000000
00100000
00000000
00001000
00010000
00001000
00010000
00001000
00010000
00001000
00010000
,
00000100
00010000
00001000
01000000
00100000
00010000
00100000
10000000
,
01000000
00100000
01000000
00100000
00010000
00100000
00001000
00010000
00001000
00010000
00001000
00010000
00001000
00010000
00000010
00001000
,
00000010
00000000
00000100
00000001
00001000
00000000
00000100
00000000
00000001
00000000
00000100
00000000
00000110
00000000
00000000
00000000
,
00000001
00000000
00000100
00000010
00001000
00000000
00000100
00000010
00000100
00000000
00010000
00000000
00010000
00000000
00010000
00000000
,
00001000
00000000
01000000
00010000
00100000
00000000
01000000
00000000
10000000
00000000
00000000
00000000
10010000
00000000
00000000
00000000
,
10000000
00000000
01000000
00100000
00010000
00000000
01000000
00000000
00001000
00000000
00001000
00000000
00010000
00000000
00010000
00000000
,
00011000
00000000
00000100
00010000
00001000
00000100
00000010
00001000
,
00000000
00000000
00000001
00000000
00000010
00000000
00001000
00000000
00010000
00000000
00001000
00000000
00000100
00010000
00000100
00010000
,
00001000
00100000
00010000
00100000
00000000
01000000
10000000
00000000
01000000
10000000
00000000
00000000
,
00100000
00000000
00100000
00000000
01000000
00000000
01000000
00000000
10010000
00000000
00000000
00000000
00010000
01000000
00010000
01000000
,
00001000
00000000
00010000
00000000
00000100
00000000
00000010
00000000
00001000
00000000
00000010
00000001
00001000
00000000
00000001
00000000
,
00000100
00000000
00001000
00010000
00001000
00000000
01000000
00000000
00100000
00000000
00100000
00000000
00100000
00000000
10000000
00000000
,
01000000
00000000
00010000
00000000
00001000
00000000
00000100
00000000
00000001
00001000
00000100
00000000
00001000
00000001
00000100
00000000
,
00000110
00000000
00000000
00000000
00000110
00000000
00000000
00000000
00001000
00000100
00001000
00000100
00010000
00001000
00010000
00001000
,
01000000
00000000
00000000
01000000
00010000
00000000
00100000
00000000
01000000
00000000
00010000
00000000
01000000
00000000
10000000
00000000
,
00100000
00000000
00000000
00100000
01000000
00000000
00001000
00000000
00010000
00000000
00011000
00000000
00001000
00000000
00011000
00000000
,
00010000
00000100
00000010
00001000
00000010
00000001
00000100
00000010
,
00000100
00000000
00000000
00000100
00001000
00000000
00010000
00000000
01000000
00000000
01000000
00000000
00100000
00000000
00100000
00000000
,
10000000
00100000
00001000
00010000
00100000
00001000
00000010
00001000
,
00000100
00001000
00000100
00000010
00000001
00001000
00000001
00000100
00000010
00000000
00000000
00000000
00010000
00000000
00001000
00000000
,
00100000
00010000
01000000
00010000
00100000
00010000
01000000
00010000
00100000
00000000
00000000
00000000
00001000
00000000
00010000
00000000
,
00000010
00001000
00000100
00001000
00000010
00001000
00000100
00001000
00000010
00000000
00000000
00000000
00010000
00000000
00001000
00000000
,
00100000
00000000
00010000
00000000
00100000
00000000
01000000
00000000
00000000
10000000
00000000
00000000
00100000
00000000
00000000
00010000
00000000
00000000
00100000
00000000
00000000
01000000
00000000
00000000
,
00000000
00001000
00010000
00000100
00010000
00000000
00001000
00000100
,
00000001
00000000
00001000
00000000
00000001
00000000
00000010
00000000
00000000
00000100
00000000
00000000
00000001
00000000
00000000
00000100
00000000
00000000
00000000
00000000
00000000
00010000
00000000
00000000
,
00000000
00001000
01000000
00100000
00010000
00100000
10000000
01000000
,
00100000
00100000
00100000
00100000
,
00001000
00010000
00001000
00010000
00000100
00000000
00000010
00000000
00000000
00000000
00000110
00000000
00000110
00000000
00000000
00000000
,
00001001
00000000
00010100
00000000
00010000
00001000
01000000
00010000
,
00100000
10000000
00100000
00010000
01000000
00001000
01000000
00001000
,
00011000
00020200
00000000
00030300
,
00000000
00000000
00002002
00000000
00000000
00003003
00000001
00000100
,
00001000
00000000
00000000
00001000
00010000
00000000
00100000
00000000
10000000
00000000
00010000
00000000
10000000
00000000
01000000
00000000
,
00100000
00000000
00001000
00010000
00000100
00000000
00001000
00000100
00000010
00000001
00000010
00000001
00000100
00000000
00000010
00000000
,
00000100
00001000
00010000
01000000
00100000
01000000
10000000
00010000
,
10010000
00000000
00000000
00000000
01100000
00000000
00000000
00000000
10000000
01000000
00100000
00010000
00100000
00001000
00010000
00000100
,
00001000
00000000
00000001
00000100
00000010
00000000
00010000
00000000
00001000
00000000
01000000
00000000
00100000
00000000
10000000
00000000
,
10010000
00000000
10000000
01000000
00100000
00000000
00010000
00000000
00110000
00000000
00101000
00000000
00011000
00000000
00010100
00000000
,
00000100
00001000
00000100
00000010
00000001
00000100
00000010
00000100
,
00001000
00000000
00010000
00001000
00100000
00000000
01000000
00000000
10000000
00010000
10000000
00010000
10000000
01000000
00100000
00010000
,
01000000
00000000
00001000
00010000
00000100
00000000
00000010
00000000
00001000
00000000
00000010
00000000
00000001
00000000
00000100
00000000
,
00000010
00010000
00001000
00010000
00000100
00000000
00010000
00000000
00001000
00000000
01000000
00000000
01000000
00000000
01000000
00000000
,
00100000
10000000
00010000
10000000
01000000
00000000
00100000
00000000
00001000
00010000
00001000
00010000
00000100
00001000
00000100
00000010
,
00000001
00000000
00000000
00000100
00000000
00000000
00000010
00000000
00000000
00001000
00000000
00000000
00000010
00000000
00000000
00000000
00000000
00000000
00010000
00000000
00000000
00000000
00000000
00000000
00001000
00000000
00000000
00000000
00000000
00000000
00100000
00000000
00010000
00000000
00100000
00000000
00010000
00000000
00000000
00000000
00000000
00000000
10000000
00000000
00000000
00100000
00000000
00000000
,
01000000
00000000
00010000
00000000
00100000
00000000
01000000
00000000
00010000
00000000
00001000
00100000
00010000
00000000
01000000
00001000
,
00010000
00001000
00010000
00000010
00001000
00000001
00000010
00000100
00000010
00000001
00001000
00000010
00010000
00000000
00001000
01000000
,
00010000
00000000
00000000
00010000
10000000
00000000
01000000
00000000
00010000
00000000
00010000
00000000
00001000
00000000
00001000
00000000
,
00011000
00000000
00000000
00000100
00001000
00000000
00000010
00000000
00000100
00000000
00001000
00000000
00011000
00000000
00000000
00000000
,
00200000
00000000
00000000
00000000
,
00000000
00000000
00000000
00000000
,
00300000
00000000
00000000
00000000
;
