#VERSION:0.83;
#TITLE:Zirkfied;
#SUBTITLE:;
#ARTIST:iconoclasm;
#TITLETRANSLIT:;
#SUBTITLETRANSLIT:;
#ARTISTTRANSLIT:;
#GENRE:SPACE REQUIEM;
#CREDIT:;
#MUSIC:Zirkfied.ogg;
#BANNER:Zirkfied.png;
#BACKGROUND:Zirkfied-bg.png;
#CDTITLE:./CDTitles/pnm 21 Sunny Park.png;
#SAMPLESTART:83.770;
#SAMPLELENGTH:15.000;
#SELECTABLE:YES;
#OFFSET:1.932;
#BPMS:0.000=105.000
,20.000=210.000
,201.000=105.000
,239.000=210.000
;
#STOPS:56.000=0.857
,323.000=0.571
;
#TIMESIGNATURES:56.000=1=4,
57.000=4=4,
233.000=2=4,
239.000=4=4,
323.000=2=4,
325.000=4=4
;
#BGCHANGES:0.000=../BGAs/14te.mp4=1.000=0=0=0=StretchNoLoop====,
99999.000=-nosongbg-=1.000=0=0=0=StretchNoLoop====
;
#FGCHANGES:;

//--------------- dance-single - forcednature ----------------
#NOTEDATA:;
#STEPSTYPE:dance-single;
#DESCRIPTION:forcednature;
#DIFFICULTY:Beginner;
#METER:5;
#RADARVALUES:0,0,0,0,0;
#CREDIT:forcednature;
#NOTES:
0000
0000
0000
0000
,
0000
0000
0000
0000
,
0000
0000
0000
0000
,
1000
0000
0000
0000
,
0001
0000
0000
0000
,
0100
0000
0000
0000
,
0100
0000
0000
0000
,
0010
0000
0010
0000
,
1000
0000
0001
0000
,
0010
0000
0000
0000
,
0010
0000
0000
0000
,
0100
0000
0100
0000
,
1000
0000
0001
0000
,
0200
0000
0000
0000
,
0310
1000
0000
0000
,
0000
1000
0000
0000
,
0000
0100
0000
0100
,
0000
0100
0000
0000
,
0000
1000
0000
0000
,
0000
0000
0000
0000
,
0000
0010
0000
0000
,
0000
0000
0000
0000
,
0000
0001
0000
0000
,
0000
0001
0000
0000
,
0000
0100
0000
0100
,
0000
0100
0000
0000
,
0000
0001
0000
0000
,
0000
0010
0000
0000
,
0000
0001
0000
0000
,
0000
1000
0000
0000
,
0000
1001
0000
0000
,
0000
0000
0000
0000
,
0000
0110
0000
0000
,
0000
0020
0000
0030
,
0000
1000
0000
1000
,
0000
1000
0000
0000
,
0000
0001
0000
0001
,
0000
0001
0000
0000
,
0000
0100
0000
0100
,
0000
0100
0000
0000
,
0000
0010
0000
0000
,
0000
0001
0001
1000
,
1000
0001
0000
0000
,
0000
1000
0000
0100
,
0000
0100
0000
0000
,
0000
1000
1000
1000
,
0000
0001
0000
0000
,
0000
0010
0000
0010
,
0000
0001
0000
0000
,
0000
0100
0000
0010
,
0000
2002
0000
0000
,
0000
0000
0000
0000
,
0000
0000
0000
0000
,
0000
3003
0000
0000
,
0000
1000
0000
0000
,
0000
0001
0000
0000
,
0000
0100
0000
0100
,
0000
0010
0000
0000
,
0000
1000
0000
0001
,
0000
0100
0000
1001
,
0000
0000
0000
0000
,
0000
0000
0000
0110
,
0000
0000
0000
0001
,
0000
0001
0000
0010
,
0000
0010
0000
0001
,
0000
0000
0000
1000
,
0000
0010
0000
1000
,
0000
0000
0000
0100
,
0000
1000
0000
0100
,
0000
0000
0000
1001
,
0000
0000
0000
1000
,
0000
1000
0000
0010
,
0000
0010
0000
1000
,
0000
0000
0000
0100
,
0000
1000
0000
0100
,
0000
0000
0000
0010
,
0000
0001
0000
0010
,
0000
0010
0000
2002
,
0000
0000
0000
0000
,
0000
0000
0000
0000
,
0000
0000
0000
3003
,
0000
1001
0000
0000
,
0000
1001
0000
0000
,
0000
0010
0000
1001
,
0000
0100
0000
1001
,
0000
1000
0000
1000
,
1000
1000
0000
0000
,
0000
0100
0000
1000
,
0000
0010
0000
1000
,
0000
0001
0000
0001
,
0001
0001
0000
0000
,
0000
0100
0000
0001
,
0000
0010
0000
0001
,
0000
0100
0100
0000
,
2002
0000
0000
0000
,
0000
0000
0000
0000
,
0000
3003
0000
0000
;

//--------------- dance-single - forcednature ----------------
#NOTEDATA:;
#STEPSTYPE:dance-single;
#DESCRIPTION:forcednature;
#DIFFICULTY:Easy;
#METER:9;
#RADARVALUES:0,0,0,0,0;
#CREDIT:forcednature;
#NOTES:
0000
0000
0000
0000
,
0000
0000
0000
0000
,
0000
0000
0000
0000
,
0002
0103
0002
1003
,
0020
0000
0130
0010
0200
0000
0301
0000
,
1001
0000
0000
0010
,
1001
0000
0000
0010
,
1001
0000
0110
0000
,
1001
0000
0110
0000
,
1001
0000
0000
0100
,
1001
0000
0000
0100
,
1001
0000
0110
0000
,
1001
0000
0110
0000
,
1000
0001
1000
0001
,
2002
3003
0000
1000
0000
0000
0100
0000
0000
0000
0000
0000
,
0100
1000
0001
0010
,
0001
1000
0010
0000
,
0100
0001
0100
0010
,
1000
0001
0010
0000
,
0100
0010
0100
1000
,
0010
0100
0001
0000
,
0001
1000
1000
0010
,
0100
1001
0000
0001
,
0010
0001
0000
1000
,
0100
1000
0010
0100
,
0001
0010
0100
1000
,
0000
1001
0000
0001
,
0100
0001
1000
0010
,
0000
1000
0100
0010
,
0001
0100
0010
1000
,
0001
2002
0000
0000
,
0000
0000
0000
0000
0000
0000
0000
3003
,
0000
0100
0020
0000
0000
0000
0000
0000
,
0030
2002
0000
0000
,
3003
0101
0000
1010
,
0000
0101
0000
1000
,
0100
1100
0000
0011
,
0000
1100
0000
0001
,
0010
0100
0100
1000
,
0001
0100
0100
0001
,
1000
0010
0010
0100
,
0100
1001
1001
1001
,
0000
0110
0000
0001
,
1000
0100
1000
0001
,
0010
0001
0000
1000
,
0010
1000
1000
0001
,
0001
0100
0000
0110
,
0000
0010
0000
1001
,
0000
1000
1000
0100
,
0100
0010
0001
1000
,
0100
1001
0000
0002
,
0203
0302
0003
2000
,
3020
2030
3000
0002
,
0023
0230
2300
3002
,
0103
0100
0020
0000
2030
0000
3002
0000
,
0003
0020
0032
2003
,
3000
0020
0230
0302
,
0023
0230
2300
3002
,
0103
0220
0330
2002
,
3003
0000
0000
0000
0000
0000
0220
0000
0000
0000
0000
0000
0330
0000
0000
0000
0000
0000
2000
3000
0000
0000
0001
0000
,
0000
1000
0000
0001
0000
1000
0000
0020
0000
0000
0000
0000
,
0000
0000
0000
0000
0030
0000
0100
0001
,
0200
0000
0000
0300
0010
0000
1000
0000
,
0001
0010
0000
0110
,
1000
0110
0001
1001
,
0100
1001
0010
1000
,
1000
0100
1001
0001
,
0001
0100
1001
1000
,
0010
0100
0001
0020
,
0000
0000
0031
0000
1000
0000
0010
0100
,
0020
0000
0000
0030
1000
0000
0001
0000
,
0010
0001
1000
1010
,
0001
0011
1000
1100
,
0001
0101
1000
0010
,
0010
0100
1001
0100
,
0100
0010
1001
1000
,
0100
0010
0001
0100
,
0110
0010
0110
2002
,
0000
0000
0000
0000
,
0000
0000
0000
0000
,
0000
0000
0000
3003
,
0000
1001
0000
0000
,
0100
1001
0000
0000
,
0010
1001
0100
0110
,
0010
1001
1000
0010
,
0010
0110
0001
1000
,
0100
1000
0001
0010
,
0010
0110
0001
1000
,
0010
1000
1000
0001
,
0100
0110
0010
1000
,
0001
0110
0010
0001
,
1000
0010
0010
0100
,
0100
0001
1001
1000
,
0000
0000
0000
0010
0000
0100
0010
0000
0100
0010
0000
0000
,
2002
0000
0000
0000
,
0000
0000
0000
0000
,
0000
3003
0000
0000
;

//--------------- dance-single - forcednature ----------------
#NOTEDATA:;
#STEPSTYPE:dance-single;
#DESCRIPTION:forcednature;
#DIFFICULTY:Medium;
#METER:14;
#RADARVALUES:0,0,0,0,0;
#CREDIT:forcednature;
#NOTES:
0000
0000
0000
0000
,
0000
0000
0000
0000
,
0000
0000
0000
0000
,
2000
3002
0023
0230
,
1300
0000
0001
0000
0100
0010
0100
0010
2000
0000
0000
0000
3001
0000
0000
0000
,
0011
0000
0000
1100
,
0011
0000
0000
1100
,
1010
0010
0101
0100
,
1001
0000
0110
0001
,
1010
0000
0000
0101
,
1010
0000
0000
0101
,
0011
0010
1100
0100
,
1001
0000
0110
0000
,
0001
0000
1000
0001
0000
1000
0001
0000
1000
0001
0000
1000
,
0020
0000
0030
0000
0000
0000
1000
0000
0000
0100
0000
0000
0010
0000
0000
0100
0000
0000
0000
0000
0000
1000
0000
0000
,
0001
0000
0010
0000
0001
0000
1000
0010
,
1000
0000
0001
0100
0010
0100
0000
0001
,
1000
0000
0010
0000
0100
0000
0010
1000
,
0010
0000
1000
0001
0010
0001
0000
1000
,
0100
0000
1000
0001
0100
0001
0000
1000
,
0010
0000
0100
0001
0100
0000
0010
1000
,
0010
0000
1100
0000
1000
0000
0001
0010
,
0100
0000
0010
0001
1000
0002
0000
0103
,
0010
0000
1000
0010
1000
0000
0001
0000
,
0010
0000
0100
1000
0100
0010
0000
0001
,
1000
0000
0010
1000
0010
0000
0100
0001
,
0100
0000
0010
1000
0100
2000
0000
3001
,
0010
0000
0010
0001
0100
0002
0000
1003
,
0010
0000
1000
0100
1000
0000
0100
0010
,
0100
0000
0010
0001
0100
0000
1000
0100
,
0001
2002
0000
0000
,
0000
0000
0000
0000
0000
0000
0000
3003
,
0000
0010
0220
0000
0000
0000
0000
0000
,
0330
2002
0000
0000
,
3003
1100
0001
0101
,
1000
1010
0001
0011
,
1000
0110
0001
0110
,
1000
1001
0010
1001
,
0110
0000
1001
0000
0001
0100
0010
0000
,
1000
0100
0010
0000
0001
1000
0010
0000
,
1000
0000
0000
0001
0000
0000
0010
0000
0000
0000
0100
0000
0010
0000
0000
0000
0100
0000
1000
0000
0000
0000
0010
0000
,
1000
0000
0010
0100
0000
0000
0110
0000
0000
1000
0001
1000
,
0001
0000
0000
1000
0000
0000
0010
0000
0010
0100
0000
0000
,
0001
0000
0001
0010
0000
0100
0010
0000
0100
1000
0000
0001
,
0010
0000
0001
1000
0000
0000
0010
0000
0010
0100
0000
0000
,
0001
0000
0001
1000
0000
0100
1000
0000
0100
0010
0000
0000
,
0001
0000
0000
0100
0000
0100
0001
0000
0000
1000
0000
1000
,
0010
0000
0000
1000
0000
1000
0100
0000
0000
0010
0000
0010
,
0001
0000
0000
1000
0000
0010
1000
0000
0010
0100
0000
0001
,
0100
0000
0000
0010
0000
0000
0010
0000
0000
1000
0001
1000
,
0001
1000
0001
2000
0000
0000
3020
0000
0000
0230
0000
0000
,
0302
2003
3200
0320
,
0032
2003
3010
0002
,
1003
0100
2000
3002
0023
0032
2003
3020
,
0130
0001
2000
0000
3100
1000
0002
0000
,
0000
0003
0200
0000
0310
1000
0002
0000
,
0000
0003
0020
0000
0130
1000
0020
0230
,
0302
0023
0031
0000
1000
0010
0100
0001
,
1000
0000
0000
0000
0100
1000
0100
1000
0100
1000
0000
0000
0001
0010
0001
0010
,
0001
0000
0000
0010
0000
0000
0000
0000
0000
0000
0000
0000
0001
0000
0000
1000
0000
0000
0001
0000
0000
1000
0000
0000
0001
0000
0000
1000
0000
0000
0000
0000
0000
0000
0000
0000
0020
0000
0030
0000
0000
0000
0000
0000
0010
0000
0000
0000
,
0000
0100
0000
0100
0000
0010
0000
2002
0000
0000
0000
0000
,
0000
0000
0000
0000
0000
0000
0000
0000
3003
0000
0000
0000
1000
0000
0100
1000
,
0200
0000
0000
0000
0000
0000
0000
0000
0000
0310
0000
0000
0100
0000
0000
0010
0000
0000
0001
0000
0000
0000
0100
0000
,
0001
0000
0000
0000
0000
0000
0000
0000
0100
0000
0000
0000
0010
0000
0000
0000
0000
0000
0000
0000
0010
0000
0000
0000
1000
0000
0000
0000
0000
0000
0000
0000
0000
0000
0000
0000
0001
0000
0000
0010
0000
0000
0000
0000
0000
0000
0000
0000
,
0010
0100
0000
0000
1000
0010
0000
0000
0010
0100
0000
0000
0001
0010
0000
0000
,
0001
1000
0000
0000
1000
0010
0000
0000
1000
0001
0000
0000
0001
0000
0100
0000
,
0100
0002
0000
1003
0020
0000
1030
0100
,
0100
2000
0000
3001
0020
0000
0031
0100
,
0020
0000
1030
0100
0010
0001
2000
0000
,
3010
0000
0100
0000
0001
0000
0001
0000
1000
0000
1000
0000
0001
0000
0010
0001
,
0020
0000
0000
0000
0000
0000
0000
0000
0000
0130
0000
0000
0010
0000
0000
0100
0000
0000
1000
0000
0000
0000
1000
0000
,
0010
0000
0000
0000
0000
0000
0000
0000
0010
0000
0000
0000
0100
0000
0000
0000
0000
0000
0000
0000
0100
0000
0000
0000
0001
0000
0000
0000
0000
0000
0000
0000
0000
0000
0000
0000
1000
0000
0000
0100
0000
0000
0000
0000
0000
0000
0000
0000
,
0100
0010
0000
0000
0001
0100
0000
0000
0100
0010
0000
0000
1000
0001
0000
0000
,
0001
0010
0000
0000
0001
1000
0000
0000
1000
0010
0000
0000
1000
0000
0100
0000
,
0002
0000
0103
1000
0001
0010
0002
0000
,
0103
0010
2000
0000
3002
0000
1003
1000
,
0100
1000
0001
0001
0010
0000
0110
0000
,
0110
0000
0000
0010
0100
0000
0000
0000
0110
0000
0000
0000
2002
0000
0000
0000
,
0000
0000
0000
0000
,
0000
0000
3003
0002
,
0203
0320
2030
3000
,
0000
0011
0000
0000
,
0101
1010
0000
0000
,
1100
1001
0010
1001
,
0100
0000
0000
0110
0000
0000
1001
0000
0000
0001
1000
0001
,
1000
0000
0000
0010
0000
0000
0100
0000
0100
0001
0000
0001
,
0010
0000
0000
0100
0000
1000
0100
0000
1000
0010
0000
0100
,
0001
0000
0000
0010
0000
0010
0001
0000
0001
0100
0000
0010
,
1000
0000
0000
0100
0000
0010
0100
0000
1000
0001
0000
0100
,
0010
0000
0000
1010
0000
1000
0001
0000
0001
0010
0000
0001
,
1000
0000
1000
0010
0000
0100
0002
0000
0000
0013
0000
0100
,
2000
0000
0000
3010
0100
0010
0100
0000
0000
0001
1000
0001
,
1000
0100
0010
0002
,
2003
0000
0000
3010
0100
0010
0100
0010
0100
0010
0000
0000
,
2002
0000
0000
0000
,
0000
0000
0000
0000
,
0000
3003
0000
0000
;

//--------------- dance-single - forcednature ----------------
#NOTEDATA:;
#STEPSTYPE:dance-single;
#DESCRIPTION:forcednature;
#DIFFICULTY:Hard;
#METER:17;
#RADARVALUES:0,0,0,0,0;
#CREDIT:forcednature;
#NOTES:
0000
0000
0000
0000
,
0000
0000
0000
0000
,
0000
0000
0000
0000
,
2000
3020
0230
0302
,
1003
0000
0100
0000
0010
0001
1000
0001
0200
0000
0000
0000
0310
0000
0000
0000
,
1001
0000
0000
0110
,
1001
0000
0000
0110
,
2001
3010
1002
0013
,
0110
0000
0000
0000
0000
0001
1000
0000
1000
0010
0000
0000
,
0110
0000
0000
1001
,
0110
0000
0000
1001
,
0012
0103
2010
3100
,
1001
0000
0000
0000
0000
1000
0100
0000
0000
0110
0000
0000
,
1000
0001
0010
0001
1000
0100
1000
0001
0010
0001
1000
0100
,
0020
0000
0030
0000
0000
0000
0001
0000
0000
0001
0000
0000
0100
0000
0000
0001
0000
0000
0000
0000
0000
1000
0000
0000
,
0010
0000
1000
1000
0100
0000
0010
0001
,
0010
0000
0100
1000
0002
0000
0203
0000
,
2300
0000
3100
0001
1000
0010
1000
1000
,
0001
0000
0010
0100
0001
0200
0000
1300
,
0001
1000
0010
0100
1000
0200
0000
0301
,
1000
0001
0020
0000
0130
1000
0020
0000
,
0130
0001
1000
1000
0100
1000
0001
0010
,
0110
0000
0100
1000
0010
1000
0000
0001
,
0100
1000
0100
0001
0010
0001
1000
1000
,
0010
0000
1000
0100
0002
0000
0203
0000
,
2300
0000
3001
0010
1000
0010
0001
1000
,
0100
0000
0010
0001
0100
2000
0000
3100
,
0001
1000
0010
1000
0100
0002
0000
0103
,
1000
0001
0020
0000
0031
0100
0020
0000
,
1030
0100
0110
0000
0010
0001
0100
0001
,
1000
2002
0000
0000
,
0000
0000
0000
0000
0000
0000
0000
3003
,
0000
0100
0220
0000
0000
0000
0000
0000
,
0330
0000
0001
1000
0001
0100
0001
0010
,
0100
1000
1100
0000
0010
0001
0011
0000
,
1000
0010
1010
0000
0001
0100
0101
0000
,
0010
0000
1001
0000
1000
0100
0110
0000
,
0001
0100
0110
0000
1000
0001
0011
0000
,
0110
0000
1100
0000
1000
0001
0010
0001
,
1000
0010
0110
0000
0001
0010
0001
1000
,
1010
0000
0000
0010
0000
0100
0010
0000
0100
0001
0000
0100
,
0010
1000
0001
0100
0000
0000
0110
0000
0000
0010
1000
0001
,
0100
0001
1000
0100
0000
0010
0100
0010
0001
1000
0000
0100
,
1000
0001
0010
0001
0000
1000
0010
1000
0001
0100
0000
0100
,
0010
0000
0010
1000
0000
0100
1000
0100
0010
0001
0000
0100
,
0001
0100
0010
1000
0000
1000
0100
0000
0100
0010
0001
1000
,
0100
1000
0001
0010
0000
0001
0100
0010
0100
0001
0000
1000
,
0100
0010
0100
1000
0000
0001
0010
0100
1000
0001
0000
1000
,
0010
0100
0001
1000
0000
1000
0100
0000
0100
0010
0000
0010
,
0001
0000
0001
0100
0010
0100
0010
0000
0010
1000
0001
0010
,
0001
1000
0010
0200
0000
0000
0302
0000
0000
2003
0000
0000
,
3020
2030
3002
0023
,
0230
2300
3010
0002
,
0103
0010
2000
3002
0023
0032
2003
3020
,
0230
0302
2003
0000
3100
0010
0002
0000
,
0000
0003
2000
0000
3010
0100
0002
0000
,
0000
0003
0020
0000
0130
1000
0002
0203
,
0320
2030
3001
0010
0001
1000
0100
0010
,
0001
0000
0000
0000
0100
0100
0001
0001
0100
0001
0000
0000
1000
1000
0010
0010
,
1000
0000
0000
0001
0000
0000
0000
0000
0000
0001
0000
0000
0010
0000
0000
0010
0000
0000
0100
0000
0000
0100
0000
0000
0010
0000
0000
0001
0000
0000
0000
0000
0000
0000
0000
0000
2200
0000
3300
0000
0000
0000
0000
0000
0101
0000
0000
0000
,
0000
0011
0000
1010
0000
0110
0000
2002
0000
0000
0000
0000
,
0000
0000
0000
0000
0000
0000
0000
0000
3003
0000
0000
0000
1000
0100
1000
0001
,
0020
0000
0000
0000
0000
0000
0000
0000
0000
0031
0000
0000
1000
0000
0000
0010
0000
0000
0100
0000
0001
0000
1000
0000
,
0010
0000
0000
0000
1000
0000
0000
0000
0001
0000
0000
0000
0010
0000
0000
0000
0100
0000
0000
0000
1000
0000
0000
0000
0100
0000
0000
0000
0000
0000
0010
0000
0000
0000
0000
0000
0002
0000
0000
0100
0000
0000
0000
0000
0000
0000
0000
0000
,
0013
0001
0000
0000
2000
0100
0000
0000
3010
1000
0000
0000
0002
0010
0000
0000
,
0103
0001
0000
0000
2000
0010
0000
0000
3100
1000
0000
0000
0001
0010
0100
0010
,
0001
0000
2000
0000
0000
0000
0010
0000
3020
0000
0000
0000
1030
0100
0010
0100
,
1000
0000
0002
0000
0000
0000
0100
0000
0203
0000
0000
0000
0301
1000
0010
1000
,
0001
0100
0001
0010
0100
0100
2000
0000
,
0001
0000
3002
0000
0100
0000
0103
0000
0010
0000
1000
0000
0001
0010
0001
1000
,
0200
0000
0000
0000
0000
0000
1300
0000
0000
0100
0000
0000
0010
0000
0000
0001
0000
0000
1000
0000
0010
0000
0100
0000
,
0001
0000
0000
0000
0010
0000
0000
0000
0100
0000
0000
0000
1000
0000
0000
0000
0001
0000
0000
0000
0010
0000
0000
0000
1000
0000
0000
0000
0010
0000
0000
0000
0001
0000
0000
0000
0200
0000
0000
0001
0000
0000
0000
0000
0000
0000
0000
0000
,
1300
0100
0000
0000
0020
0001
0000
0000
1030
0010
0000
0000
0200
1000
0000
0000
,
0301
0100
0000
0000
0020
1000
0000
0000
0031
0010
0000
0000
1000
0000
0001
0000
,
0201
0000
0000
0000
0310
0000
0001
0000
0010
0000
1000
0000
0001
0000
0010
0001
,
0010
0000
0100
0010
0100
0000
1000
0100
0010
0000
0001
0000
1000
0010
1000
0010
,
0200
0000
0000
0000
0301
0010
0001
0010
0200
0000
0000
0000
1300
0000
0010
1000
,
0100
0000
0010
0001
0100
0000
0010
0100
0010
0000
0100
0000
2002
0000
0000
0000
,
0000
0000
0000
0000
,
0000
0000
3003
2000
,
3200
0320
0032
0003
,
0000
0000
0000
1000
0001
0010
0001
1000
0100
1000
0001
0010
,
0110
0000
0000
0001
1000
0010
1000
0001
0100
0001
1000
0010
,
0110
0000
0000
0100
0001
0010
0100
1000
0010
0100
0001
0010
,
0001
1000
0010
1000
0100
0010
0001
0100
0010
1000
0100
0001
,
0100
1000
0001
0010
0001
1000
0010
1000
0001
0100
0000
0010
,
0110
0000
0000
1000
0100
1000
0001
0100
0001
0010
0000
0100
,
0110
0000
0000
1000
0100
0010
0001
0100
0010
1000
0001
0010
,
0100
1000
0010
0100
0000
0001
0101
0000
0000
0001
0010
1000
,
0010
0001
1000
0100
0010
0001
0100
0010
1000
0100
1000
0010
,
0100
0001
0010
0001
0100
1000
0200
0000
0000
0301
0010
1000
,
0020
0000
0000
0130
1000
0010
1000
0001
0010
0001
0100
0001
,
1000
0100
1000
0010
0100
0001
0010
0100
1000
0001
0100
1000
,
0001
0010
1000
0100
0100
0010
0100
0100
0010
0100
0000
0000
,
2002
0000
0000
0000
,
0000
0000
0000
0000
,
0000
3003
0000
0000
;

//--------------- dance-double - forcednature ----------------
#NOTEDATA:;
#STEPSTYPE:dance-double;
#DESCRIPTION:forcednature;
#DIFFICULTY:Easy;
#METER:9;
#RADARVALUES:0,0,0,0,0;
#CREDIT:forcednature;
#NOTES:
00000000
00000000
00000000
00000000
,
00000000
00000000
00000000
00000000
,
00000000
00000000
00000000
00000000
,
00001000
00010000
00000100
00001000
,
00000001
00000010
00000100
00001000
,
00001001
00000000
00000000
00000000
,
00011000
00000000
00000000
00000000
,
10010000
00000000
01000000
00000000
,
10010000
00000000
00100000
00000000
,
10010000
00000000
00000000
00000000
,
00011000
00000000
00000000
00000000
,
00001001
00000000
00000100
00000000
,
00001001
00000000
00000010
00000000
,
00000001
00000001
00000001
00000001
,
00000200
00000300
00000000
00000010
00000000
00000000
00001000
00000000
00000000
00000000
00000000
00000000
,
00001000
00000010
00000000
00010000
,
00000000
00001000
00100000
00000000
,
00100000
00010000
00000000
01000000
,
00000000
00100000
10000000
00000000
,
10000000
00010000
00000000
00100000
,
00000000
00001000
00010000
00000000
,
00010000
00000100
00000100
00000000
,
00001000
00000001
00000000
00000100
,
00000001
00000100
00000000
00000010
,
00000000
00000100
00000000
00000010
,
00001000
00000010
00000000
00010000
,
00000000
00011000
00000000
00001000
,
00010000
00001000
00000000
01000000
,
00000000
00010000
00000000
10000000
,
00010000
10000000
00000000
01000000
,
00000000
02200000
00000000
00000000
,
00000000
00000000
00000000
03300000
,
00000000
00022000
00000000
00000000
,
00033000
00000020
00000000
00000000
,
00000030
00001001
00000000
00000100
,
00000000
00011000
00000000
00000100
,
00000000
00011000
00000000
00100000
,
00000000
00011000
00000000
01000000
,
00000000
00010000
00010000
10000000
,
00000000
10000000
10000000
00010000
,
00000000
00100000
00100000
00001000
,
00000000
00011000
00011000
00011000
,
00000000
00000100
00000000
00001000
,
00000001
00001000
00000001
00000100
,
00000010
00000100
00000000
00001000
,
00000000
00010000
00010000
00001000
,
00001000
00010000
00000000
00011000
,
00000000
01000000
00000000
00011000
,
00000000
00100000
00100000
00010000
,
00010000
00100000
00001000
00010000
,
00000000
00011000
00000000
02000000
,
03020000
02030000
03000000
00200000
,
20300000
30200000
00300000
20000000
,
32000000
23000000
30020000
00230000
,
00301000
00010000
00002000
00000000
00023000
00000000
00030200
00000000
,
00000300
00020000
00032000
00203000
,
00300000
00002000
00023000
00030020
,
00001030
00000002
00000203
00000320
,
00001030
00000200
00000300
00020000
,
00030000
00000000
00000000
00000000
00000000
00000000
00002000
00000000
00000000
00000000
00000000
00000000
00003000
00000000
00000000
00000000
00000000
00000000
00020000
00030000
00000000
00000000
00001000
00000000
,
00000000
00010000
00000000
00001000
00000000
00010000
00000000
00002000
00000000
00000000
00000000
00000000
,
00000000
00000000
00000000
00000000
00003000
00000000
01000000
00010000
,
02000000
00000000
00000000
03000000
00100000
00000000
10000000
00000000
,
00010000
00100000
00000000
01000000
,
10000000
01000000
00010000
00001000
,
00010000
00000100
00001000
00000001
,
00000001
00000000
00000010
00000100
,
00000100
00000000
00000010
00000001
,
00001000
00000010
00000100
00000002
,
00000000
00000000
00001003
00000000
00000000
00000000
00000100
00001000
,
00000200
00000000
00000000
00000300
00010000
00000000
00001000
00000000
,
00100000
00010000
00000000
01000000
,
10000000
01000000
00010000
01000000
,
00001000
00010000
00000010
00001000
,
00001000
00000000
00000100
00010000
,
00001000
00010000
00001000
02000000
,
03010000
02000000
03100000
10000000
,
10010000
00010000
01000000
20020000
,
00000000
00000000
00000000
00000000
,
00000000
00000000
00000000
00000000
,
00000000
00000000
00000000
30030000
,
00000000
10010000
00000000
00000000
,
00000000
00011000
00000000
00000000
,
00000000
00001001
00000000
00000100
,
00000000
00001001
00000000
00000010
,
00000010
00001001
00000000
00001000
,
00000100
00010000
00001000
00100000
,
00100000
00010000
00000000
10000000
,
00100000
10000000
00010000
01000000
,
01000000
00010000
00000000
00110000
,
00000000
00001000
00000000
00011000
,
00000000
00010000
00010000
00000100
,
00000100
00001000
00001000
00000001
,
00000000
00000110
00000110
00000010
,
00002002
00000000
00000000
00000000
,
00000000
00000000
00000000
00000000
,
00000000
00003003
00000000
00000000
;

//--------------- dance-double - forcednature ----------------
#NOTEDATA:;
#STEPSTYPE:dance-double;
#DESCRIPTION:forcednature;
#DIFFICULTY:Medium;
#METER:13;
#RADARVALUES:0,0,0,0,0;
#CREDIT:forcednature;
#NOTES:
00000000
00000000
00000000
00000000
,
00000000
00000000
00000000
00000000
,
00000000
00000000
00000000
00000000
,
00002000
00023000
00030200
00002300
,
00003001
00000000
00000100
00000000
00001000
00010000
00001000
00010000
00002000
00000000
00000000
00000000
01003000
00000000
00000000
00000000
,
10010000
00000000
00000000
10000000
,
00010000
00000000
00000000
00001000
,
00000001
00000001
00000100
00000100
,
00001000
00000000
00010000
00001000
,
00011000
00000000
00000000
01000000
,
00011000
00000000
00000000
00000100
,
00011000
00100000
00011000
00000010
,
00011000
00000000
01100000
00000000
,
20000000
30020000
00032000
00003002
,
00000023
00000000
00000030
00000000
00000000
00000000
00000001
00000000
00000000
00000100
00000000
00000000
00000010
00000000
00000000
00000100
00000000
00000000
00000000
00000000
00000000
00000010
00000000
00000000
,
00001000
00000000
00000010
00000000
00010000
00000000
00001000
00010000
,
00001000
00000000
01000000
00010000
01000000
00000000
00100000
00000000
,
10000000
00000000
01000000
00000000
00100000
00000000
01000000
10000000
,
01000000
00000000
00100000
00010000
00100000
00001000
00000000
00010000
,
00001000
00000000
00010000
00000100
00001000
00000100
00000000
00000010
,
00000100
00000000
00000010
00000001
00000010
00000000
00000001
00000000
,
00000100
00000000
00000010
00000010
00001000
00000000
00000010
00010000
,
00001000
00000000
00010000
00001000
00100000
00010000
00000000
00100000
,
01000000
00000000
10000000
01000000
10000000
00000000
00010000
00000000
,
00100000
00000000
00001000
00010000
00001000
00000000
00010000
00000010
,
00001000
00000000
00000010
00000100
00000010
00000000
00000100
00000001
,
00001000
00000000
00000100
00001000
00000100
00010000
00000000
00001000
,
00010000
00000000
00001000
00100000
00010000
00100000
00000000
01000000
,
00100000
00000000
01000000
10000000
01000000
00000000
00100000
00010000
,
00100000
00000000
00001000
00010000
00000010
00000000
00001000
00000001
,
00000100
00000220
00000000
00000000
,
00000000
00000000
00000000
00000000
00000000
00000000
00000000
00000330
,
00000000
00002000
00020000
00000000
00000000
00000000
00000000
00000000
,
00033000
02200000
00000000
00000000
,
03300000
10010000
10000000
01010000
,
00010000
00101000
00001000
00010010
,
00000010
00000101
00000001
00001100
,
00001000
00010100
00010000
00101000
,
00110000
00000000
10010000
00000000
10000000
01000000
00100000
00000000
,
01000000
00100000
00010000
00000000
00100000
00001000
00010000
00000000
,
00000010
00000000
00000000
00001000
00000000
00000000
00000010
00000000
00000000
00000000
00000010
00000000
00001000
00000000
00000000
00000000
00001000
00000000
00000001
00000000
00000000
00000000
00000001
00000000
,
00000010
00000000
00000010
00000100
00000000
00000000
00000110
00000000
00000000
00001000
00000001
00001000
,
00000002
00000000
00000000
00000103
00000000
00000000
00000001
00000000
00000001
00001000
00000000
00000000
,
00000010
00000000
00000010
00001000
00000000
00000000
00000100
00000000
00000100
00010000
00000000
00000000
,
00001000
00000000
00010000
00001000
00000000
00000000
00100000
00000000
00100000
00010000
00000000
00000000
,
10000000
00000000
10000000
00100000
00000000
01000000
00100000
00000000
00000000
02000000
00000000
00000000
,
03002000
00000000
00000000
00013000
00000000
00001000
00010000
00000000
00000000
00000100
00000000
00001000
,
00000100
00000000
00000000
00010000
00000000
00001000
00010000
00000000
00000000
00000010
00000000
00001000
,
00000010
00000000
00000000
00000100
00000000
00000100
00000001
00000000
00000001
00000010
00000000
00000010
,
00000100
00000000
00000000
00000110
00000000
00000000
00000010
00000000
00000000
00000001
00001000
00000001
,
00001000
00000020
00002030
00003200
,
00020300
00032000
02003000
03020000
,
00230000
02300000
13000000
00020000
,
00130000
00001000
00020000
00030020
00002030
00003020
00000230
00000302
,
00001003
00000100
00020000
00000000
00031000
00100000
00020000
00000000
,
00000000
00030000
02000000
00000000
03001000
00010000
00000020
00000000
,
00000000
00000030
00002000
00000000
00003100
00010000
00002000
02003000
,
03020000
02030000
03100000
00000000
10000000
01000000
00010000
00001000
,
00010000
00000000
00000000
00000000
00000100
00000000
00000100
00000000
00000100
00001000
00000000
00000000
00000001
00000000
00000001
00000000
,
00000001
00000000
00000000
00000010
00000000
00000000
00000000
00000000
00000000
00000000
00000000
00000000
00000001
00000000
00000000
00000000
00000000
00000000
00000001
00000000
00000000
00000000
00000000
00000000
00000001
00000000
00000000
00001000
00000000
00000000
00000000
00000000
00000000
00000000
00000000
00000000
00000002
00000000
00000003
00000000
00000000
00000000
00000000
00000000
00000100
00000000
00000000
00000000
,
00000000
00001000
00000000
00010000
00000000
00100000
00000000
20000000
00000000
00000000
00000000
00000000
,
00000000
00000000
00000000
00000000
30000000
00000000
01000000
10000000
,
00020000
00000000
00000000
00130000
00010000
00100000
00001000
00000000
,
00010000
00000000
00010000
00000010
00000000
00000010
00001000
00000000
00000000
00000002
00000000
00000000
,
00000023
00002030
00003020
00000230
,
00020300
00000000
00032000
00000000
00203000
00000000
00310000
00100000
,
00001000
00020000
00000000
00031000
00200000
00000000
00310000
01000000
,
00100000
02000000
00000000
03010000
20000000
00000000
31000000
00000000
,
00100000
00010000
00100000
00001000
00010000
00000000
00000200
00000000
,
00001300
00000001
00000010
00000010
00000010
00000000
00000001
00001000
,
00000200
00000000
00000000
00001300
00000100
00000000
00010000
00000000
,
00001000
00000000
00001000
01000000
00000000
01000000
00010000
00000000
00000000
20000000
00000000
00000000
,
32000000
03020000
02030000
03200000
,
00302000
00000000
00023000
00000000
00030200
00000000
00001300
00000100
,
00002000
00000000
00003001
00000010
00000001
00000000
00002000
00000000
,
00003010
00010000
00002000
00000000
02003000
00000000
03010000
00010000
,
10000000
00000000
10000000
10000000
00010000
00000000
00110000
00000000
,
00110000
00000000
00000000
00100000
00001000
00000000
00000000
00000000
00011000
00000000
00000000
00000000
00020200
00000000
00000000
00000000
,
00000000
00000000
00000000
00000000
,
00000000
00000000
00030300
00000200
,
00002300
00003002
00000023
00000030
,
00000000
00001001
00000000
00000000
,
00010000
00011000
00000000
00000000
,
10000000
10010000
00010000
10010000
,
01000000
00000000
00000000
01100000
00000000
00000000
10000000
00000000
00000000
00010000
10000000
00010000
,
10000000
00000000
00000000
00010000
00000000
00000000
01000000
00000000
01000000
00001000
00000000
00001000
,
00010000
00000000
00000000
00000100
00000000
00001000
00000100
00000000
00000010
00000100
00000000
00000010
,
00000001
00000000
00000000
00001000
00000000
00000000
00000010
00000000
00000010
00010000
00000000
00010000
,
00001000
00000000
00000000
01000000
00000000
00010000
01000000
00000000
00100000
01000000
00000000
00100000
,
10000000
00000000
00000000
10010000
00000000
10000000
01000000
00000000
00000000
00100000
00000000
01000000
,
00100000
00000000
00000000
00010000
00000000
00100000
00002000
00000000
00000000
00013000
00000000
00000100
,
00002000
00000000
00000000
00003001
00001000
00000001
00001000
00000000
00000000
00000010
00000100
00000010
,
00000100
00002000
00023000
00130000
,
01000000
00000000
00000000
00010000
10000000
00010000
10000000
00010000
10000000
00010000
00000000
00000000
,
20020000
00000000
00000000
00000000
,
00000000
00000000
00000000
00000000
,
00000000
30030000
00000000
00000000
;

//--------------- dance-double - forcednature ----------------
#NOTEDATA:;
#STEPSTYPE:dance-double;
#DESCRIPTION:forcednature;
#DIFFICULTY:Hard;
#METER:17;
#RADARVALUES:0,0,0,0,0;
#CREDIT:forcednature;
#NOTES:
00000000
00000000
00000000
00000000
,
00000000
00000000
00000000
00000000
,
00000000
00000000
00000000
00000000
,
00002000
00203000
00320000
20030000
,
30100000
00000000
01000000
00000000
00100000
10000000
00010000
10000000
02000000
00000000
00000000
00000000
03010000
00000000
00000000
00000000
,
00011000
00000000
00000000
00000010
,
00011000
00000000
00000000
00100000
,
00012000
01003000
00021000
00030100
,
00011000
00000000
00000000
00000000
00000000
00010000
00000100
00000000
00000100
00001000
00000000
00000000
,
00001001
00000000
00000000
00000010
,
00011000
00000000
00000000
00100000
,
00012000
01003000
00021000
00030100
,
00011000
00000000
00100000
01100000
,
10000000
01000000
00100000
01000000
00100000
00010000
00100000
00001000
00010000
00000100
00001000
00000100
,
00000020
00000000
00000030
00000000
00000000
00000000
00000001
00000000
00000000
00000100
00000000
00000000
00000001
00000000
00000000
00000010
00000000
00000000
00000000
00000000
00000000
00000100
00000000
00000000
,
00001000
00000000
00000100
00000100
00010000
00000000
00001000
00100000
,
00010000
00000000
01000000
00010000
20000000
00000000
32000000
00000000
,
03020000
00000000
00031000
00100000
00010000
00000000
10000000
10000000
,
01000000
00000000
00100000
00010000
00100000
00002000
00000000
00013000
,
00000100
00001000
00000010
00001000
00000010
00020000
00000000
00031000
,
01000000
00010000
00200000
00000000
01300000
00010000
00002000
00000000
,
00013000
00001000
00000010
00000010
00000100
00000000
00001000
00000001
,
00000100
00000000
00001000
00010000
00001000
00100000
00000000
00010000
,
01000000
10000000
01000000
00000000
00010000
00100000
00001000
00001000
,
00010000
00000000
00000010
00001000
00000002
00000000
00000203
00000000
,
00002300
00000000
00013000
00000010
00001000
00000010
00010000
00001000
,
01000000
00000000
00010000
00100000
00001000
00020000
00000000
00030100
,
00001000
00000001
00001000
00000010
00010000
00002000
00000000
01003000
,
00010000
10000000
02000000
00000000
03010000
00001000
00200000
00000000
,
00301000
00010000
00000100
00000100
00001000
00000000
00000001
00000100
,
00001000
00022000
00000000
00000000
,
00000000
00000000
00000000
00000000
00000000
00000000
00000000
00033000
,
00000000
01000000
02020000
00000000
00000000
00000000
00000000
00000000
,
03030000
00000000
20000000
00000000
31000000
00010000
00001000
00010000
,
00001000
00000010
00000011
00000000
00001000
00000100
00001100
00000000
,
00010000
00000000
00011000
00000000
00001000
01000000
01001000
00000000
,
00010000
00000000
00011000
00000000
00100000
00010000
00110000
00000000
,
10000000
01000000
11000000
00000000
00010000
00100000
00110000
00000000
,
00011000
00000000
00001100
00000000
00000001
00000010
00000001
00000100
,
00001000
00010000
00001000
00000000
00010000
00100000
10000000
00010000
,
01000000
00000000
00000000
00010000
00000000
00000000
00100000
00000000
00000000
00000000
01000000
00000000
00100000
00000000
00000000
00000000
00010000
00000000
00100000
00000000
00000000
00000000
00001000
00000000
,
00010000
00000100
00001000
00000100
00000000
00000000
00000110
00000000
00000000
00000010
00000001
00001000
,
00000100
00001000
00000001
00000010
00000000
00000000
00000001
00000100
00000001
00001000
00000000
00001000
,
00000010
00010000
00001000
00010000
00000000
00010000
00001000
01000000
00010000
01000000
00000000
00010000
,
10000000
00000000
10000000
00100000
00000000
00100000
01000000
00010000
01000000
00001000
00000000
00001000
,
00010000
00000010
00001000
00000010
00000000
00000010
00000100
00000000
00000100
00000001
00000010
00000100
,
00001000
00000100
00000010
00000001
00000000
00000001
00000100
00000001
00001000
00000010
00000000
00000010
,
00010000
00001000
01000000
00010000
00000000
00010000
10000000
01000000
10000000
00100000
00000000
00100000
,
01000000
00010000
01000000
00001000
00000000
00001000
00010000
00000000
00010000
00000100
00000000
00000100
,
00001000
00000000
00001000
00000001
00000100
00000001
00000100
00000000
00000100
00001000
00010000
00001000
,
00010000
00100000
00010000
00200000
00000000
00000000
20300000
00000000
00000000
30020000
00000000
00000000
,
20030000
32000000
03020000
00032000
,
00003020
00000032
00000103
00002000
,
00003010
00010000
00002000
02003000
03020000
02030000
03200000
20300000
,
30020000
20030000
32000000
00000000
03010000
00001000
00000020
00000000
,
00000000
00000030
00000200
00000000
00010300
00001000
00000020
00000000
,
00000000
00000030
00000002
00000000
00000103
00001000
00020000
00230000
,
20300000
30020000
10030000
01000000
00010000
00001000
00100000
00010000
,
00100000
00000000
00000000
00000000
00001000
00001000
00000010
00000010
00000100
00010000
00000000
00000000
00001000
00001000
00100000
00100000
,
00010000
00000000
00000000
01000000
00000000
00000000
00000000
00000000
00000000
01000000
00000000
00000000
00100000
00000000
00000000
00100000
00000000
00000000
10000000
00000000
00000000
10000000
00000000
00000000
00010000
00000000
00000000
00100000
00000000
00000000
00000000
00000000
00000000
00000000
00000000
00000000
02000000
00000000
03000000
00000000
00000000
00000000
00000000
00000000
00010000
00000000
00000000
00000000
,
00000000
00000100
00000000
00000110
00000000
00001001
00000000
00000220
00000000
00000000
00000000
00000000
,
00000000
00000000
00000000
00000000
00000000
00000000
00000000
00000000
00000330
00000000
00000000
00000000
00000001
00001000
00000001
00001000
,
00000020
00000000
00000000
00000000
00000000
00000000
00000000
00000000
00000000
00010030
00000000
00000000
00001000
00000000
00000000
00100000
00000000
00000000
00010000
00000000
10000000
00000000
00010000
00000000
,
00100000
00000000
01000000
00000000
10000000
00000000
01000000
00000000
00100000
00000000
00010000
00000000
00100000
00000000
00000000
00001000
00000000
00000000
00020000
00000000
00000000
00000000
00000000
00000000
,
00030020
00002030
00203000
02300000
,
03002000
00000000
00000000
00000000
00003200
00000000
00000000
00000000
00020300
00000000
00000000
00000000
01030000
00100000
10000000
00100000
,
01000000
00000000
00020000
00000000
00000000
00000000
00100000
00000000
00230000
00000000
00000000
00000000
00301000
00010000
00000100
00010000
,
00001000
00000000
00020000
00000000
00000000
00000000
00000010
00000000
00030020
00000000
00000000
00000000
00001030
00000001
00001000
00000001
,
00000100
00000001
00001000
00000010
00010000
00010000
00200000
00000000
,
00000000
00000000
20300000
00000000
00100000
00000000
30100000
00000000
10000000
00000000
01000000
00000000
10000000
00010000
10000000
00010000
,
00200000
00000000
00000000
00000000
00000000
00000000
00000000
00000000
00000000
00301000
00000000
00000000
00010000
00000000
00000000
00000010
00000000
00000000
00001000
00000000
00000001
00000000
00001000
00000000
,
00000010
00000000
00000100
00000000
00000001
00000000
00000100
00000000
00000010
00000000
00001000
00000000
00000010
00000000
00000000
00010000
00000000
00000000
00002000
00000000
00000000
00000000
00000000
00000000
,
00203000
00320000
00030020
00000230
,
00020300
00000000
02030000
00000000
03002000
00000000
00003100
00000010
,
00000002
00000000
00000000
00000000
00000103
00000000
00001000
00000000
00010000
00000000
00100000
00000000
10000000
00000000
01000000
10000000
,
01000000
00000000
00100000
01000000
00100000
00000000
00010000
00100000
00001000
00000000
00010000
00000000
00000010
00001000
00000010
00001000
,
00000002
00000000
00000000
00000000
00000013
00000100
00000010
00000100
00002000
00000000
00000000
00000000
00003100
00000000
00001000
00000100
,
00010000
00000000
00001000
00010000
00001000
00000000
00100000
00000000
00100000
00000000
00010000
00000000
20000000
00000000
00000000
00000000
,
00000000
00000000
00000000
00000000
,
00000000
00000000
00000000
32000000
,
03020000
00032000
00003020
00000030
,
00000000
00000000
00000000
00000001
00000100
00000001
00001000
00000010
00010000
00001000
00010000
00000010
,
00001000
00000000
00000000
00000100
00001000
00000100
00010000
00001000
00100000
00010000
00100000
00001000
,
00010000
00000000
00000000
00100000
10000000
00100000
10000000
00000000
10000000
01000000
00010000
01000000
,
00010000
00000000
00010000
00000100
00001000
00000001
00000010
00000000
00000000
00000100
00010000
00001000
,
00010000
00000100
00001000
00000001
00000000
00000001
00000010
00000100
00001000
00000100
00000000
00000100
,
00020000
00000000
00000000
00031000
00100000
00010000
00100000
00001000
00010000
00001000
00000000
00001000
,
02000000
00000000
00000000
03010000
10000000
00100000
10000000
00010000
01000000
00001000
00010000
00000010
,
00001000
00000001
00000100
00000010
00000000
00000010
00002000
00000000
00000000
00013000
01000000
00100000
,
01000000
00010000
01000000
00100000
00000000
10000000
01000000
00100000
00010000
00100000
00001000
00010000
,
00000100
00000000
00001000
00000001
00000100
00001000
00020000
00000000
00000000
00031000
00000100
00000001
,
00002000
00000000
00000000
00003010
00001000
00000100
00010000
00000000
00001000
00100000
00010000
01000000
,
00001000
00000000
00010000
00000010
00001000
00000100
00010000
00001000
01000000
00010000
00100000
01000000
,
10000000
01000000
00100000
00001000
00010000
00000100
00001000
00000100
00010000
00001000
00000000
00000000
,
00022000
00000000
00000000
00000000
,
00000000
00000000
00000000
00000000
,
00000000
00033000
00000000
00000000
;
