#VERSION:0.83;
#TITLE:†闇鍋☆ROCK†;
#SUBTITLE:;
#ARTIST:ARM vs ジュクチョー feat. イオシスjkガールズ;
#TITLETRANSLIT:Yaminabe ROCK;
#SUBTITLETRANSLIT:;
#ARTISTTRANSLIT:ARM vs Zyukucho feat. IOSYS jk girls;
#GENRE:;
#CREDIT:;
#MUSIC:Yaminabe ROCK.ogg;
#BANNER:Yaminabe ROCK.png;
#BACKGROUND:Yaminabe ROCK-bg.png;
#CDTITLE:./CDTitles/GITADORA TriBoost Re-EVOLVE.png;
#SAMPLESTART:56.341;
#SAMPLELENGTH:15.000;
#SELECTABLE:YES;
#OFFSET:1.142;
#BPMS:0.000=146.000;
#STOPS:;
#TIMESIGNATURES:0.000=4=4;
#BGCHANGES:0.000=../BGAs/19cy.mp4=1.000=0=0=0=StretchNoLoop====,
99999.000=-nosongbg-=1.000=0=0=0=StretchNoLoop====
;
#FGCHANGES:;

//--------------- dance-single - forcednature ----------------
#NOTEDATA:;
#STEPSTYPE:dance-single;
#DESCRIPTION:forcednature;
#CREDIT:forcednature;
#DIFFICULTY:Beginner;
#METER:3;
#RADARVALUES:0,0,0,0,0;
#NOTES:
0000
0000
0000
0000
,
0000
0000
0000
0000
,
1000
0000
0000
0000
,
0001
0000
0000
0000
,
0100
0000
0000
0000
,
0010
0000
0000
0000
,
1000
0000
0000
0000
,
0001
0000
0000
0000
,
0010
0000
0100
0000
,
0110
0000
0000
0000
,
1000
0000
1000
0000
,
1000
0000
0000
0000
,
0001
0000
0001
0000
,
0001
0000
0000
0000
,
0100
0000
0100
0000
,
0100
0000
0000
0000
,
0010
0000
0010
0000
,
0010
0000
0000
0000
,
1000
0000
0000
0000
,
0001
0000
0000
0000
,
0010
0000
0000
0000
,
0001
0000
0100
0000
,
0001
0000
0000
0000
,
1000
0000
0000
0000
,
0100
0000
0000
0000
,
1000
0000
0000
0000
,
0010
0000
0000
0000
,
0100
0000
0001
0000
,
0100
0000
0000
0000
,
0010
0000
1000
0000
,
0010
0000
0010
0000
,
1000
0000
0001
0000
,
0010
0000
0100
0000
,
1000
0000
0001
0000
,
2002
0000
0000
3003
,
0001
0100
0001
0000
,
0001
0010
0001
0000
,
1000
0100
1000
0000
,
1000
0010
1000
0000
,
0001
0010
0001
0000
,
1000
0010
1000
0000
,
0100
0000
0010
0000
,
0001
1000
0001
0000
,
0010
0000
0100
0000
,
1000
0000
1000
0000
,
0010
0000
0100
0000
,
0001
0000
0001
0000
,
1000
0000
0100
0000
,
0010
0000
0010
0000
,
0001
0000
0100
0000
,
0010
0010
0010
0000
,
1000
0000
1000
0000
,
1000
0000
0000
0000
,
0001
0000
0001
0000
,
0001
0000
0000
0000
,
0010
0000
0010
0000
,
0010
0000
0000
0000
,
0100
0000
0100
0000
,
1001
0000
0000
0000
,
0001
0000
0000
0000
,
0100
0000
0000
0000
,
0010
0000
1000
0000
,
0001
0000
0010
0000
,
0100
0000
0000
0000
,
1000
0000
0001
0000
,
0100
0000
0010
0000
,
1000
0000
0000
0001
0000
0000
1001
0000
;

//--------------- dance-single - forcednature ----------------
#NOTEDATA:;
#STEPSTYPE:dance-single;
#DESCRIPTION:forcednature;
#CREDIT:forcednature;
#DIFFICULTY:Easy;
#METER:7;
#RADARVALUES:0,0,0,0,0;
#NOTES:
0000
0000
0000
0000
,
0000
0000
0000
0000
,
1000
0001
0100
0001
,
1000
0010
1000
0001
,
1000
1000
0001
0001
,
0010
0100
0010
0001
,
0100
0010
1000
0100
,
1000
0010
0100
0000
,
1001
0000
0110
0000
,
1001
1001
2002
3003
,
1000
0100
1000
0010
,
1000
0100
1000
0000
,
0001
0100
0001
0010
,
0001
0100
0001
0000
,
1000
0100
0010
0001
,
0010
0100
1000
0000
,
0001
0100
0010
1000
,
0010
0100
0001
1001
,
1000
0100
1000
0010
,
0100
0001
0010
0001
,
0100
0010
1000
0001
,
0010
0100
0010
0010
,
0001
1000
0010
1000
,
0001
0010
0001
1000
,
0010
0100
0001
1000
,
0100
0100
0010
0000
,
0100
1000
0100
0010
,
0001
1000
0001
0000
1000
0001
1000
0000
,
0010
0100
0001
1000
,
0001
1000
0001
0000
1000
0001
1000
0000
,
0010
0010
0100
0100
,
0001
0010
0100
1000
,
0010
0000
0000
0010
0000
0000
0000
0000
0100
0000
0000
0100
0000
0000
0000
0000
,
0001
1000
0001
0000
1000
0000
0000
0000
,
1001
1001
0100
0110
,
1000
0000
0001
0000
0100
0010
0100
0000
,
0001
0000
1000
0000
0100
0010
0100
0000
,
1000
0000
0001
0000
0010
0100
0010
0000
,
0001
0000
1000
0000
0010
0010
0010
0000
,
0100
0000
0001
0000
1000
0100
1000
0000
,
0010
0000
1000
0000
0001
0010
0001
0000
,
0100
0110
0010
0110
,
1000
0000
0000
0001
0000
0000
1000
0000
0001
0000
0000
0000
1001
0000
0000
0000
,
1000
0010
0100
0001
,
0000
0010
0000
0010
0000
0010
0000
0010
,
0100
1000
0001
0100
,
0000
0010
0000
0010
0000
0010
0000
0010
,
1000
0001
0010
0100
,
0000
1000
0000
1000
0000
1000
0000
1000
,
0010
0100
0001
1000
,
0100
0010
0100
0000
0010
0100
0010
0000
,
0001
1000
0001
0100
,
0010
1000
0001
0000
,
1000
0100
0010
0001
,
0100
0000
0010
0000
0000
0010
0000
0000
0010
0000
0000
0010
0000
0000
0010
0000
,
1000
0001
1000
0010
,
0100
0001
0010
0000
,
0100
1000
0010
0100
,
1001
0001
0100
1000
,
0100
0010
1000
0001
,
1000
0100
0001
0100
,
0010
0001
1000
0010
,
0100
0001
1000
0100
,
0010
0001
0100
0010
,
1000
0001
0010
0100
,
0110
0110
1001
1001
,
0010
0000
0000
0010
0000
0000
0100
0000
0000
0000
0000
0000
2002
0000
0000
0000
,
0000
0000
0000
0000
,
3003
0000
0000
0000
;

//--------------- dance-single - forcednature ----------------
#NOTEDATA:;
#STEPSTYPE:dance-single;
#DESCRIPTION:forcednature;
#CREDIT:forcednature;
#DIFFICULTY:Medium;
#METER:11;
#RADARVALUES:0,0,0,0,0;
#NOTES:
0000
0000
0000
0000
,
0000
0000
0000
0000
,
0001
0100
0000
0010
0000
1000
0000
0001
,
1000
0100
0000
0010
0000
0001
0000
0100
,
0010
0000
1000
0000
0000
0000
0100
0000
0010
0000
0010
0000
0000
0010
0000
0000
,
0001
0000
1000
0000
0000
0001
0000
0001
0000
0000
0100
0000
0010
0000
0000
0000
,
1000
0001
1000
0001
1000
0001
0100
0000
,
0010
1000
0001
0100
0001
0010
0100
0000
,
0220
0330
2002
3003
,
1000
0100
0010
0001
1000
0001
0100
0010
1000
0001
0000
0000
,
0010
0000
0100
0000
1000
0000
0000
0100
0000
0000
0010
0000
0001
0000
0000
1000
,
0000
0001
0100
0000
0010
1000
0010
0000
,
0100
0000
0001
0000
1000
0000
0000
0100
0000
0000
1000
0000
0010
0000
0000
0100
,
0000
0001
0010
0000
0100
1000
0010
0000
,
1000
0000
0100
0000
0010
0000
0000
0100
0000
0000
1000
0000
0001
0000
0000
0100
,
0000
0010
1000
0000
0001
0010
0100
0000
,
0010
0000
0001
0000
1000
0000
0000
0001
0000
0000
0100
0000
0010
0000
0000
1000
,
0000
0001
0010
0000
0100
1000
0010
0000
,
0110
0000
0100
0000
0001
1000
0100
0000
,
0110
0000
0010
0000
0001
1000
0010
0000
,
1100
0000
0001
0000
1000
0010
0100
0000
,
0101
0000
1000
0000
0001
0010
0100
0000
,
1000
0001
1000
0001
0100
0010
1000
0000
,
0001
1000
0001
1000
0100
0010
0001
0000
,
1000
0010
1000
0000
0001
0010
0001
0000
,
0100
0000
0000
0100
0000
0000
0100
0000
0001
0000
1000
0000
0001
0000
0000
0000
,
0010
0000
0100
0000
1000
0000
0010
0000
0100
0000
0000
0010
0000
0000
0000
0000
,
1000
0001
0010
0001
1000
0001
0100
0000
,
0010
0000
1000
0000
0001
0000
1000
0000
0100
0000
0000
0010
0000
0000
0000
0000
,
0100
1000
0010
0100
0001
0010
0100
0000
,
0010
0001
1000
0000
0010
1000
0001
0000
,
0010
0100
0010
0100
1000
0001
0100
0000
,
0010
0000
0000
0110
0000
0000
0000
0000
0100
0000
0000
0110
0000
0000
0000
0000
,
1000
0000
0001
0000
0100
0000
0000
2002
0000
0000
0000
0000
3003
0000
0000
0000
,
0001
1000
0001
1000
0001
1000
0100
0000
0000
1001
0000
0000
,
1000
0000
0001
0000
0100
0000
0010
0000
1000
0000
2200
0000
0000
3300
0000
0000
,
0001
0000
0100
0000
1000
0000
0100
0000
0010
0000
0220
0000
0000
0330
0000
0000
,
1000
0000
0001
0000
0010
0000
0001
0000
0100
0000
0220
0000
0000
0330
0000
0000
,
0001
0000
0100
0000
0010
0000
1000
0000
0100
0010
0100
0010
0000
0000
0000
0000
,
0001
0000
1000
0000
0010
0000
0100
0000
0001
0000
0022
0000
0000
0033
0000
0000
,
1000
0000
0001
0000
0010
0000
0001
0000
0100
0000
0220
0000
0000
0330
0000
0000
,
1000
1000
0110
0000
0001
0001
0110
0000
,
0001
0000
0000
1000
0000
0000
0001
0000
1000
0000
0000
0000
1001
0000
0000
0000
,
0001
0100
0010
1000
0002
0000
0000
0000
,
0003
0110
0000
0110
0000
0110
0000
0110
,
1000
0001
0100
0010
2000
0000
0000
0000
,
3000
1001
0000
1001
0000
1001
0000
1001
,
0001
0100
0010
1000
0200
0000
0010
0000
,
0300
0110
0000
0110
0000
0110
0000
0110
,
0001
0100
0010
1000
0002
0000
1000
0000
,
0003
1001
0000
1001
0000
1001
0000
1001
,
0001
0000
0100
0000
0010
0000
0000
1000
0000
0000
0001
0000
0010
0000
0000
0100
,
0000
0010
0001
0000
0100
0010
0100
0000
,
0001
0000
1000
0000
0100
0000
0000
1000
0000
0000
0010
0000
0100
0000
0000
0001
,
0000
0000
0010
0000
0000
0100
0000
0000
1000
0000
0000
0001
0000
0000
0100
0000
,
0010
0000
1000
0000
0001
0000
0000
0010
0000
0000
0001
0000
1000
0000
0000
0010
,
0000
0100
0001
0000
0010
0100
0010
0000
,
0001
0000
1000
0000
0010
0000
0000
1000
0000
0000
0100
0000
0010
0000
0000
0000
,
0110
0000
1000
0001
0100
0010
1000
0000
,
0001
0010
0000
0010
0100
0010
0000
0010
,
0001
0000
1000
0000
0001
0000
0000
0000
0100
0000
0100
0000
0000
0100
0000
0000
,
0010
0000
1000
0000
0000
1000
0000
1000
0000
0000
0001
0000
0000
0001
0000
0001
,
0000
0000
0010
0000
0000
0000
0100
0000
0001
0000
0000
0100
0000
0000
0010
0000
,
0001
1000
1000
0001
1000
1000
0001
0000
,
1000
0100
0010
0001
0100
0010
1000
0000
,
1001
0110
1001
0110
,
1000
0000
0000
0001
0000
0000
0110
0000
0000
0000
0000
0000
2002
0000
0000
0000
,
0000
0000
0000
0000
,
3003
0000
0000
0000
;

//--------------- dance-single - forcednature ----------------
#NOTEDATA:;
#STEPSTYPE:dance-single;
#DESCRIPTION:forcednature;
#CREDIT:forcednature;
#DIFFICULTY:Hard;
#METER:15;
#RADARVALUES:0,0,0,0,0;
#NOTES:
0000
0000
0000
0000
,
0000
0000
0000
0000
,
1000
0100
0010
0001
0100
1000
0100
0001
,
0010
0100
0001
0100
1000
0010
0100
0001
,
0010
0000
0100
0000
1000
0000
0001
0000
0100
0000
0100
0000
0100
0010
0000
0000
,
1000
0000
0001
0000
0010
0001
0010
0001
0000
0000
1000
0000
0010
0100
0010
0100
,
0001
1000
0001
0100
0010
1000
0010
0100
,
0001
0000
0001
0000
1000
0000
1000
0000
0100
0010
0100
0010
0001
0000
1000
0000
,
2002
3003
0220
0330
,
0001
0000
1000
0000
0100
0000
1000
0000
0001
0000
0100
0000
0001
1000
0001
1000
0000
0000
1001
0000
0000
0000
0000
0000
,
0001
0000
0100
0000
0010
0000
0000
1001
0000
0000
1000
0000
0100
0000
0000
0011
,
0000
0000
1000
0000
0001
0000
0000
0000
1000
0010
1000
0000
0001
0010
0001
0000
,
0100
0000
0001
0000
0010
0000
0000
0110
0000
0000
1000
0000
0001
0000
0000
0110
,
0000
0000
0000
0001
0000
0000
1000
0000
0000
0000
0000
0000
0001
0100
0001
0100
0000
0000
0010
1000
0010
1000
0000
0000
,
0001
0000
0010
0000
0100
0000
0000
1001
0000
0000
1000
0000
0010
0000
0000
0101
,
0000
0000
0001
0000
1000
0000
0000
0000
0100
0010
0001
1000
0001
1000
0001
0000
,
1000
0000
0001
0000
0010
0000
0000
1001
0000
0000
0100
0000
1000
0000
0000
0110
,
0000
0000
0000
0001
0000
0000
1001
0000
0000
0000
0000
0000
0001
1000
0001
1000
0000
0000
1001
0000
0000
0000
0000
0000
,
0001
1000
0010
0100
0001
1000
0100
0001
,
0100
0000
0010
0000
1000
0000
0010
0000
0001
0000
1000
0000
0001
0100
0001
0100
,
0010
1000
0001
0010
0100
0010
1001
0000
,
0001
0100
0001
0000
1000
0100
1000
0000
0010
0000
1000
0001
2000
0000
0000
0000
,
3001
0000
0001
0000
0010
0000
0010
0000
0001
1000
0001
0000
1001
0000
0000
0000
,
1000
0000
1000
0000
0010
0000
0010
0000
1000
0001
1000
0000
1001
0000
0000
0000
,
0001
0000
0100
0001
0000
1000
0010
0000
1000
0100
0010
0000
0001
0100
0010
0000
,
1001
0000
0000
0110
0000
0000
1001
0000
0001
0100
0001
0100
0010
1000
0010
1000
,
0100
0000
0010
0000
0001
0000
0100
0000
0110
0000
0000
1001
0000
0000
0000
0000
,
1100
0001
1100
0001
1100
0001
1100
0000
,
0001
0000
0100
0000
0010
0000
1000
0000
0110
0000
0000
1001
0000
0000
0000
0000
,
0101
1000
0101
1000
0101
1000
0101
0000
,
1000
0010
1000
0010
0100
0000
0000
0000
0001
0010
0001
0010
0100
0000
0000
0000
,
0010
0000
0001
0000
1000
0000
0010
0000
0100
0000
0001
1000
0000
0000
0100
1000
,
0100
0000
0000
1001
0000
0000
0100
0001
0100
0000
0000
1001
0000
0000
0001
1000
,
0001
0000
0100
0000
0010
1000
0000
0001
0020
0000
0000
0000
0100
0000
0030
0000
,
0100
0000
1000
0000
0001
0000
0100
0000
0001
0000
1000
0000
0001
1000
0001
1000
0000
0000
1001
0000
0000
0000
0000
0000
,
0001
0000
0100
0000
0010
0000
1000
0000
0001
0010
0001
0010
0000
0000
0000
0000
,
0100
0000
1000
0000
0001
0000
0100
0000
0010
1000
0010
1000
0000
0000
0000
0000
,
1000
0000
0100
0000
0010
0000
0001
0000
0100
0010
0100
0010
0000
0000
0000
0000
,
1000
0000
0001
0000
0010
0000
0100
0000
2000
3002
0203
0320
0030
0000
0000
0000
,
1000
0000
0010
0000
0100
0000
0001
0000
0010
0100
0010
0100
0000
0000
0000
0000
,
0010
0000
0001
0000
1000
0000
0001
0000
0200
0320
2030
3002
0003
0000
0000
0000
,
1100
1100
0001
0000
0101
0101
1000
0000
,
1001
0000
0000
0110
0000
0000
1001
0000
0110
0000
0000
0000
1001
0000
0000
0000
,
0001
0000
0100
0000
0010
1000
0000
0002
0000
0000
0000
0000
0000
0000
0013
0000
,
0100
0001
0100
1000
0100
0001
0100
1000
,
0100
0000
0010
0000
0001
1000
0000
0020
0000
0000
0000
0000
1030
0000
0001
0000
,
0100
1000
0100
0001
0100
1000
0100
0001
,
0010
0000
0100
0000
0010
0001
0000
1000
0000
0000
0010
0000
1000
0000
0001
0000
,
0010
1000
0010
0001
0010
1000
0010
0001
,
1000
0000
0001
0100
0001
0000
0010
0100
0000
0000
0010
0000
0001
0000
1000
0000
,
0001
0100
0010
1000
0100
0010
0001
1000
0010
1000
0001
0010
,
0100
0000
1000
0000
0010
0000
0000
0101
0000
0000
0010
0000
0100
0000
0000
1001
,
0000
0000
1000
0000
0010
0000
0000
0000
1000
0100
0010
0001
0100
0000
0000
0000
,
0010
0000
1000
0000
0001
0000
0000
0110
0000
0000
0001
0000
1000
0000
0000
0101
,
0000
0000
1000
0000
0000
0100
0000
0000
0001
0000
0000
0010
0000
0000
1000
0000
,
0001
0000
0010
0000
0100
0000
0000
1001
0000
0000
1000
0000
0010
0000
0000
1100
,
0000
0000
0001
0000
0010
0000
0000
0000
0001
0100
0001
1000
0010
0000
0000
0000
,
0100
0000
0001
0000
0010
0000
0000
1001
0000
0000
1000
0000
0010
0000
0000
0000
,
1001
1000
0100
0001
0100
0010
0001
1000
,
0010
0001
0010
0100
1000
0100
0001
0010
,
0100
0000
1000
0000
0010
0000
0100
0000
0001
0000
0001
0000
0010
0001
0000
0000
,
1000
0000
0010
0000
0100
0001
0100
0001
0000
0000
0010
0000
0100
1000
0100
1000
,
0010
0000
0100
0000
0001
0000
1000
0000
0100
0010
0001
0010
0000
0000
0001
1000
,
0001
0100
0010
1000
0001
0010
0100
1000
,
0001
0100
0001
0000
1000
0100
1000
0000
0001
0010
0001
0000
1000
0010
1000
0000
,
1001
1001
1001
1001
,
1100
0000
0000
0101
0000
0000
1001
0000
0000
0000
0000
0000
0220
0000
0000
0000
,
0000
0000
0000
0000
,
0330
0000
0000
0000
;

//--------------- dance-single - forcednature ----------------
#NOTEDATA:;
#STEPSTYPE:dance-single;
#DESCRIPTION:forcednature;
#CREDIT:forcednature;
#DIFFICULTY:Challenge;
#METER:18;
#RADARVALUES:0,0,0,0,0;
#NOTES:
0000
0000
0000
0000
,
0000
0000
0000
0000
,
0001
0100
0010
1000
0001
1000
0100
0010
0100
1000
0001
0100
0010
1000
0001
0010
,
0001
1000
0010
0100
0001
1000
0100
0010
0001
1000
0001
0100
0010
1000
0001
1000
,
0100
0010
0001
0000
0100
0010
1000
0001
1000
0000
1000
0000
1000
0100
0010
0001
,
0100
0001
0010
0100
0010
0001
0010
0001
1000
0010
0100
0001
1000
0010
1000
0010
,
1000
0100
0010
0001
0100
0010
1000
0001
1000
0010
0100
0001
0010
0100
1000
0001
,
0100
0000
0000
0001
0000
0000
1000
0000
0000
0010
0000
0000
1000
0000
0000
0100
0000
0000
0010
0000
0000
0001
0000
0000
1000
0000
0001
0000
1000
0000
0001
0000
0000
1000
0000
0000
0010
0000
0000
0100
0000
0000
0001
0000
0000
0000
0000
0000
,
2002
3003
0220
0330
,
0001
0000
0100
0000
0001
0000
0100
0000
0000
0001
0000
0000
1000
0000
0100
0000
1000
0000
0100
0000
0000
1000
0000
0000
0001
0000
1000
0000
0001
0000
1000
0000
0000
0000
0000
0000
2002
0000
0000
0000
3003
0000
0000
0000
0000
0000
0000
0000
,
0101
0000
0001
0000
1000
0100
0010
0001
0000
0100
0010
0000
1000
0001
0010
0001
,
0000
0000
0000
1000
0000
0000
0010
0000
0000
0000
0000
0000
0100
0000
0000
0001
0000
0000
1000
0000
0000
0000
0000
0000
0001
0000
0100
0000
0001
0000
0100
0000
0000
0001
0000
0000
1000
0000
0100
0000
1000
0000
0100
0000
0000
1000
0000
0000
,
0010
0000
0100
0000
0001
0010
0100
0010
0000
0001
1000
0000
0010
1000
0001
0100
,
0000
0000
0000
0010
0000
0000
1000
0000
0000
0000
0000
0000
0100
0000
0000
0010
0000
0000
0001
0000
0000
0000
0000
0000
0100
0000
0001
0000
1000
0000
0010
0000
0000
0000
0000
0000
1000
0000
0100
0000
0010
0000
0001
0000
0000
0000
0000
0000
,
1001
0000
1000
0000
0010
0100
0001
0010
0000
0100
1000
0000
0001
0100
0010
1000
,
0000
0000
0000
0001
0000
0000
0010
0000
0000
0000
0000
0000
0001
0000
0000
0100
0000
0000
0010
0000
0000
0000
0000
0000
0100
0000
0001
0000
0100
0000
0001
0000
0000
1000
0000
0000
0100
0000
1000
0000
0100
0000
1000
0000
0000
0001
0000
0000
,
0100
0000
0010
0000
1000
0100
0010
0001
0000
0100
0010
0000
1000
0010
1000
0001
,
0000
0000
0000
0010
0000
0000
0100
0000
0000
0000
0000
0000
0010
0000
0000
0001
0000
0000
1000
0000
0000
0001
0000
0000
0100
0000
0010
0000
0100
0000
0010
0000
0000
0000
0000
0000
1001
0000
0000
0000
0000
0000
0000
0000
0000
0000
0000
0000
,
0001
0000
1000
0100
0010
0001
0010
0000
0100
1000
0001
0100
0010
0000
0100
0000
,
0010
1000
0001
0000
0010
0001
1000
0000
0100
0010
0001
1000
0010
0100
0010
0100
,
0001
1000
0000
0001
0010
0000
0100
1000
0100
0010
0001
1000
0020
0000
0030
0000
,
0100
0001
0100
0001
1000
0100
1000
0100
0010
0000
0001
1000
0020
0000
0030
0000
,
0100
0001
0100
0001
1000
0100
1000
0100
0010
0000
0100
0000
0220
0000
0330
0000
,
0001
0100
0001
0100
0010
1000
0010
1000
0100
0000
0010
0001
0200
0000
0300
0000
,
0010
0000
1000
0001
0010
0000
0100
0000
0010
0001
1000
0010
0100
0001
1000
0100
,
0010
0000
0000
0110
0000
0000
1001
0000
1000
0100
0010
0001
0200
0000
0000
0000
,
0301
0000
0100
0000
0010
0000
1000
0000
1100
0000
0000
0011
0000
0000
0000
0000
,
1000
0001
0100
0001
1000
0010
1000
0100
0010
0001
0010
0100
1000
0010
0100
0001
,
0010
0000
0001
0000
0100
0000
0010
0000
1001
0000
0000
0110
0000
0000
0000
0000
,
0001
0010
0100
1000
0001
1000
0010
0100
0001
0010
0100
1000
0010
0100
0001
1000
,
0100
0010
0001
1000
0000
1000
0001
0000
0100
0010
1000
0001
0000
0001
1000
0000
,
0001
0000
0100
0000
1000
0000
0100
0000
0010
0000
1000
0001
0000
0000
1000
0100
,
0010
0000
0000
0011
0000
0000
0001
0100
0010
0000
0000
1010
0000
0000
1000
0001
,
1000
0000
0100
0000
0010
0001
0000
0001
1000
0100
0010
0001
1000
0010
0100
0001
,
0100
0001
0100
0001
1000
0000
0100
1000
0100
1000
0001
0000
1000
0001
1000
0001
1000
0001
0020
0000
0000
0030
0000
0000
,
0101
0000
1010
0000
0110
0000
1001
0000
1000
0100
0010
0001
0000
0000
0000
0000
,
0011
0000
1001
0000
1010
0000
1001
0000
1000
0001
0100
0010
0000
0000
0000
0000
,
1010
0000
1100
0000
0011
0000
0101
0000
0001
1000
0001
0010
0000
0000
0000
0000
,
0110
0000
0110
0000
1001
0000
1001
0000
0002
0203
0320
2030
3000
0000
0000
0000
,
1010
0000
0101
0000
0011
0000
0110
0000
0100
1000
0001
0100
0000
0000
0000
0000
,
0010
1000
0100
0010
0001
0000
0100
0001
2000
3200
0320
0230
0300
0000
0000
0000
,
0010
0001
0010
0001
0100
0001
0100
0001
1000
0010
1000
0010
1000
0100
1000
0100
,
0010
0000
0000
1001
0000
0000
0110
0000
1001
0000
0001
0100
0010
1000
0010
1000
,
0100
0000
0010
0000
0001
1000
0000
2002
0000
0000
0000
0000
3003
0000
0001
0010
,
0100
1000
0100
0010
0100
0001
0100
0010
0100
1000
0100
0010
0100
0001
0100
0010
,
0100
0000
1000
0001
0100
0000
0001
1000
0100
0010
0001
1000
0001
0100
0010
1000
,
0001
0100
0010
0100
1000
0100
0010
0100
0001
0100
0010
0100
1000
0100
0010
0000
,
0000
0000
1001
0000
0000
0000
0001
0100
0010
1000
0100
0010
0100
1000
0001
0100
,
0010
0000
0100
1000
0100
0010
0100
0001
0010
0000
0001
0010
0100
0010
1000
0010
,
0100
0010
0001
1000
0010
0100
0001
1000
0001
0010
0100
1000
0100
0010
0001
1000
,
0001
0000
0010
0000
0001
0000
0010
0000
0000
0001
0000
0000
1000
0000
0010
0000
1000
0000
0010
0000
0000
1000
0000
0000
0001
0000
1000
0000
0001
0000
1000
0000
0000
0001
0000
0000
0100
0000
0000
0010
0000
0000
1000
0000
0000
0001
0000
0000
,
0010
0000
0100
1000
0001
0100
0010
1000
0000
0001
0010
0100
1000
0100
0010
0001
,
0000
0100
0001
1000
0100
1000
0001
0100
0010
0000
0010
0000
0010
0010
0000
0000
,
1001
0000
0001
0100
0010
1000
0100
0010
0000
0100
1000
0001
0100
0001
1000
0100
,
0000
0000
0011
0000
0000
0101
0000
0000
1010
0000
0000
1100
0000
0000
1001
0000
,
0110
0000
0001
1000
0100
0010
0001
0100
0000
0010
1000
0001
0010
0001
0100
0010
,
0000
1000
0100
1000
0010
0100
0001
0010
0100
1000
0100
0010
0100
1000
0000
0000
,
0110
0000
1000
0001
0010
0100
1000
0001
0100
0001
0100
0001
1000
0100
1000
0100
,
0010
0001
0100
0010
1000
0001
0100
0001
1000
0100
1000
0001
0100
0010
1000
0001
,
0010
0100
0010
0001
0100
0010
1000
0100
1000
0001
0100
0001
1000
0100
0010
0001
,
0100
0010
1000
0000
0100
0010
0001
0100
0010
0000
0010
0000
0010
1000
0001
0010
,
0100
0010
0001
0100
0010
1000
0001
1000
0100
1000
0010
0100
0001
0010
0001
0010
,
0100
0010
0001
0100
0010
1000
0001
1000
0100
0010
0001
0100
0001
0010
0001
0100
,
0010
1000
0001
1000
0100
0010
0001
0100
0010
1000
0001
1000
0100
0010
0001
1000
,
0100
1000
0010
0000
0100
0001
0010
0000
0100
1000
0001
0000
0100
0001
1000
0000
,
2200
3300
0202
0303
2020
3030
0022
0033
,
2002
0000
0000
0000
0000
3003
0000
0000
0000
0220
0000
0000
0000
0000
0330
0000
0000
0000
2002
0000
0000
0000
0000
0000
0000
0000
0000
0000
3003
0000
0000
0000
0001
0000
1000
0000
0002
0000
0000
0000
0000
0000
0000
0000
0000
0000
0000
0000
,
0000
0000
0000
0000
,
0003
0000
0000
0000
;

//--------------- dance-double - forcednature ----------------
#NOTEDATA:;
#STEPSTYPE:dance-double;
#DESCRIPTION:forcednature;
#CREDIT:forcednature;
#DIFFICULTY:Easy;
#METER:7;
#RADARVALUES:0,0,0,0,0;
#NOTES:
00000000
00000000
00000000
00000000
,
00000000
00000000
00000000
00000000
,
00001000
00010000
00000100
00010000
,
00001000
01000000
00010000
01000000
,
00100000
00100000
10000000
10000000
,
01000000
00100000
01000000
00100000
,
00001000
00010000
00000100
00001000
,
00000010
00001000
00000001
00000000
,
00001001
00000000
00000110
00000000
,
00001000
00010000
00022000
00033000
,
00001000
01000000
00010000
01000000
,
00001000
01000000
00010000
00000000
,
00001000
00000100
00010000
00000100
,
00001000
00000100
00010000
00000000
,
00001000
00100000
00010000
00100000
,
00001000
00100000
00010000
00000000
,
00001000
00000010
00010000
00000010
,
00001000
00000010
00010000
00011000
,
00001000
01000000
00010000
01000000
,
00001000
00100000
00010000
00100000
,
00001000
00010000
00000100
00010000
,
00000010
00001000
00000010
00000010
,
00000100
00001000
00010000
00100000
,
10000000
01000000
00010000
00001000
,
00000010
00000100
00001000
00000100
,
00010000
00010000
00001000
00000000
,
01000000
00010000
01000000
00010000
,
20000000
32000000
03200000
00320000
,
01030000
00001000
00010000
00000100
,
00002000
00003020
00000230
00000302
,
00000013
00000010
00000100
00000100
,
00010000
00001000
01000000
00010000
,
00100000
00000000
00000000
00100000
00000000
00000000
00000000
00000000
01000000
00000000
00000000
01000000
00000000
00000000
00000000
00000000
,
10000000
00010000
10000000
00000000
00010000
00000000
00000000
00000000
,
01000000
01000000
00001000
00011000
,
00010000
00000000
00000100
00000000
00010000
00000100
00010000
00000000
,
00001000
00000000
00100000
00000000
00001000
00100000
00001000
00000000
,
00010000
00000000
00000010
00000000
00010000
00000010
00010000
00000000
,
00001000
00000000
01000000
00000000
00001000
00001000
00001000
00000000
,
01000000
00000000
00010000
00000000
01000000
00010000
01000000
00000000
,
00001000
00000000
00010000
00000000
00001000
00010000
00001000
00000000
,
00000100
00000110
00000010
00000110
,
00000100
00000000
00000000
00000100
00000000
00000000
00000001
00000000
00001000
00000000
00000000
00000000
00000010
00000000
00000000
00000000
,
00010000
00001000
00100000
00010000
,
00000000
01000000
00000000
01000000
00000000
01000000
00000000
01000000
,
00100000
10000000
00010000
00100000
,
00000000
00001000
00000000
00001000
00000000
00001000
00000000
00001000
,
00010000
00000010
00001000
00000010
,
00000000
00000100
00000000
00000100
00000000
00000100
00000000
00000100
,
00000001
00000010
00000100
00010000
,
00001000
00010000
00001000
00000000
00010000
00001000
00010000
00000000
,
00100000
01000000
00010000
01000000
,
00100000
01000000
00010000
00000000
,
00001000
00000100
00000010
00000100
,
00001000
00000000
00000010
00000000
00000000
00000010
00000000
00000000
00000010
00000000
00000000
00000010
00000000
00000000
00000010
00000000
,
00010000
00001000
00100000
00001000
,
00010000
00001000
00100000
00000000
,
01000000
10000000
00010000
10000000
,
10010000
00010000
01000000
00010000
,
00100000
00001000
00010000
00000010
,
00001000
00000100
00000010
00000100
,
00001000
00000001
00000100
00000001
,
00000010
00000100
00010000
00000100
,
00001000
00000010
00001000
00010000
,
01000000
00010000
00100000
00010000
,
01000000
01000000
00001000
00001000
,
00010000
00000000
00000000
00010000
00000000
00000000
00000100
00000000
00000000
00000000
00000000
00000000
00002002
00000000
00000000
00000000
,
00000000
00000000
00000000
00000000
,
00003003
00000000
00000000
00000000
;

//--------------- dance-double - forcednature ----------------
#NOTEDATA:;
#STEPSTYPE:dance-double;
#DESCRIPTION:forcednature;
#CREDIT:forcednature;
#DIFFICULTY:Medium;
#METER:11;
#RADARVALUES:0,0,0,0,0;
#NOTES:
00000000
00000000
00000000
00000000
,
00000000
00000000
00000000
00000000
,
00001000
01000000
00000000
00010000
00000000
10000000
00000000
01000000
,
00100000
00010000
00000000
01000000
00001000
00010000
00000000
00000100
,
00001000
00000000
00001000
00000000
00000000
00000000
00000001
00000000
00000100
00000000
00000100
00000000
00000000
00000010
00000000
00000000
,
00001000
00000001
00001000
00000000
00000001
00000010
00000001
00000000
,
00000100
00000010
00001000
00000000
00000100
00010000
00001000
01000000
,
00010000
00010000
10000000
00000000
01000000
00100000
01000000
00000000
,
10010000
00000000
01100000
00000000
,
00010000
01000000
00001000
00010000
00000100
00010000
00001000
01000000
00010000
00100000
00000000
00000000
,
01000000
00000000
10000000
00000000
00010000
00000000
00000000
01000000
00000000
00000000
00100000
00000000
00010000
00000000
00000000
00001000
,
00000000
00000000
00000010
00000000
00000100
00000000
00000000
00000000
00001000
00000000
00000001
00001000
00000001
00000000
00000000
00000000
,
00000100
00000000
00000010
00000000
00000100
00000000
00000000
00001000
00000000
00000000
00010000
00000000
01000000
00000000
00000000
00100000
,
00000000
00000000
00010000
00000000
10000000
00000000
00000000
00000000
00100000
01000000
00100000
00000000
01000000
00000000
00000000
00000000
,
00010000
00000000
10000000
00000000
01000000
00000000
00000000
00100000
00000000
00000000
00001000
00000000
00010000
00000000
00000000
00000010
,
00000000
00000000
00001000
00000000
00000001
00000000
00000000
00000000
00000010
00000100
00000010
00000000
00000100
00000000
00000000
00000000
,
00001000
00000000
00000001
00000000
00000100
00000000
00000000
00000010
00000000
00000000
00010000
00000000
00001000
00000000
00000000
00100000
,
00000000
00000000
00010000
00000000
01000000
00000000
00000000
00000000
00100000
10000000
00100000
00000000
10010000
00000000
00000000
00000000
,
10000000
01000000
10000000
00100000
10000000
01000000
00100000
00000000
,
01000000
10000000
00010000
01000000
00001000
00010000
00000100
00000000
,
00001000
00000001
00000100
00000010
00001000
00000100
00000010
00000000
,
00000100
00001000
00000001
00000100
00000010
00001000
00000001
00000000
,
00000010
00000010
00000010
00000000
00000100
00001000
00000010
00000000
,
00000100
00000100
00000100
00000000
00001000
00010000
00100000
00000000
,
01000000
00010000
01000000
00000000
00100000
10000000
00100000
00000000
,
10000000
00000000
00000000
10000000
00000000
00000000
10000000
00000000
01000000
00000000
00100000
00000000
00010000
00000000
00000000
00000000
,
01000000
00000000
00001000
00000000
00010000
00000000
00000010
00000000
00001000
00000000
00000000
00001000
00000000
00000000
00000000
00000000
,
00000001
00000010
00000100
00001000
00000100
00000010
00000001
00000000
,
00000100
00000000
00000010
00000000
00010000
00000000
00001000
00000000
00100000
00000000
00000000
00100000
00000000
00000000
00000000
00000000
,
01000000
10000000
01000000
00010000
01000000
00100000
00001000
00000000
,
00010000
00010000
00010000
00000000
00001000
00001000
00001000
00000000
,
00010000
00000100
00010000
00001000
00010000
00000010
00010000
00000000
,
00001000
00000000
00000000
01001000
00000000
00000000
00000000
00000000
00010000
00000000
00000000
00010100
00000000
00000000
00000000
00000000
,
00001000
00000000
00010000
00000000
00001000
00010000
00000000
00002000
00000000
00000000
00000000
00000000
00000000
00000000
00000000
00000000
,
00013000
00010000
00010000
00011000
,
00001000
01000000
00010000
00100000
02000000
20000000
33000000
00000000
,
10000000
00100000
01000000
00010000
00200000
00002000
00303000
00000000
,
00001000
00010000
00000010
00001000
00000002
00000020
00000033
00000000
,
00000010
00000000
00000100
00000000
00001000
00000000
00000001
00000000
00000100
00000010
00000100
00000010
00000000
00000000
00000000
00000000
,
00000010
00001000
00010000
01000000
00200000
20000000
30300000
00000000
,
10000000
01000000
00100000
00010000
02000000
00002000
03003000
00000000
,
00010000
00010000
00010100
00000000
00001000
00001000
01001000
00000000
,
00010000
00000000
00000000
00001000
00000000
00000000
00010000
00000000
00001000
00000000
00000000
00000000
00011000
00000000
00000000
00000000
,
00001000
00010000
01000000
00100000
00020000
00000000
00030000
00000000
,
00000000
10010000
00000000
10010000
00000000
10010000
00000000
10010000
,
10000000
00100000
10000000
01000000
00020000
00000000
00030000
00000000
,
00000000
00011000
00000000
00011000
00000000
00011000
00000000
00011000
,
00001000
00010000
00000100
00001000
00000002
00000000
00000003
00000000
,
00000000
00001001
00000000
00001001
00000000
00001001
00000000
00001001
,
00001000
00000010
00001000
00000001
00000020
00000000
00000030
00000000
,
00000000
00000110
00000000
00000110
00000000
00000110
00000000
00000110
,
00000100
00000000
00010000
00000000
00001000
00000000
00000000
01001000
00000000
00000000
01000000
00000000
00010000
00000000
00000000
10010000
,
00000000
10000000
01000000
00000000
00100000
00100000
00100000
00000000
,
00001000
00000000
00010000
00000000
00000010
00000000
00000000
00001010
00000000
00000000
00001000
00000000
00000001
00000000
00000000
00001001
,
00000000
00000000
00000001
00000000
00000000
00000010
00000000
00000000
00000100
00000000
00000000
00001000
00000000
00000000
00010000
00000000
,
00100000
00000000
01000000
00000000
10000000
00000000
00000000
10010000
00000000
00000000
10000000
00000000
00100000
00000000
00000000
01010000
,
00000000
01000000
00001000
00000000
00010000
00000100
00010000
00000000
,
00001000
00000000
00000100
00000000
00000001
00000000
00000000
00001001
00000000
00000000
00001000
00000000
00000100
00000000
00000000
00000000
,
00000010
00000100
00001000
00000000
00000001
00000100
00000010
00010000
,
00001000
00100000
00000000
00100000
00010000
01000000
00000000
00100000
,
10000000
00000000
01000000
00000000
00000000
00000000
00100000
00000000
00010000
00000000
00010000
00000000
00000000
01000000
00000000
00000000
,
00001000
00000000
00010000
00000000
00000000
00000100
00000000
00000100
00000000
00000000
00001000
00000000
00000000
00000001
00000000
00000100
,
00000000
00000010
00000000
00001000
00000100
00000010
00000100
00001000
,
00000000
00000010
00000000
00010000
00001000
00100000
00010000
00000000
,
01000000
00100000
10000000
00000000
01000000
00100000
00010000
00000000
,
01001000
00010100
00101000
00010010
,
00011000
00000000
00000000
00011000
00000000
00000000
00011000
00000000
00000000
00000000
00000000
00000000
00022000
00000000
00000000
00000000
,
00000000
00000000
00000000
00000000
,
00033000
00000000
00000000
00000000
;

//--------------- dance-double - forcednature ----------------
#NOTEDATA:;
#STEPSTYPE:dance-double;
#DESCRIPTION:forcednature;
#CREDIT:forcednature;
#DIFFICULTY:Hard;
#METER:15;
#RADARVALUES:0,0,0,0,0;
#NOTES:
00000000
00000000
00000000
00000000
,
00000000
00000000
00000000
00000000
,
00010000
00001000
00010000
01000000
00100000
10000000
00100000
00010000
,
01000000
00001000
00010000
00000100
00000010
00001000
00000010
00000001
,
00000100
00000000
00001000
00000000
00010000
00000000
00100000
00000000
10000000
00000000
10000000
00000000
10000000
00010000
00000000
00000000
,
10000000
00000000
01000000
00000000
00100000
00010000
00100000
00010000
00000000
00000000
01000000
00000000
00001000
00010000
00001000
00010000
,
00000100
00000001
00000100
00000010
00000001
00000100
00001000
00010000
,
00100000
00000000
00100000
00000000
10000000
00000000
10000000
00000000
01000000
00100000
01000000
00100000
00001000
00000000
00000000
00000000
,
00020200
00030300
02002000
03003000
,
00001000
00000000
01000000
00000000
00010000
00000000
00100000
00000000
00001000
00000000
00010000
00000000
00000010
00001000
00000010
00001000
00000000
00000000
00001001
00000000
00000000
00000000
00000000
00000000
,
00000001
00000000
00000010
00000000
00000100
00000000
00000000
00010100
00000000
00000000
00010000
00000000
00001000
00000000
00000000
01001000
,
00000000
00000000
01000000
00000000
00010000
00000000
00000000
00000000
10000000
01000000
00100000
00000000
00010000
01000000
00100000
00000000
,
10000000
00000000
00010000
00000000
00100000
00000000
00000000
01100000
00000000
00000000
01000000
00000000
00010000
00000000
00000000
00011000
,
00000000
00000000
00000000
00001000
00000000
00000000
00000010
00000000
00000000
00000000
00000000
00000000
00000001
00000100
00000001
00000100
00000000
00000000
00000010
00001000
00000010
00001000
00000000
00000000
,
00000100
00000000
00010000
00000000
00001000
00000000
00000000
00011000
00000000
00000000
00010000
00000000
00100000
00000000
00000000
01100000
,
00000000
00000000
01000000
00000000
00010000
00000000
00000000
00000000
10000000
01000000
00100000
00010000
00100000
01000000
10000000
00000000
,
00010000
00000000
01000000
00000000
00001000
00000000
00000000
00011000
00000000
00000000
00010000
00000000
00000100
00000000
00000000
00000110
,
00000000
00000000
00000000
00000010
00000000
00000000
00001001
00000000
00000000
00000000
00000000
00000000
00000001
00001000
00000001
00001000
00000000
00000000
00001001
00000000
00000000
00000000
00000000
00000000
,
00000001
00000100
00001000
00000100
00000010
00001000
00000100
00000010
,
00010000
00000000
00100000
00000000
10000000
00000000
00100000
00000000
00010000
00000000
01000000
00000000
00100000
10000000
00100000
10000000
,
01000000
00010000
01000000
10000000
00010000
00100000
00110000
00000000
,
00001000
01000000
00001000
00000000
00010000
00000100
00010000
00000000
00001000
00000000
00010000
00000010
00020000
00000000
00000000
00000000
,
00031000
00000000
00001000
00000000
00000010
00000000
00000010
00000000
00000001
00001000
00000001
00000000
00001001
00000000
00000000
00000000
,
00001000
00000000
00001000
00000000
00000010
00000000
00000010
00000000
00010000
00001000
00010000
00000000
00011000
00000000
00000000
00000000
,
01000000
00000000
00010000
10000000
00000000
00010000
10000000
00000000
01000000
00100000
00010000
00000000
00100000
00001000
00010000
00000000
,
00011000
00000000
00000000
00011000
00000000
00000000
00011000
00000000
00010000
00000100
00010000
00000100
00001000
00000001
00001000
00000001
,
00000100
00000000
00001000
00000000
00010000
00000000
00100000
00000000
01100000
00000000
00000000
10010000
00000000
00000000
00000000
00000000
,
10000000
01000000
00010000
00000100
00001000
00000001
00000100
00000000
,
00000010
00000000
00010000
00000000
00001000
00000000
00000010
00000000
00000100
00000000
00000000
00001001
00000000
00000000
00000000
00000000
,
00000001
00000100
00001000
01000000
00010000
10000000
01000000
00000000
,
10000000
00100000
10000000
00100000
01000000
00000000
00000000
00000000
00010000
00100000
00010000
00100000
00001000
00000000
00000000
00000000
,
00010000
00000000
00000100
00000000
00000010
00000000
00001000
00000000
00000010
00000000
00000001
00001000
00000000
00000000
00000001
00000100
,
00000010
00000000
00000000
00000110
00000000
00000000
00000100
00000001
00001000
00000000
00000000
00001100
00000000
00000000
00000100
00010000
,
00001000
00000000
00001000
00000000
00001000
01000000
00000000
00010000
20000000
00000000
00000000
00000000
01000000
00000000
30000000
00000000
,
10000000
00000000
01000000
00000000
00010000
00000000
00001000
00000000
00000100
00000000
00000001
00000000
00001000
00000001
00001000
00000001
00000000
00000000
00001001
00000000
00000000
00000000
00000000
00000000
,
00000001
00000000
00000100
00000000
00001000
00000000
00010000
00000000
00100000
10000000
00100000
10000000
00000000
00000000
00000000
00000000
,
10000000
00000000
01000000
00000000
00010000
00000000
00001000
00000000
00000010
00000001
00000010
00000001
00000000
00000000
00000000
00000000
,
00000001
00000000
00000100
00000000
00001000
00000000
00010000
00000000
01000000
10000000
01000000
10000000
00000000
00000000
00000000
00000000
,
10000000
00000000
01000000
00000000
00010000
00000000
00001000
00000000
00000200
00000302
00000023
00000032
00000003
00000000
00000000
00000000
,
00000001
00000000
00000100
00000000
00001000
00000000
00010000
00000000
00100000
10000000
00100000
10000000
00000000
00000000
00000000
00000000
,
10000000
00000000
01000000
00000000
00010000
00000000
00001000
00000000
00000020
00000032
00000203
00000302
00000003
00000000
00000000
00000000
,
00000001
00001000
00010000
00000000
10000000
00010000
00001000
00000000
,
00011000
00000000
00000000
00011000
00000000
00000000
00011000
00000000
00011000
00000000
00000000
00000000
01100000
00000000
00000000
00000000
,
10000000
00000000
01000000
00000000
00100000
00010000
00000000
02000000
00000000
00000000
00000000
00000000
00000000
00000000
03100000
00000000
,
10000000
01000000
00010000
00000100
00001000
00000010
00000001
00000010
,
00000100
00000000
00000001
00000000
00001000
00000100
00000000
00000020
00000000
00000000
00000000
00000000
00000031
00000000
00001000
00000000
,
00000001
00000100
00001000
01000000
00010000
00100000
10000000
00100000
,
00010000
00000000
01000000
00000000
00100000
10000000
00000000
00010000
00000000
00000000
10000000
00000000
01000000
00000000
00010000
00000000
,
00001000
00000100
00001000
00100000
00001000
00000010
00001000
01000000
,
00100000
00000000
10000000
00010000
10000000
00000000
01000000
00100000
00000000
00000000
00001000
00000000
00010000
00000000
00000100
00000000
,
00000010
00000001
00000100
00000010
00001000
00000100
00010000
00001000
01000000
00010000
10000000
01000000
,
00100000
00000000
00001000
00000000
00010000
00000000
00000000
00011000
00000000
00000000
00001000
00000000
00000100
00000000
00000000
00000110
,
00000000
00000000
00000010
00000000
00001000
00000000
00000000
00000000
00000100
00000010
00000001
00000100
00000010
00000000
00000000
00000000
,
00010000
00000000
00000100
00000000
00001000
00000000
00000000
00001001
00000000
00000000
00000001
00000000
00000100
00000000
00000000
00000110
,
00000000
00000000
00000010
00000000
00000000
00010000
00000000
00000000
00100000
00000000
00000000
10000000
00000000
00000000
01000000
00000000
,
00100000
00000000
00001000
00000000
00010000
00000000
00000000
00010100
00000000
00000000
00000100
00000000
00000010
00000000
00000000
00000011
,
00000000
00000000
00000001
00000000
00000100
00000000
00000000
00000000
00001000
00010000
00001000
01000000
00010000
00000000
00000000
00000000
,
10000000
00000000
01000000
00000000
00010000
00000000
00000000
00011000
00000000
00000000
00001000
00000000
00100000
00000000
00000000
00000000
,
01000000
00001000
00000100
00001000
00000010
00010000
00001000
00100000
,
00001000
00010000
00100000
10000000
01000000
00010000
00001000
00000010
,
00000001
00000000
00000100
00000000
00001000
00000000
00000100
00000000
00000001
00000000
00000001
00000000
00001000
00000100
00000000
00000000
,
00010000
00000000
00001000
00000000
01000000
00010000
01000000
00010000
00000000
00000000
00100000
00000000
00001000
00010000
00001000
00010000
,
00000010
00000000
00000100
00000000
00001000
00000000
00000100
00000000
00000001
00000010
00000100
00000010
00000000
00000000
00000001
00001000
,
00000001
00000100
00001000
00010000
01000000
10000000
00100000
01000000
,
00001000
00100000
00001000
00000000
00010000
00000100
00010000
00000000
00001000
01000000
00001000
00000000
00010000
00000010
00010000
00000000
,
00010100
00010010
01001000
00101000
,
00010100
00000000
00000000
01001000
00000000
00000000
00011000
00000000
00000000
00000000
00000000
00000000
00022000
00000000
00000000
00000000
,
00000000
00000000
00000000
00000000
,
00033000
00000000
00000000
00000000
;

//--------------- dance-double - forcednature ----------------
#NOTEDATA:;
#STEPSTYPE:dance-double;
#DESCRIPTION:forcednature;
#CREDIT:forcednature;
#DIFFICULTY:Challenge;
#METER:18;
#RADARVALUES:0,0,0,0,0;
#NOTES:
00000000
00000000
00000000
00000000
,
00000000
00000000
00000000
00000000
,
00010000
00001000
00010000
00000100
00001000
00000001
00000100
00000001
00001000
00000010
00010000
00001000
00100000
00010000
00100000
01000000
,
10000000
00010000
10000000
00100000
01000000
00010000
01000000
00001000
00010000
00000100
00001000
00000100
00000010
00000001
00001000
00000001
,
00000100
00000010
00001000
00000000
00000010
00010000
00001000
01000000
00010000
00000000
00010000
00000000
10000000
01000000
00100000
00010000
,
00100000
00001000
00010000
00001000
01000000
00010000
10000000
00010000
10000000
01000000
00100000
00010000
01000000
00010000
01000000
00001000
,
00010000
00000100
00001000
00000100
00000010
00000001
00000100
00000010
00000100
00000001
00000010
00000100
00001000
00000010
00010000
00001000
,
00010000
00000000
00000000
00000100
00000000
00000000
00001000
00000000
00000000
00000100
00000000
00000000
00010000
00000000
00000000
00001000
00000000
00000000
01000000
00000000
00000000
00010000
00000000
00000000
10000000
00000000
01000000
00000000
10000000
00000000
01000000
00000000
00000000
00100000
00000000
00000000
00010000
00000000
00000000
00100000
00000000
00000000
00001000
00000000
00000000
00000000
00000000
00000000
,
00020200
00030300
02002000
03003000
,
00010000
00000000
00000100
00000000
00010000
00000000
00000100
00000000
00000000
00010000
00000000
00000000
00001000
00000000
01000000
00000000
00001000
00000000
01000000
00000000
00000000
00001000
00000000
00000000
00010000
00000000
00001000
00000000
00010000
00000000
00001000
00000000
00000000
00000000
00000000
00000000
00022000
00000000
00000000
00000000
00033000
00000000
00000000
00000000
00000000
00000000
00000000
00000000
,
01001000
00000000
01000000
00000000
00100000
10000000
00010000
00100000
00000000
00000000
01100000
00000000
01000000
10000000
00010000
01000000
,
00000000
00000000
00000000
00000000
00000000
00000000
01001000
00000000
00000000
00000000
00000000
00000000
00001000
00000000
00000000
00010000
00000000
00000000
00000100
00000000
00000000
00000000
00000000
00000000
00000010
00000000
00000001
00000000
00000010
00000000
00000001
00000000
00000000
00000010
00000000
00000000
00000100
00000000
00001000
00000000
00000100
00000000
00001000
00000000
00000000
00000100
00000000
00000000
,
00010000
00000000
00001000
00000000
01000000
00010000
10000000
01000000
00000000
00000000
01100000
00000000
00100000
00001000
00010000
00001000
,
00000000
00000000
00000000
00000000
00000000
00000000
00010100
00000000
00000000
00000000
00000000
00000000
00000100
00000000
00000000
00001000
00000000
00000000
00000001
00000000
00000000
00000000
00000000
00000000
00001000
00000000
00000100
00000000
00001000
00000000
00000100
00000000
00000000
00000000
00000000
00000000
00010000
00000000
00001000
00000000
00010000
00000000
00001000
00000000
00000000
00000000
00000000
00000000
,
01001000
00000000
01000000
00000000
00010000
10000000
01000000
00100000
00000000
00000000
00110000
00000000
00010000
00100000
00001000
00010000
,
00000000
00000000
00000000
00000000
00000000
00000000
00011000
00000000
00000000
00000000
00000000
00000000
00010000
00000000
00000000
00000100
00000000
00000000
00001000
00000000
00000000
00000000
00000000
00000000
00000001
00000000
00000100
00000000
00000001
00000000
00000100
00000000
00000000
00000001
00000000
00000000
00001000
00000000
00000100
00000000
00001000
00000000
00000100
00000000
00000000
00001000
00000000
00000000
,
00000010
00000000
00010000
00000000
00001000
00100000
00010000
00100000
00000000
00000000
01100000
00000000
01000000
10000000
00010000
10000000
,
00000000
00000000
00000000
00000000
00000000
00000000
10010000
00000000
00000000
00000000
00000000
00000000
10000000
00000000
00000000
01000000
00000000
00000000
00100000
00000000
00000000
00010000
00000000
00000000
00100000
00000000
00001000
00000000
00100000
00000000
00001000
00000000
00000000
00000000
00000000
00000000
00011000
00000000
00000000
00000000
00000000
00000000
00000000
00000000
00000000
00000000
00000000
00000000
,
00010000
00000000
00000100
00001000
00000100
00000010
00000001
00000000
00000100
00000010
00001000
00000010
00010000
00000000
00001000
00000000
,
00100000
00010000
01000000
00000000
00100000
10000000
01000000
00000000
00100000
00010000
00100000
00001000
00010000
00001000
00010000
00001000
,
01000000
00010000
00000000
10000000
01000000
00000000
10000000
00010000
01000000
00001000
00010000
00000010
00002000
00000000
00003000
00000000
,
00000100
00000010
00000100
00000010
00000001
00001000
00000001
00001000
00000010
00000000
00010000
00001000
00200000
00000000
00300000
00000000
,
01000000
10000000
00100000
10000000
01000000
10000000
00100000
10000000
01000000
00000000
00010000
00000000
00002000
00000000
00003000
00000000
,
00000100
00000001
00000010
00000001
00000100
00000001
00000010
00000001
00000100
00000000
00001000
00000000
00020000
00000000
00030000
00000000
,
00100000
00000000
10000000
00010000
00100000
00000000
01000000
00000000
00100000
00010000
00100000
00001000
00010000
00000100
00001000
00000100
,
00000010
00000000
00000000
00000110
00000000
00000000
00001001
00000000
00000001
00000100
00000010
00001000
00000002
00000000
00000000
00000000
,
00000013
00000000
00000100
00000000
00010000
00000000
00001000
00000000
01001000
00000000
00000000
00010010
00000000
00000000
00000000
00000000
,
00000100
00010000
00001000
00100000
00001000
00010000
00001000
01000000
00010000
10000000
01000000
00100000
01000000
10000000
00010000
01000000
,
00001000
00000000
00010000
00000000
00000100
00000000
00000010
00000000
00000011
00000000
00000000
00001100
00000000
00000000
00000000
00000000
,
00001000
00000001
00000100
00000010
00000100
00000001
00001000
00000100
00000010
00000100
00001000
00000100
00010000
00001000
01000000
00010000
,
10000000
00100000
10000000
00010000
00000000
10000000
01000000
00000000
00100000
00001000
00010000
00001000
00000000
00000100
00000001
00000000
,
00000010
00000000
00001000
00000000
00000010
00000000
00000001
00000000
00001000
00000000
00000010
00010000
00000000
00000000
00001000
01000000
,
00010000
00000000
00000000
10010000
00000000
00000000
10000000
01000000
00100000
00000000
00000000
00110000
00000000
00000000
00010000
01000000
,
00001000
00000000
00010000
00000000
00000100
00000010
00000000
00000010
00000001
00000100
00000010
00001000
00000010
00010000
00001000
01000000
,
00010000
10000000
00010000
10000000
00010000
00000000
01000000
00001000
01000000
00001000
01000000
00000000
00001000
00010000
00001000
00010000
00001000
00010000
00002000
00000000
00000000
00003000
00000000
00000000
,
00010100
00000000
00001100
00000000
00000110
00000000
00000011
00000000
00000001
00001000
00000001
00000100
00000000
00000000
00000000
00000000
,
00001010
00000000
00010010
00000000
00011000
00000000
01001000
00000000
01000000
00010000
10000000
01000000
00000000
00000000
00000000
00000000
,
01100000
00000000
00110000
00000000
00101000
00000000
00011000
00000000
00010000
00000100
00001000
00000100
00000000
00000000
00000000
00000000
,
00000110
00000000
00001001
00000000
00000110
00000000
00001001
00000000
00000002
00000023
00000230
00002300
00003000
00000000
00000000
00000000
,
00010100
00000000
00011000
00000000
01001000
00000000
01010000
00000000
00010000
00100000
00010000
01000000
00000000
00000000
00000000
00000000
,
00100000
10000000
01000000
00100000
00010000
00000000
01000000
00001000
00020000
00030200
00002300
00003200
00000300
00000000
00000000
00000000
,
00000010
00000001
00000010
00000001
00000100
00000001
00000100
00000001
00000010
00000100
00000010
00000100
00001000
00000100
00010000
00001000
,
00010000
00000000
00000000
00011000
00000000
00000000
01001000
00000000
01010000
00000000
00010000
01000000
00100000
10000000
00010000
10000000
,
01000000
00000000
00010000
00000000
00001000
00010000
00000000
00022000
00000000
00000000
00000000
00000000
00033000
00000000
00010000
00000100
,
00001000
00000100
00000010
00000001
00001000
00000001
00000100
00000010
00001000
00000010
00010000
00001000
00010000
00100000
01000000
00100000
,
10000000
00000000
00010000
10000000
01000000
00000000
10000000
00010000
01000000
00100000
10000000
00010000
10000000
01000000
00100000
00010000
,
00100000
00001000
00010000
00000010
00001000
00000010
00000100
00000001
00001000
00000001
00000010
00000100
00001000
00000010
00000100
00000000
,
00000000
00000000
00011000
00000000
00000000
00000000
01000000
00010000
10000000
01000000
00100000
01000000
10000000
00010000
01000000
00010000
,
00100000
00000000
00001000
00010000
00001000
00000010
00000100
00001000
00000001
00000000
00000100
00001000
00010000
00001000
00100000
00010000
,
01000000
00010000
00100000
01000000
10000000
00010000
01000000
00001000
00010000
00001000
00100000
00010000
01000000
00010000
00100000
00001000
,
00010000
00000000
00000100
00000000
00010000
00000000
00000100
00000000
00000000
00001000
00000000
00000000
00000001
00000000
00000100
00000000
00000001
00000000
00000100
00000000
00000000
00000010
00000000
00000000
00010000
00000000
00001000
00000000
00010000
00000000
00001000
00000000
00000000
00100000
00000000
00000000
00010000
00000000
00000000
00100000
00000000
00000000
01000000
00000000
00000000
10000000
00000000
00000000
,
00010000
00000000
01000000
00001000
00010000
00000100
00001000
00000001
00000000
00000100
00000010
00000100
00001000
00010000
00001000
01000000
,
00000000
00100000
10000000
00010000
10000000
01000000
00100000
00001000
00010000
00000000
00010000
00000000
00010000
00010000
00000000
00000000
,
00011000
00000000
00001000
00010000
00000100
00001000
00000100
00000010
00000000
00000001
00000100
00000001
00001000
00000100
00000010
00000100
,
00000000
00000000
00010100
00000000
00000000
00101000
00000000
00000000
00010010
00000000
00000000
01001000
00000000
00000000
00001000
00000000
,
00011000
00000000
00010000
00001000
01000000
00010000
00100000
00010000
00000000
01000000
00100000
10000000
01000000
00100000
00010000
00100000
,
00000000
00001000
00010000
00000010
00001000
00000010
00010000
00001000
00100000
01000000
00100000
00010000
00100000
00001000
00000000
00000000
,
00011000
00000000
00010000
00000100
00001000
00000001
00001000
00000010
00010000
00001000
00010000
00001000
00010000
00001000
00010000
00001000
,
01000000
00010000
01000000
00100000
10000000
00100000
10000000
01000000
00100000
00010000
00100000
00001000
00010000
00000010
00001000
00000010
,
00010000
00001000
00010000
00000100
00001000
00000100
00000010
00000001
00001000
00000001
00000100
00000010
00001000
00000010
00010000
00001000
,
00100000
00010000
00100000
00000000
01000000
10000000
00010000
10000000
00100000
00000000
00100000
00000000
00100000
10000000
00010000
00100000
,
00001000
00010000
00000010
00010000
00001000
00100000
00010000
00100000
01000000
10000000
00010000
01000000
00001000
00010000
00001000
00010000
,
00000100
00001000
00000100
00000010
00000001
00001000
00000001
00000100
00000010
00010000
00001000
01000000
00100000
10000000
01000000
10000000
,
00100000
01000000
00010000
00100000
00001000
00010000
00001000
00100000
00010000
01000000
00001000
00010000
00000100
00001000
00000010
00010000
,
00001000
00010000
00000010
00000000
00000100
00000001
00000010
00000000
00000100
00010000
00001000
00000000
01000000
00010000
10000000
00000000
,
22000000
33000000
00220000
00330000
00002020
00003030
00000202
00000303
,
00002002
00000000
00000000
00000000
00000000
00000000
00000000
00000000
00000000
00003003
00000000
00000000
00000000
00000000
00000000
00000000
00000000
00000000
00000220
00000000
00000000
00000000
00000000
00000000
00000000
00000000
00000000
00000330
00000000
00000000
00000000
00000000
00000000
00000000
00000000
00000000
00022000
00000000
00000000
00000000
00000000
00000000
00000000
00000000
00000000
00000000
00000000
00000000
00000000
00000000
00000000
00000000
00000000
00000000
00000000
00000000
00033000
00000000
00000000
00000000
00000000
00000000
00000000
00000000
00010000
00000000
00000000
00000000
00001000
00000000
00000000
00000000
00020000
00000000
00000000
00000000
00000000
00000000
00000000
00000000
00000000
00000000
00000000
00000000
00000000
00000000
00000000
00000000
00000000
00000000
00000000
00000000
00000000
00000000
00000000
00000000
,
00000000
00000000
00000000
00000000
,
00030000
00000000
00000000
00000000
;
