#VERSION:0.83;
#TITLE:XXanadu#climaXX;
#SUBTITLE:;
#ARTIST:概念;
#TITLETRANSLIT:;
#SUBTITLETRANSLIT:;
#ARTISTTRANSLIT:Gainen;
#GENRE:;
#CREDIT:;
#MUSIC:XXanadu#climaXX.ogg;
#BANNER:XXanadu#climaXX.png;
#BACKGROUND:XXanadu#climaXX-bg.png;
#CDTITLE:./CDTitles/SDVX EXCEED GEAR.png;
#SAMPLESTART:10.247;
#SAMPLELENGTH:15.000;
#SELECTABLE:YES;
#OFFSET:0.000;
#BPMS:0.000=187.000;
#STOPS:;
#TIMESIGNATURES:0.000=4=4;
#BGCHANGES:0.000=../BGAs/20te.mp4=1.000=0=0=0=StretchNoLoop====,
99999.000=-nosongbg-=1.000=0=0=0=StretchNoLoop====
;
#FGCHANGES:;

//--------------- dance-single - forcednature ----------------
#NOTEDATA:;
#STEPSTYPE:dance-single;
#DESCRIPTION:forcednature;
#DIFFICULTY:Beginner;
#METER:5;
#RADARVALUES:0,0,0,0,0;
#CREDIT:forcednature;
#NOTES:
0000
0000
0000
0000
,
0000
0000
0000
0000
,
0000
0000
0000
0000
,
0000
0000
0000
0000
,
0000
0000
0000
0000
,
1000
0000
0000
0000
,
0001
0000
0000
0000
,
0100
0000
0100
0000
,
0100
0000
0000
0000
,
1001
0000
0000
0000
,
0001
0000
0000
0000
,
0010
0000
0000
0000
,
0001
0000
0000
0000
,
1001
0000
0000
0000
,
1000
0000
0000
0000
,
0010
0000
0010
0000
,
0010
0000
0000
0000
,
0110
0000
0000
0000
,
0100
0000
0000
0000
,
0001
0000
0000
0000
,
1000
0000
0000
0000
,
0001
0000
0001
0000
,
0001
0000
0000
0000
,
0010
0000
0100
0000
,
0010
0000
0000
0000
,
1001
0000
0000
0000
,
1000
0000
0010
0000
,
1000
0000
0000
0000
,
0001
0000
0010
0000
,
0001
0000
0000
0000
,
1000
0000
0100
0000
,
1000
0000
0001
0000
,
0100
0000
0000
0000
,
0110
0000
0010
0000
,
1000
0000
0000
0000
,
0110
0000
0010
0000
,
0001
0000
0000
0000
,
1001
0000
0100
0000
,
1001
0000
0010
0000
,
1000
0000
1000
0000
,
0001
0000
0000
0000
,
0100
0000
0001
0000
,
0000
0000
0001
0000
,
0010
0000
0001
0000
,
0000
0000
0001
0000
,
1000
0000
0010
0000
,
0000
0000
0010
0000
,
1000
0000
0100
0000
,
0000
0000
0100
0000
,
0000
0010
0000
0010
,
0000
0001
0000
0001
,
0000
0100
0000
0100
,
0000
0010
0000
0000
,
1001
0000
0000
0000
,
1000
0000
0001
0000
,
0100
0000
0100
0000
,
0010
0000
0000
0000
,
1000
0000
1000
0000
,
0001
0000
0000
0000
,
0010
0000
0100
0000
,
0010
0000
0001
0000
,
1000
0000
0001
0000
,
0100
0000
0000
0000
,
1001
0000
0000
0000
,
0110
0000
0000
0000
,
1000
0000
1000
0000
,
0001
0000
0100
0000
,
0010
0000
0010
0000
,
1000
0000
0001
0000
,
1000
0000
0100
0000
,
0010
0000
0001
0000
,
0000
0100
0000
0000
,
0010
0000
0000
0000
,
1000
0000
1000
0000
,
0001
0000
0010
0000
,
0001
0000
0000
0000
,
0100
0000
0000
0000
,
0010
0000
1000
0000
,
0001
0000
1000
0000
,
0100
0000
0000
0000
,
0010
0000
0000
0000
,
0001
0000
1000
0000
,
0001
0000
0100
0000
,
0010
0000
0000
1000
,
1000
0000
0000
0100
,
0100
0000
0000
0010
,
0010
0000
0000
0001
,
0001
0000
0001
0000
,
0100
0000
0010
0000
,
1000
0000
1000
0000
,
0100
0000
0010
0000
;

//--------------- dance-single - forcednature ----------------
#NOTEDATA:;
#STEPSTYPE:dance-single;
#DESCRIPTION:forcednature;
#DIFFICULTY:Easy;
#METER:9;
#RADARVALUES:0,0,0,0,0;
#CREDIT:forcednature;
#NOTES:
0000
0000
0000
0000
,
0000
0000
0000
0000
,
0000
0000
0000
0000
,
0000
0000
0000
0000
,
0000
0000
0000
0000
,
0001
0001
1000
1000
,
0010
0010
0100
0100
,
0001
0010
0100
1000
,
0010
0100
2002
3003
,
1000
0100
0010
0001
,
0100
0001
1000
0000
,
0010
0100
0001
1000
,
0001
0010
0100
0000
,
1002
0000
1003
0001
,
0100
0010
1000
0000
,
0100
0100
0010
0000
,
0001
1000
0001
0000
,
1001
0000
1000
0010
,
0100
0010
1000
0001
,
0010
0000
0100
0010
,
0001
0100
0010
1000
,
0000
0000
0001
0000
0000
0001
0000
0000
,
1000
0000
0000
1000
0000
0000
0010
0000
,
0100
0001
0010
0001
,
1000
1000
0010
0000
,
1000
0000
0100
0000
,
0010
0100
1000
0100
,
0010
0000
0001
0000
,
0100
0010
1000
1000
,
0001
0000
0010
0000
,
0001
0100
0010
1000
,
1001
0000
0000
0000
0110
0000
0000
0001
,
0000
0001
0000
0000
1000
0000
1000
0000
,
0010
0000
0100
0010
0100
0000
0001
0000
,
1000
0000
0100
0000
,
0010
0000
0100
0010
0100
0000
1000
0000
,
0001
0000
0100
0000
,
0010
0000
1000
0001
1000
0000
0100
0000
,
0010
0000
0001
1000
0001
0000
0100
0000
,
0010
0010
1000
1000
,
0100
0010
0100
0000
0020
0000
0000
0000
,
0031
0000
0000
0000
0100
0000
0000
0001
,
0000
0001
0000
0000
0100
0000
0000
0000
,
0010
0000
0000
0000
1000
0000
0000
0010
,
0000
0010
0000
0000
1000
0000
0000
0000
,
0001
0000
0000
0000
0010
0000
0000
0001
,
0000
0001
0000
0000
0010
0000
0000
0000
,
0100
0000
0000
0000
1000
0000
0000
0100
,
0000
0100
0000
0000
1000
0000
0000
0000
,
0001
0100
0000
0100
,
0001
0010
0000
0010
,
0001
0100
0010
1000
,
0001
1000
0100
0000
,
0110
0000
0010
0000
0000
0010
0000
0000
,
0001
0000
0100
0010
,
1000
0000
0001
0000
,
0010
0100
1000
0001
,
0200
0000
0320
0000
,
2030
0000
3001
0010
,
0001
0100
0010
1000
,
0001
0010
0100
0000
,
0010
0001
1000
0001
,
0100
0010
1000
0000
,
2001
0000
3001
0010
,
0100
1000
0010
0000
,
1000
1000
0100
0100
,
0010
0001
0100
0000
,
0010
0000
1000
0001
,
1000
0100
0010
0000
,
1001
0000
0001
0100
,
0001
1000
0100
0010
,
0000
0000
0100
0000
0000
0100
0000
0000
,
1000
0000
0000
1000
0000
0000
0001
0000
,
0100
0001
1000
0001
,
0010
0010
0100
0000
,
1000
0010
1000
0000
,
0001
0010
0001
0000
,
0100
0010
1000
0001
,
0010
0100
0010
0001
,
0100
0001
1000
0000
,
0100
1000
0001
0000
,
0100
0010
1000
0001
,
1000
0100
0010
0000
,
0001
0000
0000
0001
0000
0000
0001
0000
,
1000
0000
0000
1000
0000
0000
1000
0000
,
0010
0000
0000
0010
0000
0000
0010
0000
,
0100
0000
0000
0100
0000
0000
0100
0000
,
0001
0010
0001
0010
,
0100
1000
0001
1000
,
0010
0000
0100
0001
0000
0000
0001
0000
,
0010
0000
0100
0000
1000
0001
2000
0000
,
3000
0000
0000
0000
;

//--------------- dance-single - forcednature ----------------
#NOTEDATA:;
#STEPSTYPE:dance-single;
#DESCRIPTION:forcednature;
#DIFFICULTY:Medium;
#METER:13;
#RADARVALUES:0,0,0,0,0;
#CREDIT:forcednature;
#NOTES:
0000
0000
0000
0000
,
0000
0000
0000
0000
,
0000
0000
0000
0000
,
0000
0000
0000
0000
,
0000
0000
0000
0000
,
0001
0100
0001
0100
0010
1000
0010
1000
,
0001
0010
0001
0010
0100
1000
0100
1000
,
0001
0100
0010
0100
1000
0100
0010
0100
,
0001
0000
1001
0000
1000
0100
0010
0000
,
0001
0000
0000
1000
0000
0000
0010
0000
1000
0000
0000
0001
0000
0000
0010
0000
,
0100
0000
0000
1000
0000
0000
0010
0000
0100
0000
0100
0000
0001
0000
1000
0000
,
0100
0000
0000
0010
0000
0000
0001
0000
0100
0000
0000
0010
0000
0000
1000
0000
,
0001
0000
0000
0010
0000
0000
0100
0000
1000
0000
0001
0000
0100
0000
0100
0000
,
0020
1000
0000
1000
0000
0100
0000
0130
,
0010
1000
0001
0010
0100
1000
0001
0000
,
0100
0001
1000
0010
1000
0100
0010
0001
,
0100
1000
0100
0001
0100
0010
0010
0000
,
1000
0000
0000
0001
0000
0000
0010
0000
0001
0000
0000
1000
0000
0000
0010
0000
,
0100
0000
0000
0001
0000
0000
1000
0000
0100
0000
0100
0000
0010
0000
0001
0000
,
1000
0000
0000
0010
0000
0000
0100
0000
0001
0000
0000
0010
0000
0000
0100
0000
,
1000
0000
0000
0001
0000
0000
0100
0000
0010
0000
1000
0000
0001
0000
1000
0000
,
0200
0000
0000
0000
0310
0000
0000
0011
0000
0000
0100
0000
0000
1100
0000
0000
,
1000
0000
0000
1010
0000
0000
0001
0000
0100
0000
0010
0000
1000
0000
0001
0000
,
0010
0000
0000
0010
0001
0000
1000
0000
0010
0000
0000
0010
1000
0000
0001
0000
,
0010
0010
0100
0100
1000
1000
0001
0001
,
0100
0000
0010
1000
0001
0000
0010
0100
,
0000
1100
0000
1000
0001
0000
1001
0000
,
0001
0000
0100
0010
1000
0000
0001
0010
,
0000
0110
0000
0100
1000
0000
0011
0000
,
1001
0000
1000
0010
0100
0000
0001
0010
,
0000
0110
0000
0100
1000
0000
1001
0000
,
0001
0100
0001
0100
0010
1000
0010
1000
,
0000
0110
0000
0001
1000
0000
1001
0000
,
0001
0010
0100
1000
0100
0010
0001
1000
,
0001
0000
0100
0001
0000
1000
0000
0001
0000
0010
0100
0000
1000
0000
0000
0000
,
1000
0010
0100
0001
0100
0010
1000
0001
,
1000
0000
0100
1000
0000
0001
0000
1000
0000
0010
0100
0000
0100
0000
0000
0000
,
0001
0000
0000
0001
0100
0000
0010
0000
1000
0000
0000
1000
0100
0000
0010
0000
,
0001
0000
0000
0001
1000
0000
0010
0000
1000
0000
0000
1000
0001
0000
0010
0000
,
0100
0001
0100
0010
0100
1000
0100
0010
,
0001
0001
1000
1000
0010
0100
0002
0000
,
0013
0100
0000
1000
0001
0000
0100
0010
,
0000
0010
0000
1000
0001
0000
0000
0010
,
0010
0000
0000
0001
1000
0000
0010
0100
,
0000
0001
0000
0010
0100
0000
1000
0001
,
1000
0000
0000
0001
0010
0000
0000
0110
,
0000
0100
0000
1000
0001
0000
0000
0100
,
0100
0000
0000
0010
1000
0000
0000
0100
,
0000
0110
0000
0001
1000
0000
0000
0000
,
0010
0000
1000
0100
0010
0000
0100
1000
,
0000
0010
0010
0100
0001
0000
0010
0100
,
1000
0000
0001
0100
0010
0000
1000
0001
,
0000
0000
0010
0000
0000
0000
0100
0000
0010
0000
0000
0001
0000
0000
1000
0000
,
1001
0000
0000
0000
1000
0000
0000
1100
0000
0000
0001
0000
0000
0101
0000
0000
,
0010
0000
0000
0110
0000
0000
1000
0000
0001
0000
0100
0000
0010
0000
1000
0000
,
0001
0010
0001
0000
1000
0010
1000
0000
,
0100
0100
0010
0010
0001
1000
0010
0000
,
0100
0000
0000
0100
0000
0000
0100
0000
0001
0000
0000
0001
0000
0000
0001
0000
,
1000
0000
0000
1000
0000
0000
1000
0000
0020
0000
0000
0000
0230
0000
0000
0000
,
0301
0000
0000
0001
0010
0000
0100
0000
1000
0000
0000
1000
0010
0000
0100
0000
,
0001
0000
0000
0001
1000
0000
0100
0000
0010
0000
0010
0000
0100
0000
1000
0000
,
0001
0000
0000
0001
0100
0000
0010
0000
1000
0000
0000
1000
0001
0000
0010
0000
,
0100
0000
0000
0100
1000
0000
0010
0000
0100
0000
0001
0000
1000
0000
0001
0000
,
0020
0100
0000
1000
0000
0100
0000
0031
,
0010
0100
1000
0001
1000
0010
0010
0000
,
0100
0001
0100
1000
0100
0010
1000
0001
,
0010
0100
1000
0001
0100
0010
1000
0000
,
0100
0000
0110
0000
0000
0000
0000
0000
1000
0000
0000
0001
0000
0000
0001
0000
,
1000
0010
0010
0010
0100
0001
0010
0000
,
0100
0001
0100
1000
0100
0010
0001
1000
,
0001
0100
0010
1000
0001
0010
0100
1000
,
1001
0000
0000
0000
0001
0000
0000
0011
0000
0000
1000
0000
0000
1010
0000
0000
,
0010
0000
0000
0110
0000
0000
0001
0000
1000
0000
0010
0000
0100
0000
0001
0000
,
1000
0000
0000
1000
0100
0000
0010
0000
0001
0000
0000
0001
0100
0000
0010
0000
,
1000
1000
0001
0001
0010
0100
1000
0001
,
0100
0000
0001
0010
0000
0110
0000
2000
,
0000
0001
3001
1000
0010
0100
0001
1000
,
0001
0010
0100
2000
0000
3010
0100
0002
,
0000
0013
0001
1000
0010
0100
0001
0000
,
1001
0000
1000
0100
0000
0110
0000
0002
,
0000
1000
1003
0001
0010
0100
1000
0001
,
0100
1000
0100
0001
0010
1000
0010
0001
,
0100
0010
1000
0001
0020
0000
0000
0000
,
0031
0000
0000
0101
0000
0000
1000
0000
0000
1010
0000
0000
0001
0000
0001
0000
,
1000
0000
0000
1100
0000
0000
0001
0000
0000
0011
0000
0000
1000
0000
1000
0000
,
0001
0000
0000
0101
0000
0000
0010
0000
0000
0110
0000
0000
0001
0000
0001
0000
,
1000
0000
0000
1100
0000
0000
0010
0000
0000
0110
0000
0000
1000
0000
1000
0000
,
0001
0010
0001
0100
0010
1000
0100
1000
,
0020
0230
0302
2003
,
3100
0010
0001
0100
0010
1000
0100
0010
,
0001
0000
0001
0000
1000
0000
1000
0000
0010
0000
0100
0000
0001
1000
0001
1000
;

//--------------- dance-single - forcednature ----------------
#NOTEDATA:;
#STEPSTYPE:dance-single;
#DESCRIPTION:forcednature;
#DIFFICULTY:Hard;
#METER:17;
#RADARVALUES:0,0,0,0,0;
#CREDIT:forcednature;
#NOTES:
0000
0000
0000
0000
,
0000
0000
0000
0000
,
0000
0000
0000
0000
,
0000
0000
0000
0000
,
0000
0000
0000
0000
,
1000
0100
1000
0100
0010
0001
0010
0001
,
1000
0010
1000
0010
0100
0001
0100
0001
,
1000
0100
1000
0000
0001
0100
0001
0000
1000
0010
1000
0000
0001
0010
0001
0000
,
1001
0000
0110
0000
0001
0100
1000
0000
,
0101
0000
0000
0001
1000
0000
0010
0000
1000
0000
0000
1000
0100
0000
0010
0000
,
0001
0000
1000
0010
0000
0100
0001
0000
1000
0100
1000
0000
0001
0000
0100
0000
,
0010
0000
0000
0010
1000
0000
0001
0000
0010
0000
0000
0010
0100
0000
1000
0000
,
0001
0000
1000
0100
0000
0010
0001
0000
1000
0010
1000
0000
0001
0100
0001
0100
,
0020
1000
0000
1000
0000
0001
0000
0031
,
0010
0000
0100
0001
0000
0001
0000
2000
0000
0000
0100
0000
3100
0000
0000
0000
,
1000
0100
0010
0001
1000
0010
0100
0001
,
1000
0000
0100
0010
0001
0000
1000
0001
0100
0000
0000
0100
0001
0000
0001
0000
,
1000
0000
0000
1000
0100
0000
0010
0000
0001
0000
0000
0001
0100
0000
0010
0000
,
1000
0000
0001
0010
0000
0100
1000
0000
0001
0100
0001
0000
1000
0000
0010
0000
,
1000
0000
0000
1000
0100
0000
0010
0000
0001
0000
0000
0001
0100
0000
0010
0000
,
1000
0000
0001
0010
0000
0100
1000
0000
0001
0100
0001
0000
1000
0100
1000
0100
,
0020
0000
0000
0000
0031
0000
0000
0101
0000
0000
1000
0000
0000
1100
0000
0000
,
0010
0000
0000
0110
0000
0000
0001
0000
1000
0000
0001
0100
0010
0000
1000
0100
,
0010
0000
0001
1000
0000
0001
0100
0000
0010
0000
1000
0001
0000
1000
0100
0000
,
1000
0000
0010
0100
0000
0001
0100
0000
0001
1000
0001
0000
0010
0000
0010
0000
,
0100
1000
0100
0010
0001
1000
0000
0101
,
0000
1010
0000
0001
1000
0000
0110
0000
,
0001
1000
0010
0100
0001
1000
0000
1100
,
0000
0010
0001
0001
0100
0000
0110
0000
,
0001
0100
0010
1000
0001
1000
0000
0101
,
0000
0110
0000
1000
0001
0000
1001
0000
,
0001
0000
0100
0000
0001
0000
1000
0000
0001
0010
0001
0010
0100
0000
1000
0000
,
0000
1001
0000
0010
0110
0000
1001
0000
,
1000
0000
0100
1000
0100
0000
0010
0001
0000
0001
1000
0000
0001
0000
0100
0000
,
0010
0000
1000
0100
0000
0100
0000
0010
0000
0001
1000
0000
1001
0000
0000
0000
,
0001
0000
0100
0001
0100
0000
0010
1000
0000
1000
0001
0000
1000
0000
0100
0000
,
0010
0000
0001
0100
0000
0100
0000
0010
0000
1000
0001
1000
0001
0000
0000
0000
,
0001
0000
1000
0100
0010
0000
0001
0000
1000
0000
0001
0100
0010
0000
1000
0000
,
0001
0000
1000
0010
0100
0000
0001
0000
1000
0000
0001
0010
0100
0000
1000
0000
,
0001
0100
1000
0100
0001
0010
1000
0010
,
0100
0000
0100
0000
1000
0000
1000
0000
0001
0100
0001
0100
0020
0000
0000
0000
,
1030
0100
0000
0210
0000
0310
0001
1000
,
0001
0100
0000
0210
0000
0310
1000
0001
,
1000
0100
0000
0021
0000
0031
0100
0010
,
1000
0010
0001
0010
0100
0001
0010
0001
,
0100
0010
0000
2100
0000
3001
0010
0100
,
1000
0010
0000
0120
0000
0130
0001
1000
,
0001
0010
0000
0102
0000
1003
0010
0100
,
0001
1000
0001
0010
0100
1000
0001
0000
,
0100
0001
0010
0100
0100
0000
1000
0010
,
0000
0000
0100
0000
0001
0000
1000
0000
1000
0000
0000
0000
0100
0000
0010
0001
,
0010
0100
1000
0020
0000
0130
0001
0020
,
0000
0000
0130
0000
1000
0000
0001
0000
0100
0000
0000
0100
0010
0000
1000
0000
,
1001
0000
0000
0000
0001
0000
0000
0101
0000
0000
1000
0000
0000
1100
0000
0000
,
0010
0000
0000
0110
0000
0000
1000
0000
0001
0000
1000
0010
1000
0000
0001
0010
,
0001
1000
0010
0100
0001
1000
0100
0010
,
0001
0100
0001
0000
1000
0100
1000
0000
0010
0100
0010
0000
1001
0000
0000
0000
,
2000
0000
0000
3200
0000
0000
2300
0000
3002
0000
0000
0203
0000
0000
0302
0000
,
0023
0000
0000
0230
0000
0000
0320
0000
0032
0000
0000
0000
2003
0000
0000
0000
,
3001
0000
0100
0001
0000
1000
0010
0000
1000
0000
0100
1000
0000
0001
0010
0000
,
0001
0000
1000
0010
0000
1000
0100
0000
0010
0001
0010
0000
0100
0000
1000
0000
,
0001
0000
1000
0100
0000
0010
0001
0000
0100
0000
0010
1000
0000
0001
0010
0000
,
0100
0000
1000
0001
0000
0100
0001
0000
1000
0010
1000
0000
0001
0010
0001
0010
,
0200
0001
0000
0001
0010
1000
0000
1300
,
0100
0000
0010
0001
0000
1000
0000
0020
0000
0000
0001
0000
0031
0000
0000
0000
,
0010
0001
1000
0100
0001
0010
1000
0010
,
0100
1000
0100
0010
0001
0000
1000
0001
0000
0100
0001
0000
1000
0100
1000
0100
,
0010
0000
0011
0000
0000
0000
0000
0000
0101
0000
0000
1010
0000
0000
1000
0000
,
0001
0000
1000
0100
1000
0100
0010
0000
0001
0100
0001
0000
1000
0000
0100
0000
,
0010
0000
0001
1000
0000
0001
0100
0000
0010
0000
1000
0001
0000
1000
0100
0000
,
0010
0000
0001
0100
0000
0010
1000
0000
0001
0010
0001
0000
1000
0010
1000
0010
,
0200
0000
0000
0000
0301
0000
0000
0011
0000
0000
1000
0000
0000
1010
0000
0000
,
0100
0000
0000
0110
0000
0000
1000
0000
0001
0000
1000
0100
0010
0001
0010
0001
,
0010
0000
0100
1000
0000
0001
0010
0000
0001
0000
1000
0010
0000
0100
0001
0000
,
1000
0000
0100
0000
0001
0000
0100
0000
1000
0001
1000
0001
0100
0000
0010
0000
,
2000
0000
3001
0010
0000
0110
0000
0100
,
1000
0000
0010
0000
0001
0000
0010
0100
0001
0000
0010
0000
0001
0000
0100
0000
,
0010
1000
0001
0020
0000
0130
1000
0020
,
0000
0130
0001
1000
0001
0001
0010
0010
,
0110
0000
0100
1000
0000
0101
0000
2000
,
0010
0000
3000
0000
1000
0000
0100
0010
0001
0000
0100
0000
0010
0000
1000
0000
,
0001
0010
0001
0200
0000
0310
1000
0001
,
0010
0000
0100
0000
0001
0000
0100
0000
1000
0010
1000
0000
0001
0010
0001
0000
,
1000
0000
0000
1100
0000
0000
1001
0000
0000
0011
0000
0000
0001
0000
1000
0000
,
0001
0000
0000
0101
0000
0000
1001
0000
0000
1010
0000
0000
1000
0000
0001
0000
,
1000
0000
0000
1100
0000
0000
0110
0000
0000
0011
0000
0000
1000
0001
1000
0000
,
0001
0000
0000
0101
0000
0000
0110
0000
0000
1010
0000
0000
0001
1000
0001
0000
,
1000
0000
0100
0010
0000
0001
0010
0000
0100
0000
1000
0000
0001
0000
0100
0000
,
0010
1000
0010
0000
0100
0001
0100
0000
0001
0010
0001
0000
1000
0100
1000
0000
,
0010
0000
0000
0100
0001
0100
0001
0000
1000
0100
1000
0100
0010
0000
0001
0000
,
0100
0000
0001
0000
1000
0000
0100
0000
1000
0001
1000
0001
1000
0001
1000
0001
;

//--------------- dance-single - forcednature ----------------
#NOTEDATA:;
#STEPSTYPE:dance-single;
#DESCRIPTION:forcednature;
#DIFFICULTY:Challenge;
#METER:18;
#RADARVALUES:0,0,0,0,0;
#CREDIT:forcednature;
#NOTES:
0000
0000
0000
0000
,
0000
0000
0000
0000
,
0000
0000
0000
0000
,
0000
0000
0000
0000
,
0000
0000
0000
0000
,
1000
0100
1000
0010
1000
0100
1000
0010
,
0100
0001
0010
0001
0100
0001
0010
0001
,
1000
0100
1000
0100
0010
0001
0010
0001
1000
0010
0100
0001
1000
0010
0100
0001
,
1000
0000
0000
0000
0110
0000
0000
0000
0001
0010
0100
1000
0001
0000
0000
0000
,
1000
0000
0001
0100
0000
0001
1000
0000
0100
0000
0010
0001
0000
0010
0100
0000
,
1000
0000
0001
0100
0000
0100
0010
0000
1000
0001
1000
0000
0100
0000
0010
0000
,
0001
0000
0100
0010
0000
1000
0010
0000
0100
0000
0001
1000
0000
0001
0010
0000
,
0100
0000
1000
0001
0000
0001
0100
0000
0010
1000
0001
1000
0100
0010
0001
1000
,
0001
0000
1000
0010
1000
0000
0001
0010
0001
0000
1000
0100
1000
0000
0001
0000
,
0100
0010
1000
0010
0000
1000
0000
0002
0000
0000
0010
0000
0013
0000
0000
0000
,
0001
0100
0001
0010
0100
1000
0010
1000
,
0001
0100
0001
0100
0010
1000
0010
1000
0001
0010
0100
1000
0010
0000
0010
0000
,
0100
0000
0001
1000
0000
0001
0010
0000
0100
0000
1000
0100
0000
0010
0001
0000
,
0100
0000
0010
1000
0000
1000
0001
0000
0010
0100
0010
0000
0001
0000
1000
0000
,
0010
0000
0100
0001
0000
1000
0100
0000
0010
0000
0001
0100
0000
0010
1000
0000
,
0001
0000
1000
0100
0000
0100
0010
0000
0001
1000
0001
0100
0010
1000
0001
1000
,
0200
0000
0000
0000
0301
0000
0000
0110
0000
0000
1100
0000
0000
1001
0000
0000
,
0101
0000
0000
1010
0000
0000
1001
0000
0001
1000
0001
0010
0100
0000
1000
0001
,
0100
0000
0010
1000
0000
0001
0000
1000
0100
0000
0010
0001
0000
1000
0000
0001
,
0100
0010
1000
0001
0010
0100
1000
0001
0100
0001
0100
0001
1000
0100
1000
0100
,
0010
0000
0001
0000
0100
0000
0010
1000
0001
0000
0010
0000
0100
0000
1100
0000
,
0000
0101
0000
0010
0110
0000
1001
0000
,
0001
0000
1000
0000
0001
0000
0100
0010
1000
0000
0100
0000
0010
0000
0011
0000
,
0000
0000
0001
0000
0100
0001
1000
0001
0010
0000
0000
0000
0110
0000
0000
0000
,
1001
0000
1000
0000
0010
0000
0100
0001
1000
0000
0100
0000
0010
0000
0011
0000
,
0000
0000
1010
0000
0000
0000
0001
0010
0001
0000
0000
0000
0101
0000
0000
0000
,
1010
0000
1000
0000
0100
0000
0100
0000
0010
0001
0010
0100
1000
0000
1001
0000
,
0000
0110
0000
0010
0100
0010
1001
0000
,
0002
0000
0100
0000
1003
0000
0001
0010
0000
0100
1000
0000
0001
0000
0100
0010
,
1000
0000
0001
0010
0000
0100
1000
0100
0000
1000
0001
0000
0101
0000
0000
0000
,
2000
0000
0100
0000
3001
0000
1000
0010
0000
0100
0001
0000
1000
0000
0100
0010
,
0001
0000
1000
0001
0000
0001
0100
0010
1000
0001
0010
0001
0010
0000
0000
0000
,
0002
0000
0100
0000
1003
0001
0100
0010
2000
0000
0100
0000
3001
1000
0010
0100
,
0002
0000
0010
0000
1003
0001
0010
0100
1000
0001
1000
0010
0000
0100
0001
1000
,
0001
0000
0010
0100
1000
0000
0010
0100
0001
0000
0010
0100
1000
0000
0010
0000
,
0101
0000
0001
0000
1100
0000
1000
0000
0001
0100
0001
0100
0010
1000
0001
1000
,
0100
0010
0000
0100
0110
0000
0001
1000
,
0000
0000
1000
0000
0000
0000
0001
0000
0011
0000
0000
0000
0001
0000
1000
0100
,
1000
0000
0001
0000
0000
0000
0100
0000
0101
0000
0000
0100
0010
0000
1000
0000
,
0001
1000
0100
0010
0110
0000
1000
0001
,
1000
0010
0000
0100
0101
0000
0001
0010
,
0000
0000
0010
0000
0000
0000
0100
0000
1001
0000
0000
0000
1000
0000
0001
0010
,
0001
0000
0100
0000
0000
0000
0010
0000
1010
0000
0000
1000
0100
0000
0010
0000
,
0001
0000
0100
0001
0100
0000
0010
0000
1001
0000
0000
0000
1000
0000
0010
0000
,
1000
0000
0100
0000
0100
0000
0020
0000
0000
0000
0130
1000
0100
0000
0010
0000
,
0001
0000
0100
0000
0100
0000
0020
0000
0000
0000
0130
0001
0100
0000
0010
1000
,
0001
1000
0100
0002
0000
1003
0010
0002
,
0000
0000
1003
0000
0010
0000
0100
0000
0001
0000
1000
0001
0010
0000
0100
0000
,
1001
0000
0000
0000
1100
0000
0000
1010
0000
0000
0101
0000
0000
0011
0000
0000
,
1001
0000
0000
0110
0000
0000
1001
0000
1000
0100
0010
0001
1000
0001
0100
0010
,
1000
0100
1000
0010
0100
0001
0010
0001
,
0100
0001
0100
0001
1000
0100
1000
0100
0010
0001
1000
0001
0100
0010
1000
0001
,
1000
0000
0001
0010
0000
0100
1000
0000
0001
0000
0100
0001
0000
1000
0010
0000
,
0100
0000
0001
1000
0000
0001
0010
0100
2000
0000
0000
0000
3010
0000
0000
0000
,
1000
0000
0001
0010
0000
0001
1000
0001
0100
0000
0010
1000
0000
0001
0010
0100
,
1000
0000
0001
0100
0000
0100
0010
1000
0001
0010
0001
0000
0100
0000
0010
0000
,
1000
0000
0100
0010
0000
0001
0010
0001
1000
0000
0010
0100
0000
0001
1000
0100
,
0010
0000
0001
0100
0000
0100
0010
0000
1000
0001
1000
0100
0010
0001
1000
0001
,
0200
0000
0001
1000
0000
0000
1000
0001
0000
0000
0001
1000
0000
0000
1300
0001
,
0010
0100
1000
0100
0000
1000
0000
0020
0000
0000
0001
0000
0031
0000
0000
0000
,
1010
0001
0100
0001
0011
1000
0100
1000
,
0001
0100
0001
1000
0010
0000
1000
0100
0000
0010
0001
0000
0100
0001
0100
0001
,
0010
0000
0010
0000
0100
1000
0001
1000
0010
0000
0000
0110
0000
0000
1001
0000
,
1100
0000
0001
0010
0100
0010
0001
0010
0100
1000
0001
1000
0010
0000
0100
0001
,
1000
0000
0001
0010
0000
0001
0100
0010
1000
0000
0001
1000
0000
0100
0010
0001
,
1000
0010
1000
0010
0100
0001
1000
0001
0010
0100
1000
0001
0100
0010
1000
0001
,
0020
0000
0000
0000
1030
0000
0000
0110
0000
0000
1001
0000
0000
1100
0000
0000
,
0101
0000
0000
1010
0000
0000
0011
0000
0001
0010
0100
1000
0001
0100
0010
1000
,
0001
1000
0100
0020
0000
0031
0100
0001
1000
0001
0100
0020
0000
1030
0100
1000
,
0001
0100
0010
1000
0001
1000
0100
0010
0001
1000
0001
0100
0010
1000
0001
0010
,
0100
1000
0100
0001
0000
1100
0000
1000
,
0010
0000
0001
0000
0010
0100
0001
1000
0100
0000
0001
0000
0100
0000
1000
0000
,
0002
0203
0320
2030
0000
3200
0302
0203
,
0000
0320
0032
2003
3001
0101
1000
1100
,
1001
0000
0001
0100
0000
1010
0000
2000
,
0001
0000
3000
0000
1000
0100
0010
0001
1000
0000
0010
0000
0001
0000
0010
0000
,
0100
0000
0001
1000
0010
0000
0100
0000
0110
0000
1000
0001
0010
0000
0100
0000
,
1000
0000
1010
0000
0001
0000
0011
0000
1000
0100
0010
0001
1000
0010
0100
0001
,
1000
0000
0100
0010
0000
0001
0010
0000
0100
1000
0000
0001
1000
0010
0100
0001
,
1000
0000
0010
0100
0000
0001
0100
0000
0010
1000
0000
0001
0010
0100
1000
0001
,
0100
0000
0010
0001
0000
0010
1000
0000
0001
1000
0000
0100
0010
0001
1000
0001
,
0100
0000
1000
0100
0000
0001
0100
0000
0010
1000
0001
1000
0100
0010
0001
0100
,
0010
0000
0010
0000
0100
0001
1000
0010
1000
0000
1000
0000
0100
1000
0100
0010
,
0001
0000
0001
0100
0010
0000
1000
0100
0010
0000
0001
1000
0020
0000
0000
0000
,
0130
0000
0001
0010
0100
1000
0001
0000
1000
0010
0100
0001
1000
0000
0001
0000
,
1000
0100
0010
0001
0100
0010
1000
0100
0010
0001
0100
0010
1000
0100
0010
0001
;

//--------------- dance-double - forcednature ----------------
#NOTEDATA:;
#STEPSTYPE:dance-double;
#DESCRIPTION:forcednature;
#DIFFICULTY:Easy;
#METER:9;
#RADARVALUES:0,0,0,0,0;
#CREDIT:forcednature;
#NOTES:
00000000
00000000
00000000
00000000
,
00000000
00000000
00000000
00000000
,
00000000
00000000
00000000
00000000
,
00000000
00000000
00000000
00000000
,
00000000
00000000
00000000
00000000
,
00001000
00001000
00010000
00010000
,
00000100
00000100
00010000
00010000
,
00001000
01000000
00010000
01000000
,
00100000
10000000
20020000
30030000
,
10000000
01000000
00100000
00010000
,
00100000
00001000
00010000
00000000
,
00000010
00001000
00000010
00000100
,
00000001
00000100
00000001
00000000
,
00002001
00000000
00003100
00001000
,
00000100
00010000
00001000
00000000
,
01000000
01000000
00010000
00000000
,
10000000
01000000
10000000
00000000
,
10010000
00000000
00010000
01000000
,
00001000
00010000
00000010
00001000
,
00000010
00000000
00001000
00000100
,
00010000
00001000
00100000
00010000
,
00000000
00000000
01000000
00000000
00000000
01000000
00000000
00000000
,
00100000
00000000
00000000
00100000
00000000
00000000
10000000
00000000
,
01000000
10000000
00010000
01000000
,
00001000
00001000
00010000
00000000
,
00000100
00000000
00001000
00000000
,
00000001
00000010
00000100
00000010
,
00000001
00000000
00000100
00000000
,
00000010
00001000
00000010
00000010
,
00010000
00000000
00001000
00000000
,
00100000
00010000
00100000
01000000
,
01100000
00000000
00000000
00000000
10010000
00000000
00000000
10000000
,
00000000
10000000
00000000
00000000
00010000
00000000
00010000
00000000
,
01000000
01000000
00010000
00100000
,
00001000
00000000
00010000
00000000
,
00000010
00000010
00000100
00000001
,
00000010
00000000
00000100
00000000
,
00010000
00010000
00001000
00001000
,
01000000
01000000
00010000
00010000
,
00100000
01000000
10000000
01000000
,
00100000
00100000
00002000
00000000
,
00013000
00000000
00000000
00000000
00000010
00000000
00000000
00010000
,
00000000
00010000
00000000
00000000
00000010
00000000
00000000
00000000
,
00001000
00000000
00000000
00000000
00000100
00000000
00000000
00001000
,
00000000
00001000
00000000
00000000
00000100
00000000
00000000
00000000
,
00010000
00000000
00000000
00000000
00001000
00000000
00000000
00010000
,
00000000
00010000
00000000
00000000
00001000
00000000
00000000
00000000
,
01000000
00000000
00000000
00000000
00010000
00000000
00000000
01000000
,
00000000
01000000
00000000
00000000
00010000
00000000
00000000
00000000
,
00100000
01000000
00000000
01000000
,
00100000
00001000
00000000
00001000
,
00010000
00000010
00000000
00000010
,
00001000
00000100
00000000
00000100
,
00000110
00000000
00000010
00000000
00000000
00000010
00000000
00000000
,
00000001
00000000
00000000
00000001
00000000
00000000
00000100
00000000
,
00000010
00000000
00000010
00000000
,
00001000
00000100
00010000
00001000
,
02000000
03000000
02000000
03000000
,
02000000
03000000
00010000
10000000
,
01000000
00000000
00100000
01000000
,
10000000
01000000
00100000
00010000
,
01000000
00000000
00010000
01000000
,
00001000
00010000
00000100
00001000
,
00001002
00000000
00000103
00000001
,
00000010
00000001
00001000
00000000
,
00000010
00000010
00010000
00010000
,
00001000
01000000
00010000
00000000
,
10000000
00000000
10000000
01000000
,
00100000
00010000
00100000
00000000
,
00011000
00000000
00001000
00010000
,
00000010
00001000
00000010
00000100
,
00000000
00000000
00000001
00000000
00000000
00000001
00000000
00000000
,
00000010
00000000
00000000
00000010
00000000
00000000
00000100
00000000
,
00001000
00000100
00010000
00001000
,
01000000
01000000
00010000
00000000
,
00100000
01000000
00100000
00000000
,
00010000
00100000
00010000
00000000
,
00100000
00001000
00010000
00000010
,
00001000
00000010
00000100
00000000
,
00000001
00000010
00000001
00000000
,
00000010
00000100
00000010
00000000
,
00000100
00001000
00000100
00010000
,
00001000
01000000
00010000
00000000
,
10000000
00000000
00000000
10000000
00000000
00000000
10000000
00000000
,
01000000
00000000
00000000
01000000
00000000
00000000
01000000
00000000
,
00100000
00000000
00000000
00100000
00000000
00000000
00100000
00000000
,
00010000
00000000
00000000
00010000
00000000
00000000
00010000
00000000
,
01000000
00001000
01000000
00001000
,
00010000
00000100
00001000
00000100
,
00000010
00000000
00000000
00000010
00000000
00000000
00000001
00000000
,
00000100
00001000
00010000
00100000
;

//--------------- dance-double - forcednature ----------------
#NOTEDATA:;
#STEPSTYPE:dance-double;
#DESCRIPTION:forcednature;
#DIFFICULTY:Medium;
#METER:14;
#RADARVALUES:0,0,0,0,0;
#CREDIT:forcednature;
#NOTES:
00000000
00000000
00000000
00000000
,
00000000
00000000
00000000
00000000
,
00000000
00000000
00000000
00000000
,
00000000
00000000
00000000
00000000
,
00000000
00000000
00000000
00000000
,
01000000
00010000
01000000
00010000
01000000
00001000
01000000
00001000
,
00010000
00000100
00010000
00000100
00001000
00000100
00001000
00000100
,
00000010
00000001
00001000
00000001
00000100
00000001
00000100
00001000
,
00010000
00000000
00011000
00000000
00001000
00010000
00100000
00000000
,
10000000
00000000
00000000
00010000
00000000
00000000
00100000
00000000
00010000
00000000
00000000
10000000
00000000
00000000
00100000
00000000
,
01000000
00000000
00000000
00001000
00000000
00000000
00010000
00000000
00000100
00000000
00000100
00000000
00001000
00000000
00000001
00000000
,
00000100
00000000
00000000
00000010
00000000
00000000
00001000
00000000
00000100
00000000
00000000
00000010
00000000
00000000
00000001
00000000
,
00001000
00000000
00000000
00000001
00000000
00000000
00000100
00000000
00001000
00000000
00010000
00000000
00100000
00000000
00100000
00000000
,
02000000
10000000
00000000
10000000
00000000
00010000
00000000
03010000
,
01000000
00001000
00010000
00000100
00001000
00000001
00000001
00000000
,
00000100
00000010
00001000
00000010
00010000
00001000
00100000
00001000
,
00010000
00100000
01000000
00100000
20000000
00000000
30000000
00000000
,
01000000
00000000
00000000
10000000
00000000
00000000
01000000
00000000
00100000
00000000
00000000
00010000
00000000
00000000
00100000
00000000
,
00001000
00000000
00000000
00010000
00000000
00000000
00000010
00000000
00001000
00000000
00001000
00000000
00000100
00000000
00000010
00000000
,
00000001
00000000
00000000
00000100
00000000
00000000
00000001
00000000
00001000
00000000
00000000
00000100
00000000
00000000
00001000
00000000
,
00000010
00000000
00000000
00010000
00000000
00000000
00001000
00000000
00100000
00000000
00010000
00000000
10000000
00000000
00010000
00000000
,
02000000
00000000
00000000
00000000
03100000
00000000
00000000
10000000
00000000
00000000
01000000
00000000
00000000
00010000
00000000
00000000
,
00001000
00000000
00000000
00000100
00000000
00000000
00000001
00000000
00000010
00000000
00000100
00000000
00000010
00000000
00000001
00000000
,
00000100
00000000
00000000
00000100
00001000
00000000
00010000
00000000
00100000
00000000
00000000
00100000
10000000
00000000
00010000
00000000
,
10000000
10000000
01000000
01000000
00010000
00010000
00001000
00001000
,
00000010
00000000
00000100
00001000
00000001
00000000
00000100
00001000
,
00000000
00011000
00000000
00010000
00100000
00000000
01100000
00000000
,
01000000
00000000
00010000
10000000
01000000
00000000
00100000
00001000
,
00000000
00011000
00000000
00010000
00000010
00000000
00000110
00000000
,
00001001
00000000
00001000
00000001
00000010
00000000
00000100
00010000
,
00000000
00011000
00000000
00001000
01000000
00000000
01100000
00000000
,
00100000
10000000
00100000
10000000
01000000
00010000
01000000
00010000
,
00000000
00011000
00000000
00001000
00000100
00000000
00000110
00000000
,
00000001
00000010
00000001
00000100
00000001
00000010
00001000
00010000
,
00001000
00000000
01000000
00010000
00000000
10000000
00000000
00010000
00000000
00100000
01000000
00000000
10000000
00000000
00000000
00000000
,
10000000
00100000
10000000
01000000
10000000
00100000
00010000
00001000
,
00010000
00000000
00000100
00001000
00000000
00000001
00000000
00001000
00000000
00000010
00000100
00000000
00000100
00000000
00000000
00000000
,
00001000
00000000
00000000
00001000
00010000
00000000
00100000
00000000
00010000
00000000
00000000
00010000
00001000
00000000
00000010
00000000
,
00001000
00000000
00000000
00001000
00010000
00000000
01000000
00000000
00010000
00000000
00000000
00010000
00001000
00000000
00000100
00000000
,
00000001
00000010
00000100
00000010
00001000
00000010
00000100
00000010
,
00000001
00000001
00000100
00000100
00001000
00010000
00200000
00000000
,
10300000
00010000
00000000
00100000
01000000
00000000
00010000
00001000
,
00000000
00001000
00000000
00000010
00000100
00000000
00000000
00001000
,
00001000
00000000
00000000
00000001
00000100
00000000
00000010
00001000
,
00000000
00010000
00000000
01000000
00100000
00000000
10000000
00010000
,
10000000
00000000
00000000
01000000
00010000
00000000
00000000
00011000
,
00000000
00001000
00000000
00000100
00000001
00000000
00000000
00000010
,
00000010
00000000
00000000
00000100
00010000
00000000
00000000
00001000
,
00000000
01001000
00000000
01000000
00010000
00000000
00000000
00000000
,
10000000
00000000
01000000
00010000
00001000
00000000
00000010
00001000
,
00000000
00010000
00010000
00100000
01000000
00000000
00001000
00010000
,
00000100
00000000
00001000
00000001
00000100
00000000
00000010
00010000
,
00000000
00000000
00001000
00000000
00000000
00000000
01000000
00000000
00010000
00000000
00000000
00010000
00000000
00000000
00100000
00000000
,
01100000
00000000
00000000
00000000
10000000
00000000
00000000
01000000
00000000
00000000
00010000
00000000
00000000
00001000
00000000
00000000
,
00000100
00000000
00000000
00000001
00000000
00000000
00000010
00000000
00000100
00000000
00001000
00000000
00000100
00000000
00010000
00000000
,
00002000
01000000
00023000
00000100
,
00031000
00001000
00010000
00010000
00200000
10000000
00310000
00000000
,
00100000
00000000
00000000
00100000
00000000
00000000
00100000
00000000
00001000
00000000
00000000
00001000
00000000
00000000
00001000
00000000
,
00010000
00000000
00000000
00010000
00000000
00000000
00010000
00000000
00000020
00000000
00000000
00000000
00002030
00000000
00000000
00000000
,
00003001
00000000
00000000
00000001
00000010
00000000
00000100
00000000
00001000
00000000
00000000
00001000
00000001
00000000
00000100
00000000
,
00000010
00000000
00000000
00000010
00010000
00000000
00001000
00000000
00100000
00000000
00100000
00000000
00010000
00000000
10000000
00000000
,
00100000
00000000
00000000
00100000
01000000
00000000
00010000
00000000
00100000
00000000
00000000
00100000
00001000
00000000
00010000
00000000
,
00000010
00000000
00000000
00000010
00001000
00000000
00000100
00000000
00000010
00000000
00000001
00000000
00001000
00000000
00000001
00000000
,
00000200
00001000
00000000
00000010
00000000
00000001
00000000
00000310
,
00000100
00001000
00010000
00001000
01000000
00010000
00010000
00000000
,
00100000
01000000
00100000
10000000
00100000
01000000
00100000
00010000
,
01000000
00001000
00010000
00000100
00001000
00000001
00000100
00000000
,
00000010
00000000
00000110
00000000
00000000
00000000
00000000
00000000
00010000
00000000
00000000
00010000
00000000
00000000
00010000
00000000
,
00001000
00100000
00100000
00100000
01000000
10000000
01000000
00100000
,
00010000
01000000
00001000
00010000
00000100
00001000
00000010
00010000
,
00001000
00100000
00010000
01000000
00100000
10000000
00010000
00100000
,
01100000
00000000
00000000
00000000
00010000
00000000
00000000
01000000
00000000
00000000
00001000
00000000
00000000
00010000
00000000
00000000
,
00000100
00000000
00000000
00001000
00000000
00000000
00000010
00000000
00000100
00000000
00001000
00000000
00000100
00000000
00000001
00000000
,
00000010
00000000
00000000
00000010
00000100
00000000
00010000
00000000
00001000
00000000
00000000
00001000
01000000
00000000
00010000
00000000
,
00100000
00100000
01000000
01000000
10000000
00010000
01000000
00010000
,
00100000
00000000
00001000
00010000
00000000
00010010
00000000
00000020
,
00000000
00000001
00000031
00000010
00000100
00000001
00000100
00000010
,
00010000
00001000
00100000
00020000
00000000
01030000
00100000
20000000
,
00000000
31000000
00010000
00001000
00010000
00000010
00001000
00000000
,
00001001
00000000
00000001
00000010
00000000
00000110
00000000
00000200
,
00000000
00010000
00010300
00000100
00001000
00000010
00010000
00001000
,
00100000
01000000
00100000
00001000
00010000
00100000
01000000
00100000
,
10000000
01000000
00010000
00001000
00000020
00000000
00000000
00000000
,
00000031
00000000
00000000
00000100
00000000
00000000
00001000
00000000
00000000
00010000
00000000
00000000
00100000
00000000
10000000
00000000
,
10000000
00000000
00000000
01000000
00000000
00000000
00010000
00000000
00000000
00001000
00000000
00000000
00000010
00000000
00000001
00000000
,
00000001
00000000
00000000
00000100
00000000
00000000
00001000
00000000
00000000
00010000
00000000
00000000
00100000
10000000
00100000
00000000
,
10000000
00000000
00000000
01000000
00000000
00000000
00010000
00000000
00000000
00001000
00000000
00000000
00000010
00000001
00000010
00000000
,
00000100
00001000
00000100
00010000
00001000
01000000
00010000
01000000
,
00200000
20300000
32000000
03020000
,
00031000
00010000
00001000
00000100
00000010
00000100
00000001
00001000
,
00000001
00000010
00000100
00001000
00010000
00100000
01000000
10000000
;

//--------------- dance-double - forcednature ----------------
#NOTEDATA:;
#STEPSTYPE:dance-double;
#DESCRIPTION:forcednature;
#DIFFICULTY:Hard;
#METER:17;
#RADARVALUES:0,0,0,0,0;
#CREDIT:forcednature;
#NOTES:
00000000
00000000
00000000
00000000
,
00000000
00000000
00000000
00000000
,
00000000
00000000
00000000
00000000
,
00000000
00000000
00000000
00000000
,
00000000
00000000
00000000
00000000
,
00001000
00010000
00000100
00010000
00001000
01000000
00001000
00010000
,
00100000
10000000
00010000
10000000
01000000
00010000
00001000
00010000
,
00000100
00001000
00000100
00000000
00000010
00000001
00000010
00000000
00000001
00001000
00000001
00000000
00000100
00000001
00000100
00000000
,
00000010
00000000
00011000
00000000
01000000
00010000
00100000
00000000
,
01000000
00000000
00000000
01000000
10000000
00000000
00010000
00000000
01000000
00000000
00000000
01000000
00001000
00000000
00010000
00000000
,
00000100
00000000
00001000
00000001
00000000
00000100
00000001
00000000
00001000
00000010
00001000
00000000
00000100
00000000
00010000
00000000
,
00001000
00000000
00000000
00001000
01000000
00000000
00010000
00000000
00100000
00000000
00000000
00100000
01000000
00000000
10000000
00000000
,
00100000
00000000
01000000
00010000
00000000
01000000
00001000
00000000
00010000
00000100
00010000
00000000
00000100
00001000
00000100
00001000
,
00000020
00000100
00000000
00000100
00000000
00000001
00000000
00000031
,
00000010
00000000
00000100
00000001
00000000
00000001
00000000
00000020
00000000
00000000
00000100
00000000
00000130
00000000
00000000
00000000
,
00000010
00000001
00001000
00000001
00000100
00001000
00010000
00100000
,
01000000
00000000
00010000
10000000
00100000
00000000
10000000
00010000
00100000
00000000
00000000
00100000
01000000
00000000
01000000
00000000
,
00010000
00000000
00000000
00010000
00001000
00000000
00100000
00000000
00001000
00000000
00000000
00001000
00010000
00000000
00000010
00000000
,
00001000
00000000
00000100
00000010
00000000
00000001
00000010
00000000
00000100
00001000
00000100
00000000
00010000
00000000
00001000
00000000
,
01000000
00000000
00000000
01000000
00010000
00000000
00100000
00000000
01000000
00000000
00000000
01000000
10000000
00000000
00010000
00000000
,
01000000
00000000
00010000
00100000
00000000
00001000
00010000
00000000
00000010
00001000
00000010
00000000
00000100
00000001
00000100
00000001
,
00000020
00000000
00000000
00000000
00000130
00000000
00000000
00001100
00000000
00000000
00010000
00000000
00000000
00011000
00000000
00000000
,
00001000
00000000
00000000
01001000
00000000
00000000
01000000
00000000
00010000
00000000
00100000
01000000
10000000
00000000
00010000
01000000
,
00100000
00000000
10000000
00010000
00000000
10000000
01000000
00000000
00100000
00000000
00001000
00010000
00000000
00000010
00001000
00000000
,
00000100
00000000
00000010
00000001
00000000
00001000
00000001
00000000
00000100
00000001
00000100
00000000
00001000
00000000
00001000
00000000
,
00010000
00100000
01000000
00100000
10000000
00010000
00000000
00110000
,
00000000
11000000
00000000
10000000
00010000
00000000
01001000
00000000
,
00001000
00010000
00000100
00001000
00000100
00000010
00000000
00000110
,
00000000
00001000
00000001
00000001
00000100
00000000
00001010
00000000
,
00010000
00001000
01000000
00010000
00100000
01000000
00000000
10010000
,
00000000
01100000
00000000
10000000
00010000
00000000
01001000
00000000
,
00001000
00000000
00010000
00000000
00000100
00000000
00001000
00000000
00000001
00000010
00000001
00000010
00000001
00000000
00000100
00000000
,
00000000
00011000
00000000
01000000
01000000
00000000
10010000
00000000
,
10000000
00000000
00010000
00100000
00010000
00000000
01000000
00001000
00000000
00001000
00010000
00000000
00000100
00000000
00001000
00000000
,
00000010
00000000
00000100
00000001
00000000
00000001
00000000
00000010
00000000
00000100
00001000
00000000
00001100
00000000
00000000
00000000
,
00000010
00000000
00010000
00001000
00010000
00000000
00000100
00001000
00000000
00001000
00000010
00000000
00010000
00000000
00001000
00000000
,
00100000
00000000
00010000
10000000
00000000
10000000
00000000
00100000
00000000
01000000
00010000
01000000
00010000
00000000
00000000
00000000
,
00100000
00000000
00001000
00010000
00001000
00000000
00000100
00000000
00000010
00000000
00010000
00001000
00010000
00000000
01000000
00000000
,
00100000
00000000
00010000
10000000
00010000
00000000
01000000
00000000
00001000
00000000
00010000
00000100
00010000
00000000
00001000
00000000
,
00000100
00000001
00000010
00001000
00000010
00000001
00000100
00001000
,
00010000
00000000
00010000
00000000
00100000
00000000
00100000
00000000
10000000
00010000
10000000
00010000
00200000
00000000
00000000
00000000
,
01300000
00010000
00000000
00011000
00000000
00001000
00000010
00000001
,
00000010
00000100
00000000
00000110
00000000
00000010
00000001
00001000
,
00000001
00000100
00000000
00000110
00000000
00000010
00001000
00010000
,
01000000
00100000
10000000
00010000
10000000
01000000
00010000
00001000
,
00000010
00000100
00000000
00000110
00000000
00000010
00000001
00000100
,
00001000
00010000
00000000
00011000
00000000
00001000
00010000
00100000
,
10000000
00010000
00000000
00110000
00000000
00100000
01000000
10000000
,
00100000
00010000
00100000
01000000
00001000
00010000
00000100
00000000
,
00001000
00000010
00000100
00000001
00000001
00000000
00000010
00000100
,
00000000
00000000
00010000
00000000
00001000
00000000
01000000
00000000
01000000
00000000
00000000
00000000
00010000
00000000
10000000
00100000
,
10000000
01000000
00010000
00002000
00000000
00003100
00001000
00020000
,
00000000
00000000
00130000
00000000
10000000
00000000
00010000
00000000
10000000
00000000
00000000
10000000
01000000
00000000
00010000
00000000
,
00011000
00000000
00000000
00000000
00000100
00000000
00000000
00010100
00000000
00000000
00001000
00000000
00000000
00101000
00000000
00000000
,
01000000
00000000
00000000
01001000
00000000
00000000
00010000
00000000
00000010
00000000
00001000
00000001
00001000
00000000
00000100
00001000
,
00000100
00000010
00000001
00000010
00000100
00010000
00001000
01000000
,
00010000
00100000
00010000
00000000
10000000
01000000
10000000
00000000
00010000
01000000
00010000
00000000
00100000
00000000
00000000
00000000
,
02000000
00000000
00000000
03020000
00000000
00000000
00032000
00000000
00003200
00000000
00000000
00002300
00000000
00000000
00023000
00000000
,
00230000
00000000
00000000
00320000
00000000
00000000
00032000
00000000
00003020
00000000
00000000
00000000
00000230
00000000
00000000
00000000
,
00001300
00000000
00000001
00000100
00000000
00000010
00001000
00000000
00000100
00000000
00010000
00001000
00000000
01000000
00010000
00000000
,
00100000
00000000
01000000
10000000
00000000
00010000
01000000
00000000
00100000
10000000
00100000
00000000
01000000
00000000
00010000
00000000
,
00100000
00000000
00001000
00010000
00000000
00000010
00001000
00000000
00000100
00000000
00000010
00000001
00000000
00001000
00000001
00000000
,
00000100
00000000
00001000
00010000
00000000
00100000
00010000
00000000
00100000
01000000
00100000
00000000
10000000
00010000
10000000
00010000
,
00200000
10000000
00000000
01000000
00000000
00010000
00000000
00301000
,
00100000
00000000
00010000
00100000
00000000
00001000
00000000
00020000
00000000
00000000
00000010
00000000
00030010
00000000
00000000
00000000
,
00010000
00001000
00000010
00000100
00001000
00000001
00000100
00001000
,
00010000
00001000
01000000
00010000
01000000
00000000
00100000
10000000
00000000
00010000
10000000
00000000
01000000
10000000
01000000
10000000
,
00100000
00000000
00100000
00000000
00000000
00000000
00000000
00000000
00010000
00000000
00000000
00001000
00000000
00000000
00000100
00000000
,
00000010
00000000
00000100
00000001
00000100
00000001
00000010
00000000
00000100
00001000
00000100
00000000
00010000
00000000
00001000
00000000
,
01000000
00000000
00100000
10000000
00000000
00010000
10000000
00000000
01000000
00000000
00010000
00001000
00000000
00000010
00001000
00000000
,
00000010
00000000
00000100
00001000
00000000
00000001
00000100
00000000
00000010
00001000
00000010
00000000
00010000
00001000
00010000
00001000
,
00200000
00000000
00000000
00000000
01300000
00000000
00000000
11000000
00000000
00000000
00010000
00000000
00000000
00110000
00000000
00000000
,
00001000
00000000
00000000
00011000
00000000
00000000
00000010
00000000
00001000
00000000
00000001
00000010
00000100
00001000
00000100
00001000
,
00000100
00000000
00010000
00001000
00000000
01000000
00010000
00000000
00100000
00000000
01000000
10000000
00000000
00010000
00100000
00000000
,
01000000
00000000
00010000
00000000
00001000
00000000
00010000
00000000
00000010
00001000
00000010
00001000
00000100
00000000
00000010
00000000
,
00000002
00000000
00000103
00001000
00000000
00011000
00000000
00010000
,
00100000
00000000
10000000
00000000
00010000
00000000
10000000
01000000
00100000
00000000
00010000
00000000
00100000
00000000
00001000
00000000
,
00010000
00000100
00000010
00000002
00000000
00000103
00001000
00020000
,
00000000
00130000
10000000
00010000
10000000
10000000
01000000
01000000
,
01100000
00000000
00100000
00001000
00000000
00011000
00000000
00020000
,
00100000
00000000
00000000
00000000
00031000
00000000
00010000
00000010
00010000
00000000
00001000
00000000
00100000
00000000
00010000
00000000
,
01000000
10000000
01000000
00020000
00000000
00130000
00001000
00010000
,
00000010
00000000
00000100
00000000
00001000
00000000
00000100
00000000
00000001
00000010
00000001
00000000
00001000
00000010
00001000
00000000
,
00000100
00000000
00000000
00010100
00000000
00000000
01000000
00000000
00000000
01001000
00000000
00000000
00001000
00010000
00001000
00000000
,
00100000
00000000
00000000
00101000
00000000
00000000
00000010
00000000
00000000
00010010
00000000
00000000
00010000
00001000
00010000
00000000
,
00000100
00000000
00000000
00010100
00000000
00000000
00011000
00000000
00000000
00101000
00000000
00000000
00001000
00010000
00001000
00000000
,
01000000
00000000
00000000
01001000
00000000
00000000
00011000
00000000
00000000
00010010
00000000
00000000
00010000
00001000
00010000
00000000
,
00000100
00000000
00001000
00000100
00000000
00000010
00000001
00000000
00001000
00000000
00000001
00000000
00000100
00000000
00001000
00000000
,
00010000
00000000
00000000
00010000
00100000
00000000
00000000
00100000
10000000
00000000
00000000
10000000
00020000
00000000
00000000
00000000
,
00130000
00000000
00001000
00010000
00001000
00010000
00000010
00000000
00010000
00001000
00010000
00001000
00100000
00000000
00010000
00000000
,
01000000
00000000
00001000
00000000
00010000
00000000
00000100
00000000
00010000
00001000
00010000
00001000
00010000
00001000
00010000
00001000
;

//--------------- dance-double - forcednature ----------------
#NOTEDATA:;
#STEPSTYPE:dance-double;
#DESCRIPTION:forcednature;
#DIFFICULTY:Challenge;
#METER:18;
#RADARVALUES:0,0,0,0,0;
#CREDIT:forcednature;
#NOTES:
00000000
00000000
00000000
00000000
,
00000000
00000000
00000000
00000000
,
00000000
00000000
00000000
00000000
,
00000000
00000000
00000000
00000000
,
00000000
00000000
00000000
00000000
,
00001000
01000000
00001000
00010000
00001000
00100000
00001000
00001000
,
00010000
00000100
00010000
00001000
00010000
00000010
00010000
00010000
,
00001000
01000000
00001000
01000000
00010000
01000000
00010000
01000000
00100000
10000000
00010000
10000000
01000000
00100000
00010000
00100000
,
00001000
00000000
00000000
00000000
00011000
00000000
00000000
00000000
00010000
00000010
00001000
00000010
00000100
00000000
00000000
00000000
,
00000001
00000000
00000010
00000100
00000000
00001000
00000100
00000000
00010000
00000000
00001000
01000000
00000000
00010000
01000000
00000000
,
00100000
00000000
10000000
00010000
00000000
00100000
00010000
00000000
01000000
00010000
01000000
00000000
00001000
00000000
00010000
00000000
,
00000100
00000000
00001000
00000001
00000000
00000100
00000001
00000000
00000010
00000000
00000100
00001000
00000000
00000100
00010000
00000000
,
00001000
00000000
01000000
00010000
00000000
10000000
00010000
00000000
00100000
01000000
10000000
01000000
00100000
00010000
00100000
00001000
,
00010000
00100000
00010000
00000010
00010000
00100000
00010000
00000010
,
00001000
00000100
00000010
00000001
00000000
00001000
00000000
00000020
00000000
00000000
00010000
00000000
00010030
00000000
00000000
00000000
,
00000010
00001000
00000100
00010000
00001000
00100000
00010000
01000000
,
00100000
10000000
00100000
10000000
00010000
10000000
01000000
00100000
00010000
00100000
00001000
00010000
00001000
00000000
00000100
00000000
,
00000001
00000000
00000010
00000001
00000000
00000100
00000001
00000000
00000010
00000000
00000100
00001000
00000000
00000100
00010000
00000000
,
00001000
00000000
01000000
00010000
00000000
10000000
00010000
00000000
00100000
01000000
00100000
00000000
00010000
00000000
10000000
00000000
,
00100000
00000000
01000000
00010000
00000000
01000000
00001000
00000000
00010000
00000000
00000100
00001000
00000000
00000100
00000010
00000000
,
00000001
00000000
00001000
00000010
00000000
00010000
00000010
00000000
00001000
00000100
00001000
00000001
00000100
00000001
00001000
00000010
,
00020000
00000000
00000000
00000000
00031000
00000000
00000000
00000010
00000000
00000000
00000001
00000000
00000000
00000100
00000000
00000000
,
00001000
00000000
00000000
00010000
00000000
00000000
00100000
00000000
10000000
00010000
10000000
01000000
00100000
00000000
00010000
01000000
,
00001000
00000000
00010000
00000100
00000000
00001000
00000100
00000010
00000001
00000000
00000100
00000001
00000000
00001000
00000010
00010000
,
00001000
00100000
00010000
00100000
01000000
10000000
00010000
01000000
00001000
00010000
00001000
00010000
00000100
00001000
00000100
00001000
,
00000001
00000000
00000100
00000000
00000010
00000000
00010000
00001000
00010000
00000000
00100000
00000000
01000000
00000000
00010000
00000000
,
00000000
01100000
00000000
10000000
00010000
00000000
01001000
00000000
,
00001000
00000000
00010000
00000000
00000100
00000000
00001000
00000001
00000100
00000000
00000010
00000000
00010000
00000000
00001000
00000000
,
00000000
00000000
00100000
00000000
01000000
10000000
01000000
10000000
00100000
00000000
00000000
00000000
01100000
00000000
00000000
00000000
,
00010000
00000000
01000000
00000000
00001000
00000000
00010000
00000100
00001000
00000000
00000010
00000000
00010000
00000000
00001000
00000000
,
00000000
00000000
00000110
00000000
00000000
00000000
00000001
00001000
00000001
00000000
00000000
00000000
00010010
00000000
00000000
00000000
,
00000010
00000000
00001000
00000000
00000100
00000000
00000100
00000000
00010000
00001000
01000000
00010000
01000000
00000000
00100000
00000000
,
00000000
10010000
00000000
10000000
01000000
00010000
00001000
00000000
,
00000020
00000000
00000100
00000000
00000130
00000000
00000010
00000001
00000000
00001000
00000001
00000000
00000100
00000000
00000010
00010000
,
00001000
00000000
00100000
00010000
00000000
10000000
00100000
10000000
00000000
01000000
00100000
00000000
00110000
00000000
00000000
00000000
,
02000000
00000000
00010000
00000000
03010000
00000000
01000000
00001000
00000000
00010000
00000100
00000000
00001000
00000000
00000001
00001000
,
00000010
00000000
00010000
00001000
00000000
00100000
00010000
00100000
01000000
10000000
00010000
10000000
00010000
00000000
00000000
00000000
,
10000000
00000000
01000000
00000000
00010000
00001000
00010000
00001000
00000100
00000000
00000001
00000000
00000010
00000100
00000010
00000100
,
00001000
00000000
00000001
00000000
00000100
00000010
00000100
00000010
00001000
00000100
00010000
00001000
00000000
00001000
01000000
00010000
,
10000000
01000000
00010000
00001000
00000100
00000001
00000010
00000100
,
00010000
00000000
00010000
00000000
00001000
00000000
00001000
00000000
01000000
00010000
01000000
00010000
00100000
01000000
10000000
01000000
,
00100000
00001000
00000000
00020000
00000000
00030100
00001000
00000001
,
00000100
00000000
00001000
00000000
00000000
00000000
00020000
00000000
00000000
00000000
00130000
00000000
01000000
00000000
00010000
10000000
,
00010000
00100000
00000000
00002000
00000000
00013000
00010000
00000010
,
00001000
00000100
00000001
00000100
00010000
00001000
00000100
00000000
,
00000010
00001000
00000000
00020000
00000000
01030000
00100000
10000000
,
00010000
00000000
00100000
00000000
00000000
00000000
02000000
00000000
00000000
00000000
03010000
00000000
00001000
00000000
00010000
00001000
,
00010000
00000100
00000000
00000020
00000000
00000031
00000001
00000100
,
00001000
00010000
00100000
01000000
20020000
00000000
30030000
00000000
,
10000000
00000000
01000000
00000000
01000000
00000000
00020000
00000000
00000000
00000000
00031000
00010000
00001000
00000000
00000010
00000000
,
00000001
00000000
00000100
00000000
00000100
00000000
00002000
00000000
00000000
00000000
00013000
00001000
00010000
00000000
00100000
01000000
,
00100000
10000000
01000000
00020000
00000000
00030100
00000010
00020000
,
00000000
01030000
00100000
00010000
00001000
00000010
00000100
00001000
,
00001001
00000000
00000000
00000000
00000001
00000000
00000000
00000100
00000000
00000000
00001000
00000000
00000000
00100000
00000000
00000000
,
01000000
00000000
00000000
00010000
00000000
00000000
00100000
00000000
01000000
10000000
01000000
10000000
00010000
00100000
01000000
10000000
,
00010000
01000000
00001000
00010000
00000100
00001000
00000010
00010000
,
00001000
00100000
00001000
00100000
00001000
00010000
00001000
00010000
00000010
00001000
00000010
00000100
00000001
00001000
00000001
00000010
,
00000100
00000000
00001000
00000100
00000000
00010000
00001000
00000000
01000000
00000000
00010000
01000000
00000000
00001000
00010000
00000000
,
00000010
00000000
00001000
00000010
00000000
00010000
00001000
00000000
00200000
00000000
00000000
00000000
01300000
00000000
00000000
00000000
,
10000000
00000000
00010000
01000000
00000000
00001000
00010000
00000100
00010000
00000000
00001000
00100000
00000000
00001000
00010000
00000010
,
00010000
00000000
00001000
00000010
00000000
00000010
00000100
00001000
00000100
00000010
00000001
00000000
00001000
00000000
00000001
00000000
,
00000100
00000000
00000010
00001000
00000000
00000010
00010000
00001000
00010000
00000000
00000100
00001000
00000000
00000100
00010000
00001000
,
01000000
00000000
00010000
00100000
00000000
00100000
01000000
00000000
10000000
00010000
01000000
00001000
00100000
00010000
00100000
00001000
,
00020000
00000000
00001000
01000000
00000000
00000000
01000000
00001000
00000000
00000000
00001000
01000000
00000000
00000000
00130000
01000000
,
10000000
01000000
00100000
00010000
00000000
01000000
00000000
00002000
00000000
00000000
00000010
00000000
00003010
00000000
00000000
00000000
,
00001000
00010000
00001000
00000100
00001000
00010000
01000000
00010000
,
00001000
00010000
00000100
00001000
00000100
00000000
00000010
00000001
00000000
00000001
00000100
00000000
00000010
00001000
00000010
00001000
,
00000100
00000000
00000100
00000000
00010000
00001000
01000000
00010000
01000000
00000000
00000000
00110000
00000000
00000000
11000000
00000000
,
00010000
00000000
10000000
00100000
10000000
00100000
01000000
00000000
00001000
00010000
00001000
00010000
00000100
00000000
00001000
00000000
,
00000010
00000000
00000100
00000001
00000000
00001000
00000010
00001000
00000001
00000000
00000010
00000100
00000000
00001000
00000100
00010000
,
00001000
01000000
00001000
01000000
00010000
10000000
00010000
00100000
01000000
10000000
00010000
10000000
00100000
01000000
00010000
01000000
,
00002000
00000000
00000000
00000000
00013000
00000000
00000000
00100000
00000000
00000000
10000000
00000000
00000000
01000000
00000000
00000000
,
00010000
00000000
00000000
00001000
00000000
00000000
00000010
00000000
00000100
00001000
00000100
00000010
00000001
00001000
00000001
00000100
,
00000010
00001000
00000010
00010000
00001000
00000000
01000000
00001000
00100000
00010000
00100000
00001000
00010000
00000000
00000100
00001000
,
00000001
00000010
00000100
00001000
00000100
00010000
00001000
01000000
00010000
01000000
00100000
10000000
00010000
10000000
01000000
00100000
,
00010000
00000000
01000000
00001000
00000000
00010200
00000000
00000320
,
00000000
00000000
00000031
00000000
00000010
00000100
00001000
00000100
00010000
00000000
00001000
00000000
01000000
00000000
00010000
00000000
,
00200000
02300000
23000000
30200000
00000000
00320000
00032000
00003020
,
00000000
00000230
00002300
00003002
00000103
00001000
00010000
00001000
,
00100000
00000000
01000000
00010000
00000000
00012000
00000000
02003000
,
00000000
00000000
13000000
00000000
01000000
00010000
01000000
00100000
10000000
00000000
01000000
00000000
00010000
00000000
01000000
00000000
,
00100000
00000000
00001000
00010000
00000010
00000000
00001000
00000000
00000100
00000000
00010000
00001000
01000000
00000000
00010000
00000000
,
00100000
00000000
00001000
00000000
00000010
00000000
00001000
00000000
00010000
00001000
01000000
00010000
01000000
00100000
10000000
00010000
,
10000000
00000000
01000000
00010000
00000000
00010000
00001000
00000000
00001000
00000010
00000000
00000010
00000100
00001000
00000100
00000010
,
00000001
00000000
00000100
00001000
00000000
00001000
00010000
00000000
00010000
00100000
00000000
00100000
01000000
00010000
01000000
00100000
,
10000000
00000000
01000000
00010000
00000000
00010000
00001000
00000000
00000010
00000001
00000000
00000010
00001000
00000010
00000100
00001000
,
00000001
00000000
00000100
00001000
00000000
00001000
00010000
00000000
00100000
10000000
00010000
10000000
01000000
00100000
00010000
00100000
,
00001000
00000000
00010000
00000010
00000000
00001000
00000010
00000000
00000100
00000000
00000001
00000000
00000010
00000100
00001000
00000100
,
00010000
00000000
00001000
00010000
00000100
00000000
00010000
00001000
01000000
00000000
00001000
00010000
00000020
00000000
00000000
00000000
,
00000130
00000000
00001000
00010000
00001000
00010000
00100000
00000000
00010000
00001000
00010000
00001000
00000010
00000000
00000100
00000000
,
00001000
00000100
00010000
00001000
01000000
00010000
00100000
00001000
00010000
00000010
00001000
00000100
00010000
00001000
01000000
00010000
;
