#VERSION:0.83;
#TITLE:We're so Happy (P*Light Remix) IIDX ver.;
#SUBTITLE:;
#ARTIST:Remixed by P*Light;
#TITLETRANSLIT:;
#SUBTITLETRANSLIT:;
#ARTISTTRANSLIT:;
#GENRE:HAPPY HARDCORE;
#CREDIT:;
#MUSIC:We're so Happy (PLight Remix) IIDX ver.ogg;
#BANNER:We're so Happy (PLight Remix) IIDX ver.png;
#BACKGROUND:We're so Happy (PLight Remix) IIDX ver-bg.png;
#CDTITLE:./CDTitles/bm IIDX 22 PENDUAL.png;
#SAMPLESTART:97.136;
#SAMPLELENGTH:15.000;
#SELECTABLE:YES;
#OFFSET:1.432;
#BPMS:0.000=185.000;
#STOPS:;
#TIMESIGNATURES:0.000=4=4;
#BGCHANGES:0.000=../BGAs/19po.mp4=1.000=0=0=0=StretchNoLoop====,
99999.000=-nosongbg-=1.000=0=0=0=StretchNoLoop====
;
#FGCHANGES:;

//--------------- dance-single - forcednature ----------------
#NOTEDATA:;
#STEPSTYPE:dance-single;
#DESCRIPTION:forcednature;
#DIFFICULTY:Beginner;
#METER:3;
#RADARVALUES:0,0,0,0,0;
#CREDIT:forcednature;
#NOTES:
0000
0000
0000
0000
,
0000
0000
0000
0000
,
0000
0000
0000
0000
,
0000
0000
0000
0000
,
0000
0000
0000
0000
,
0000
0000
0000
0000
,
0001
0000
0000
0000
,
0001
0000
0000
0000
,
1000
0000
0000
0000
,
0010
0000
0000
0000
,
0100
0000
0000
0000
,
0000
0000
0000
0000
,
0001
0000
0000
0000
,
0000
0000
0000
0000
,
1000
0000
0000
0000
,
0000
0000
0000
0000
,
0100
0000
0000
0000
,
0100
0000
0000
0000
,
0010
0000
0000
0000
,
0000
0000
0000
0000
,
0001
0000
0000
0000
,
0000
0000
0000
0000
,
0100
0000
0000
0000
,
0100
0000
0000
0000
,
0010
0000
0000
0000
,
1000
0000
0000
0000
,
0001
0000
0000
0000
,
0000
0000
0000
0000
,
0010
0000
0000
0000
,
0000
0000
0000
0000
,
0100
0000
0000
0000
,
0000
0000
0000
0000
,
1000
0000
0000
0000
,
0001
0000
0000
0000
,
0100
0000
0000
0000
,
0100
0000
0000
0000
,
0010
0000
0000
0000
,
0010
0000
0000
0000
,
1000
0000
0000
0000
,
0001
0000
0000
0000
,
0010
0000
0010
0000
,
0010
0000
0000
0000
,
1001
0000
0000
0000
,
1000
0000
0000
0000
,
0010
0000
0000
0000
,
1000
0000
0000
0000
,
0001
0000
0000
0000
,
0010
0000
0000
0000
,
0001
0000
0000
0000
,
0100
0000
0000
0000
,
0110
0000
0000
0000
,
0010
0000
0000
0000
,
1000
0000
0000
0000
,
0001
0000
0000
0000
,
0010
0000
0000
0000
,
0010
0000
0000
0000
,
0100
0000
0100
0000
,
0100
0000
0000
0000
,
1000
0000
0001
0000
,
0100
0000
0000
0000
,
1001
0000
0000
0000
,
0000
0000
0000
0000
,
0001
0000
0000
0000
,
0000
0000
0000
0000
,
0100
0000
0000
0000
,
0000
0000
0000
0000
,
0010
0000
0000
0000
,
0000
0000
0000
0000
,
1000
0000
1000
0000
,
0001
0000
0001
0000
,
1000
0000
1000
0000
,
0001
0000
0001
0000
,
0100
0000
0100
0000
,
0010
0000
0010
0000
,
0100
0000
0010
0000
,
0100
0000
0000
0000
,
1001
0000
0000
0000
,
0001
0000
0000
0000
,
1000
0000
0000
0000
,
0100
0000
0000
0000
,
1000
0000
0000
0000
,
0001
0000
0000
0000
,
0100
0000
0000
0000
,
0010
0000
0000
0000
,
1001
0000
0000
0000
,
1000
0000
0000
0000
,
0100
0000
0000
0000
,
0010
0000
0000
0000
,
1001
0000
0000
0000
,
0110
0000
0000
0000
,
0010
0000
0010
0000
,
0100
0000
0000
0000
,
1001
0000
0000
0000
;

//--------------- dance-single - forcednature ----------------
#NOTEDATA:;
#STEPSTYPE:dance-single;
#DESCRIPTION:forcednature;
#DIFFICULTY:Easy;
#METER:7;
#RADARVALUES:0,0,0,0,0;
#CREDIT:forcednature;
#NOTES:
0000
0000
0000
0000
,
0000
0000
0000
0000
,
0000
0000
0000
0000
,
0000
0000
0000
0000
,
0000
0000
0000
0000
,
1001
0000
0000
0000
,
0001
0100
0001
0000
,
1000
0100
1000
0000
,
1001
0000
0110
0000
,
2002
0000
0000
3003
,
1000
0100
1000
0000
,
0100
0010
0100
0000
,
0010
0000
0001
0000
,
0001
0000
1000
0000
,
0001
0100
0001
0000
,
0100
0010
0100
0000
,
0010
0000
1000
0000
,
1001
0000
0010
0010
,
0100
0000
0001
1000
,
0001
0000
0010
0000
,
0100
1000
0001
0000
,
0100
0001
1000
0000
,
0110
0000
0001
0000
,
1001
0000
1000
0000
,
0110
0000
1001
0000
,
0110
0000
0000
0000
,
2000
0000
0000
0000
,
0000
0000
0000
3000
,
0200
0000
0000
0000
,
0000
0000
0300
0010
,
0020
0000
0000
0000
,
0000
0000
0000
0030
,
0002
0000
0000
0003
,
0100
0100
0010
0010
,
1000
0001
0000
0001
,
0010
0001
0000
0001
,
0100
0001
0000
0001
,
1000
0001
0000
0001
,
0100
0010
0100
0010
,
1000
0001
1000
0001
,
0010
0010
0100
0100
,
2000
0000
3000
0000
,
0001
0100
0010
0000
,
0100
0001
1000
0000
,
0100
0010
0001
0000
,
0100
0100
0010
0000
,
1000
0001
0010
0000
,
0001
1000
0010
0000
,
0100
0001
1000
0000
,
2002
0000
0000
3003
,
1000
0100
0010
0000
,
0100
1000
0001
0000
,
0100
0010
1000
0000
,
0001
0010
0100
0000
,
0220
0000
0330
0000
,
2002
0000
3003
0000
,
0110
0000
1000
0001
,
2002
0000
0000
3003
,
0001
0000
1000
0000
,
0010
0010
0010
0000
,
0220
0000
0000
0000
,
0000
0000
0330
0000
,
0002
0000
2003
0000
,
3200
0000
0300
0000
,
0220
0000
0000
0000
,
0000
0000
0330
0000
,
2000
0000
3002
0000
,
0203
0000
0300
0000
,
0010
0000
1000
1000
,
1000
0000
0100
0100
,
0100
0000
0001
0001
,
0001
0000
0010
0010
,
0010
0000
0001
0000
,
0100
0000
1000
0000
,
0010
0100
0010
0100
,
0002
0000
0000
0003
,
1000
0100
0010
0100
,
1000
0001
0010
0000
,
0001
0100
0010
0100
,
0001
1000
0010
0000
,
1000
0001
0010
0100
,
1000
0001
0100
0000
,
0010
1000
0100
1000
,
0010
1000
0001
0000
,
0010
0100
1000
0001
,
0100
0010
1000
0000
,
0001
0010
0100
0010
,
0001
1000
0010
0000
,
0110
0000
0000
0000
,
1001
0000
1000
0001
,
0100
0000
0000
0100
0000
0000
0100
0000
,
0010
1000
0001
0010
,
1001
0000
0000
0000
;

//--------------- dance-single - forcednature ----------------
#NOTEDATA:;
#STEPSTYPE:dance-single;
#DESCRIPTION:forcednature;
#DIFFICULTY:Medium;
#METER:12;
#RADARVALUES:0,0,0,0,0;
#CREDIT:forcednature;
#NOTES:
0000
0000
0000
0000
,
0000
0000
0000
0000
,
0000
0000
0000
0000
,
0000
0000
0000
0000
,
0000
0000
0000
0000
,
2002
0000
0000
0000
0000
3003
0000
0000
,
0101
1000
0010
1000
,
1100
0001
0010
0001
,
0101
1000
1100
0001
,
0220
0000
0000
0330
,
1000
0001
1000
0000
0010
0000
0100
0000
,
0001
1000
0001
0000
0010
0000
0100
0000
,
1000
0010
1000
0000
0010
0100
0010
0000
,
0100
0001
0100
0000
0001
1000
0001
0000
,
1000
0100
1000
0000
0001
0000
0010
0000
,
0001
0100
0001
0000
1000
0000
0010
0000
,
1000
0100
1000
0000
0001
0100
0001
0000
,
1001
0000
0000
0000
0000
0000
0000
0000
0001
0000
0000
0001
0000
0000
0100
0000
,
0001
0000
1000
0010
1000
0001
0100
0000
,
0001
0000
1000
0100
1000
0001
0010
0000
,
0100
1000
0000
0001
0000
1000
0010
0000
,
0100
0001
1000
0000
0100
0100
0100
0000
,
0110
0000
0010
0001
1000
0001
0100
0000
,
0110
0000
0010
1000
0001
1000
0100
0000
,
0011
0100
1010
0100
,
2002
0000
0000
3003
,
0001
0000
0000
0200
0000
0320
0000
2030
,
0000
3002
0000
0203
0000
0320
0000
0030
,
1000
0000
0000
0200
0000
0320
0000
0032
,
0000
2003
0000
3200
0000
0320
0000
0030
,
1001
0000
0000
2000
0000
3200
0000
2300
,
0000
3020
0000
2030
0000
3002
0000
0003
,
1001
0000
0000
0002
0000
0203
0000
0300
,
1010
1100
0011
0101
,
1000
0000
0100
0000
1000
0000
0000
0001
0000
0000
0001
0000
0010
0000
0000
0000
,
0001
0000
0100
0000
0001
0000
0000
1000
0000
0000
1000
0000
0010
0000
0000
0000
,
0100
0000
0010
0000
0100
0000
0000
0001
0000
0000
0001
0000
0010
0000
0000
0000
,
0100
0000
0010
0000
0100
0000
0000
1000
0000
0000
1000
0000
0010
0000
0000
0000
,
0100
0001
0100
0000
0001
0010
0001
0000
,
1000
0010
1000
0000
0100
1000
0100
0000
,
0010
0100
0010
0100
1000
0001
1000
0001
,
0200
0000
0000
0000
0000
0300
0000
0000
,
0010
1000
0001
1000
0100
0000
0010
0000
,
0100
1000
0001
0000
0100
0001
1000
0000
,
0010
0100
0001
0010
0100
0000
1000
0000
,
0001
0100
0010
0000
1000
0000
0001
0000
,
0010
0100
1000
0001
0100
0000
0010
0000
,
1000
0100
0010
0000
0100
1000
0001
0000
,
0100
0010
1000
0001
0010
0000
0100
0000
,
2002
0000
0000
0000
0000
3003
0000
0000
,
0001
0100
0010
1000
0001
0000
0010
0000
,
0100
1000
0001
0000
0100
0001
1000
0000
,
0100
0010
0001
0100
0010
0000
1000
0000
,
0001
0010
0100
0000
1000
0001
0100
0000
,
0220
0000
0000
0000
0000
0330
0000
0002
,
2000
0000
0000
0000
0000
3003
0000
0200
,
0020
0000
0000
0000
0330
0000
0001
0000
1000
0000
0000
1000
0000
0000
0010
0000
,
0200
0000
0000
0301
,
1000
0100
1000
0000
0001
0100
0001
0000
,
0010
0100
0010
0100
1000
0000
0001
0000
,
2002
0000
0000
0000
,
0000
0000
3003
0000
,
2000
0000
3100
0020
0000
0032
0000
2000
,
0000
0000
0000
3003
,
0220
0000
0000
0000
,
0000
0000
0330
0000
,
0001
0200
0000
0320
0000
2030
0000
0002
,
0000
0000
0000
3003
,
1000
0000
0100
0000
1000
0000
0100
0000
0010
0000
0000
0010
0000
0000
0010
0000
,
0001
0000
0100
0000
0001
0000
0100
0000
0010
0000
0000
0010
0000
0000
0010
0000
,
1000
0000
0010
0000
1000
0000
0010
0000
0100
0000
0000
0100
0000
0000
0100
0000
,
0001
0000
0010
0000
0001
0000
0010
0000
0100
0000
0000
0100
0000
0000
0100
0000
,
1000
0010
1000
0010
1000
0100
1000
0000
,
0001
0010
0001
0010
0001
0100
0001
0000
,
0010
0100
0010
0100
1000
0001
1000
0001
,
0200
0000
0000
0000
0000
0300
0000
0000
,
0010
1000
0001
0100
0010
1000
0001
0100
,
0010
1000
0001
1000
0100
0010
0001
0000
,
1000
0100
0010
0001
1000
0100
0010
0001
,
0100
0010
1000
0001
0010
0100
1000
0000
,
0001
0100
0001
1000
0100
1000
0001
0010
,
0001
1000
0010
1000
0100
0010
0001
0000
,
0100
0010
1000
0001
0100
0010
1000
0001
,
0010
0100
1000
0001
0100
0010
1000
0000
,
0100
1000
0001
1000
0010
1000
0001
1000
,
0100
0010
0001
1000
0100
0010
0001
0000
,
0100
0001
1000
0001
0010
0001
1000
0001
,
0100
0010
1000
0001
0100
0010
1000
0000
,
2002
0000
0000
0000
0000
3003
0000
0100
,
0020
0030
1100
0101
,
1010
0000
0000
0011
0000
0000
1001
0000
,
0100
0010
0100
0010
0100
0010
0100
0000
,
1001
0000
0000
0000
;

//--------------- dance-single - forcednature ----------------
#NOTEDATA:;
#STEPSTYPE:dance-single;
#DESCRIPTION:forcednature;
#DIFFICULTY:Hard;
#METER:15;
#RADARVALUES:0,0,0,0,0;
#CREDIT:forcednature;
#NOTES:
0000
0000
0000
0000
,
0000
0000
0000
0000
,
0000
0000
0000
0000
,
0000
0000
0000
0000
,
0000
0000
0000
0000
,
2002
0000
0000
0000
0000
3003
0000
0000
,
1100
0000
0100
0010
0100
1000
0010
0000
,
0101
0000
0100
0010
0100
0001
0010
0000
,
0100
1000
0100
0000
0010
0000
0001
0000
0100
0001
0100
0000
0010
0000
1000
0000
,
0100
0010
0100
0010
0100
0010
0001
0000
,
0100
0010
1000
0001
0000
0001
1000
0010
,
0100
0001
0000
1000
0000
0100
0010
0001
,
1000
0010
0000
0001
0000
0010
0100
0000
,
0001
0000
0010
0000
0100
0000
1000
0000
0001
0010
0001
0000
1000
0000
0000
0000
,
0100
0010
0001
1000
0000
0100
0010
0001
,
1000
0100
0000
1000
0000
0010
0100
0001
,
1000
0100
1000
0010
0100
0100
0001
0000
,
1001
0000
0000
0000
0000
0000
0000
0000
0100
0000
0000
0110
0000
0000
0001
0000
,
1000
0100
0010
0100
1000
0010
0100
0010
,
1000
0001
0010
0001
0100
0010
1000
0000
,
0001
0010
0100
1000
0000
0001
0100
0000
,
1000
0000
0100
0000
0001
0000
0010
0000
0100
1000
0100
0000
0010
0000
0000
0000
,
0001
1000
0001
0000
0100
0000
0010
0000
1000
0000
0001
0000
0010
0000
0000
0000
,
1000
0001
1000
0000
0100
0000
0010
0000
0001
0000
1000
0000
0010
0000
0000
0000
,
0001
0100
0001
0000
1000
0000
0010
0000
1000
0100
1000
0000
0001
0000
0000
0000
,
0100
0010
0100
0000
0010
0000
0010
0000
1000
0000
1000
0000
0001
0000
0000
0000
,
0010
0100
1000
0200
0000
0320
0000
0032
,
0000
2003
0000
3002
0000
0103
0010
0000
,
1000
0100
1000
0002
0000
0203
0000
0320
,
0000
2030
0000
3002
0000
0013
0110
0000
,
1000
0001
0100
0002
0000
2003
0000
3200
,
0000
0320
0000
0230
0000
1300
0001
0000
,
0100
0010
1000
0002
0000
0023
0000
0130
,
1100
0101
1010
0011
,
0001
0000
0100
0000
0010
1000
0000
0001
0000
0100
0010
0000
1000
0000
0000
0000
,
0001
0000
0010
0000
0100
1000
0000
0001
0000
0010
0100
0000
1000
0000
0001
0000
,
1000
0000
0010
0000
0100
0001
0000
1000
0000
0010
0100
0000
0001
0000
0000
0000
,
1000
0000
0100
0000
0010
0001
0000
1000
0000
0100
0010
0000
0001
0000
0000
0000
,
0100
1000
0100
1000
0100
0001
0100
0001
,
0010
1000
0010
1000
0010
0001
0010
0001
,
1000
0100
1000
0000
0100
0010
0100
0000
0010
0001
0010
0000
0001
1000
0001
0000
,
0200
0000
0000
0000
0000
0300
0000
0000
,
0010
0000
1000
0001
0000
1000
0000
0100
0000
0000
0010
0000
0001
0000
0000
0000
,
1000
0000
0010
1000
0000
0001
0000
0010
0000
0100
0000
1000
0002
0000
0000
0000
,
0103
0000
0010
0100
0000
0001
0000
1000
0000
0000
0100
0000
0010
0000
0000
0000
,
0001
0000
1000
0001
0000
0100
0000
0010
0000
1000
0000
0001
0020
0000
0000
0000
,
0130
0000
0010
0001
0000
1000
0000
0001
0000
0000
0100
0000
0010
0000
0000
0000
,
1000
0000
0100
1000
0000
0001
0000
0100
0000
0010
0000
1000
0002
0000
0000
0000
,
0013
0000
0100
0010
0000
0001
0000
1000
0000
0000
0001
0000
0100
0000
0010
0000
,
0220
0000
0000
0000
0000
0330
0000
0000
,
0100
0000
0001
1000
0000
0100
0000
0010
0000
0000
0100
0000
1000
0000
0000
0000
,
0001
0000
0100
0010
0000
1000
0000
0001
0000
0010
0000
0100
0010
0000
0010
0000
,
0001
0000
1000
0010
0000
0100
0000
0001
0000
0000
1000
0000
0100
0000
0000
0000
,
1000
0000
0001
0100
0000
0010
0000
1000
0000
0001
0000
0010
0100
0000
0000
0000
,
0220
0000
0000
0000
0000
0330
0000
0010
,
2002
0000
0000
0000
0000
3003
0000
0100
,
2002
0000
0000
3003
0000
0000
0010
0000
0101
0000
0000
1100
0000
0000
0001
0000
,
0100
0000
0100
0000
0010
0000
0010
0000
1000
0000
0001
1000
0001
0000
0000
0000
,
1100
0000
0020
0030
0001
0001
0020
0030
,
0100
1000
0100
0000
1000
0100
1000
0000
0010
0000
1000
0000
0001
0000
0000
0000
,
0100
0010
1000
0020
0000
0130
0001
2000
,
0000
0000
3200
0000
,
0320
0000
0031
2000
0000
3020
0000
0230
,
0000
0000
0000
0300
,
0010
1000
0001
2000
0000
3100
0010
0002
,
0000
0000
0203
0000
,
0310
2000
0000
3002
0000
0023
0000
0230
,
0000
0000
0000
0300
,
0010
0000
0001
0000
0100
0000
0001
0000
1000
0000
0000
1000
0000
0000
1000
0000
,
0010
0000
1000
0000
0100
0000
1000
0000
0001
1000
0000
0001
0000
0000
0001
0000
,
0100
0000
0001
0000
0010
0000
0001
0000
1000
0000
0000
1000
0000
0000
1000
0000
,
0100
0000
1000
0000
0010
0000
1000
0000
0001
1000
0000
0001
0000
0000
0001
0000
,
0100
0010
1000
0010
0100
0001
0010
0001
,
1000
0100
0010
0100
1000
0001
0100
0001
,
0010
0001
0010
0000
0001
0100
0001
0000
1000
0100
1000
0000
0010
1000
0010
0000
,
0200
0000
0000
0000
0000
0300
0000
0000
,
0010
1000
0100
0001
0100
1000
0001
0010
,
0001
0000
0100
0000
0010
0000
1000
0000
0001
0000
0010
0100
1000
0000
0000
0000
,
0001
0100
0010
1000
0100
0001
0100
1000
,
0001
0000
0100
0000
0010
0000
1000
0000
0100
0000
0010
0001
1000
0000
0000
0000
,
0010
0100
0001
1000
0010
0001
0010
0100
,
0001
0000
0010
0000
0100
0000
1000
0000
0001
0000
0100
0010
1000
0000
0000
0000
,
0100
1000
0100
0000
0010
0100
0010
0000
0001
0010
0001
0000
1000
0001
1000
0000
,
0010
0100
0001
0100
0010
1000
1001
0000
,
0001
0010
0100
0000
1000
0000
0001
0000
0100
0000
1000
0000
0100
0000
0001
0000
,
0010
0000
0100
0000
1000
0000
0001
0000
0100
0000
0010
1000
0001
0000
0000
0000
,
1000
0100
0010
0000
0100
0000
1000
0000
0001
0000
0100
0000
0010
0000
0001
0000
,
0010
0000
1000
0000
0100
0000
1000
0000
0001
0000
0100
0000
0010
0000
1000
0001
,
0020
0000
0100
0100
0100
0000
0130
0010
,
1001
0000
0010
0100
0110
0000
1001
0000
,
1000
0100
1000
0000
0010
0000
0100
0001
0100
0000
0010
0000
1001
0000
0000
0000
,
0001
0100
0001
0000
1000
0100
1000
0000
0010
0100
0010
0100
0001
0000
0000
0000
,
1001
0000
0000
0000
;

//--------------- dance-single - forcednature ----------------
#NOTEDATA:;
#STEPSTYPE:dance-single;
#DESCRIPTION:forcednature;
#DIFFICULTY:Challenge;
#METER:17;
#RADARVALUES:0,0,0,0,0;
#CREDIT:forcednature;
#NOTES:
0000
0000
0000
0000
,
0000
0000
0000
0000
,
0000
0000
0000
0000
,
0000
0000
0000
0000
,
0000
0000
0000
0000
,
2002
0000
0000
0000
0000
3003
0000
0000
,
0001
0100
0001
0000
1000
0000
0001
0000
0010
0000
0001
0000
1000
0000
0001
0000
,
1000
0100
1000
0000
0001
0000
1000
0000
0010
0000
1000
0000
0001
0000
1000
0000
,
0100
0010
0100
0000
1000
0000
0001
0000
0100
0010
0100
0000
0001
0000
1000
0000
,
0100
0010
0100
0010
0001
0010
0001
0010
0100
1000
0100
1000
0001
0000
0000
0000
,
0100
0010
0001
0010
1000
0001
0010
0001
,
0100
1000
0100
0001
0010
1000
0010
0001
,
0100
1000
0001
0010
0000
1000
0001
0000
,
1000
0000
0010
0000
0100
0000
0001
0000
1000
0010
0100
0001
1000
0000
0000
0000
,
0100
0010
1000
0010
0001
1000
0010
1000
,
0100
0001
0100
1000
0010
0001
0010
1000
,
0100
0001
1000
0010
0001
0001
1000
0000
,
1001
0000
0000
0000
0010
0000
0100
0010
0100
0000
0000
0011
0000
0000
1010
0000
,
0001
0010
0100
0000
0010
0000
0001
1000
0010
0000
0100
0000
0001
1000
0100
0000
,
0010
0100
1000
0000
0001
0000
0100
0010
1000
0000
0001
0010
0100
0000
0000
0000
,
1000
0010
0001
0010
0100
0001
1000
0000
,
0001
0000
0010
0000
0100
0000
1000
0000
0001
0010
0100
1000
0001
0000
0000
0000
,
0100
0001
0100
0001
1000
0000
0010
0000
1000
0000
0001
0000
0010
0000
0001
0000
,
1000
0100
1000
0100
0010
0000
0001
0000
1000
0000
0001
0000
0100
0000
0010
0000
,
1000
0100
1000
0100
0010
0100
0010
0000
0001
0100
0001
0100
0010
0100
0010
0000
,
1000
0100
0010
0001
1000
0010
0100
0001
0010
0100
1000
0001
0100
0000
0000
0000
,
0010
1000
0001
2000
0000
3200
0000
0320
,
0000
0230
0000
2300
0000
3001
0100
0000
,
0010
1000
0001
2000
0000
3200
0000
0320
,
0000
0032
0000
0023
0000
0130
0110
0000
,
1001
0001
0100
0002
0000
2003
0000
3200
,
0000
2300
0000
3002
0000
0013
0100
0000
,
1001
1000
0001
0200
0000
0302
0000
1003
,
1010
0011
1100
0101
,
1100
0000
0100
0000
0010
0100
0000
1000
0000
0100
0010
0000
0011
0000
0000
0000
,
0101
0000
0100
0000
0010
0100
0000
0001
0000
0100
0010
0000
1010
0000
1000
0001
,
0010
0000
0100
0000
1000
0100
0000
0010
0000
0100
1000
0000
1010
0000
0000
0000
,
0010
0000
0100
0000
0001
0100
0000
0010
0000
0100
0001
0000
0011
0000
0010
0100
,
1000
0010
1010
1000
0001
0010
0011
0001
,
1000
0100
1100
1000
0001
0100
0101
0001
,
1000
0010
1000
0010
0100
0001
0100
0001
1000
0010
1000
0010
0100
0001
0100
0001
,
0010
0100
0010
0100
0010
0100
0010
0100
0010
0000
0000
0000
0010
0001
1000
0001
,
0100
0000
0010
1000
0000
0100
0000
1000
0000
0000
0001
0000
0100
0000
0001
0000
,
1000
0000
0001
0010
0000
0100
0000
1000
0000
0001
0000
0100
0010
1000
0010
0100
,
0001
0000
1000
0100
0000
0010
0000
0100
0000
0000
1000
0000
0001
0000
0010
0000
,
0001
0000
1000
0010
0000
0100
0000
0001
0000
1000
0000
0100
0010
0000
0000
0000
,
0110
0000
0100
1000
0000
0001
0000
0100
0000
0000
0010
0000
1000
0000
0001
0000
,
0010
0000
0100
0010
0000
0001
0000
1000
0000
0010
0000
0100
0001
0100
0010
1000
,
0001
0000
0010
0100
0000
1000
0000
0001
0000
0000
0100
0000
0010
0000
0110
0000
,
1002
0000
0000
1000
0000
1000
0000
0103
0000
0001
0010
0100
0010
0000
0000
0000
,
0100
0000
1000
0100
0010
0001
0000
1000
0001
0000
0100
0000
0010
1000
0010
0000
,
0100
0000
0001
1000
0100
1000
0000
0001
0010
0100
0000
0010
0001
1000
0001
0100
,
0010
0000
1000
0001
0100
0010
0000
1000
0100
0000
0010
0000
0001
1000
0001
0000
,
0100
0000
0010
1000
0010
0100
0000
0001
0010
0100
0000
1000
0001
0000
0000
0000
,
0001
0100
0001
0100
0010
1000
0010
1000
0001
0100
0001
0100
0010
0000
1010
0000
,
1000
0100
1000
0100
0010
0001
0010
0001
1000
0100
1000
0100
0010
0000
0011
0000
,
0001
0100
0010
1000
0001
0000
0011
0000
1010
0000
0000
1100
0000
0000
0101
0000
,
0001
0010
0100
1000
0001
0100
0010
1000
0100
0010
0001
1000
0010
0000
0000
0000
,
0100
0000
0001
0000
0011
0000
0000
0000
0100
1000
0100
0000
1010
0000
0000
0000
,
1000
0100
0010
0001
1000
0100
0010
0001
0100
0000
0110
0000
1001
0000
0000
0000
,
0001
0100
0010
2000
0000
3001
0010
0200
,
0000
0000
2300
0000
,
3020
0000
0130
0002
0000
2003
0000
3200
,
0010
0000
0010
0010
0000
0000
0300
0000
,
0100
1000
0100
0020
0000
0031
1000
0020
,
0000
0000
0230
0000
,
0310
2000
0000
3002
0000
2003
0000
3200
,
0010
0000
0000
0000
0010
0000
0010
0000
0000
0000
0000
0300
0000
0000
0000
0000
,
0001
0000
0100
0000
0010
0000
1000
0000
1010
0000
0000
1100
0000
0000
0101
0000
,
0001
0000
0010
0000
0100
0000
1000
0000
0010
0100
0000
0110
0000
0000
1001
0000
,
1000
0000
0100
0000
0010
0000
0001
0000
0011
0000
0000
0101
0000
0000
1100
0000
,
1000
0000
0010
0000
0100
0000
0001
0000
0010
0100
0000
0110
0000
0000
1001
0000
,
1000
0100
0010
0100
1000
0100
0010
0000
0001
0100
0010
0100
0001
0100
0010
0000
,
1000
0001
0010
0001
1000
0001
0010
0000
0001
1000
0010
1000
0001
1000
0010
0000
,
0100
0001
0100
0001
0010
0001
0010
0001
1000
0010
1000
0010
1000
0100
1000
0100
,
0020
0000
0000
0000
0000
0030
0000
0000
,
1000
0100
0010
0000
0100
0000
1000
0001
0010
0000
0100
0000
1000
0001
0100
0000
,
0010
1000
0001
0000
0010
0000
0001
0100
0010
0000
1000
0000
0001
0010
0100
0000
,
1000
0001
0100
0000
0010
0000
1000
0100
0010
0000
0100
0000
1000
0001
0100
0000
,
0010
1000
0001
0000
0010
0000
0100
1000
0001
0000
0100
0010
1000
0000
0000
0000
,
0001
0010
0100
0000
0010
0000
0001
1000
0010
0000
0100
0000
0001
1000
0100
0000
,
1000
0001
0100
0000
0010
0000
1000
0001
0010
0000
0100
0000
1000
0001
0100
0000
,
0010
1000
0010
1000
0010
0100
0010
0100
0001
0100
0001
0100
0001
1000
0001
1000
,
0100
0000
0010
0100
0010
0000
0001
0000
1000
0001
0000
0001
0100
0000
0000
0000
,
0010
1000
0001
0000
0010
0000
0100
1000
0001
0000
0100
0000
0010
1000
0100
0000
,
1000
0001
0100
0000
0010
0000
1000
0001
0010
0000
0100
0000
1000
0100
0010
0000
,
0001
1000
0010
0000
0100
0000
0001
1000
0100
0000
1000
0000
0001
0100
0010
0000
,
1000
0001
0010
0000
0100
0000
1000
0001
0100
0000
0010
1000
0001
0000
0010
0000
,
0110
0000
0000
0000
0100
1000
0100
1000
0001
0010
0001
0010
0100
1000
0001
0000
,
1001
0000
0000
0000
0100
0001
0100
0001
1000
0010
1000
0010
0100
0001
1000
0000
,
0100
1000
0001
1000
0010
0000
0100
0001
1000
0001
0010
0000
0100
1000
0001
0000
,
0100
0010
0100
0010
1000
0001
1000
0001
0010
0100
0010
0100
1000
0001
1000
0000
,
1001
0000
0000
0000
;

//--------------- dance-double - forcednature ----------------
#NOTEDATA:;
#STEPSTYPE:dance-double;
#DESCRIPTION:forcednature;
#DIFFICULTY:Easy;
#METER:9;
#RADARVALUES:0,0,0,0,0;
#CREDIT:forcednature;
#NOTES:
00000000
00000000
00000000
00000000
,
00000000
00000000
00000000
00000000
,
00000000
00000000
00000000
00000000
,
00000000
00000000
00000000
00000000
,
00000000
00000000
00000000
00000000
,
00000000
00000000
00000000
00000000
,
00001000
00001000
01000000
00001000
,
00010000
00010000
00000100
00010000
,
00001000
00100000
00010000
10000000
,
02000000
00000000
00000000
03000000
,
00100000
00010000
00100000
00001000
,
00010000
00000010
00001000
00000010
,
00000100
00000001
00001000
00000010
,
00001000
00000001
00000100
00000000
,
00000001
00000010
00000001
00001000
,
00000100
00001000
00000001
00000010
,
00000001
00000100
00001000
00000000
,
00022000
00000000
00033000
00000000
,
00010000
00100000
10000000
00010000
,
01000000
00010000
10000000
00000000
,
01000000
00010000
00001000
00100000
,
00010000
00100000
00001000
00000000
,
00011000
00010000
00000010
00001000
,
00001001
00000001
00000010
00000100
,
00000110
00000010
00000110
00000000
,
00022000
00000000
00000000
00033000
,
00002000
00000000
00000000
00000000
,
00000000
00000000
00000000
00000000
,
02003000
00000000
00000000
00000000
,
00000000
00000000
00000000
03010000
,
00020000
00000000
00000000
00000000
,
00000000
00000000
00000000
00030000
,
20000000
00000000
00000000
30000000
,
01000000
00010000
00001000
00000010
,
00000100
00001000
00000100
00000000
00010000
00000000
00001000
00000000
,
01000000
00010000
01000000
00000000
00001000
00000000
00010000
00000000
,
00000010
00001000
00000010
00000000
00010000
00000000
00001000
00000000
,
00100000
00010000
00100000
00000000
00001000
00000000
00010000
00000000
,
00000100
00001000
00000100
00000000
00010000
00001000
00010000
00000000
,
00000010
00001000
00000010
00000000
00010000
00001000
00010000
00000000
,
00000100
00000110
00000010
00000110
,
00002002
00000000
00003003
00000000
,
00001000
00000100
00010000
00001000
,
00100000
00010000
00100000
00000000
00001000
00000000
00010000
00000000
,
00001000
01000000
00010000
01000000
,
00100000
10000000
00100000
00000000
01000000
00000000
00010000
00000000
,
10000000
01000000
00100000
01000000
,
00100000
00010000
00100000
00000000
00001000
00000000
00010000
00000000
,
00000010
00001000
00000001
00000100
,
00000010
00001000
00000010
00000000
00000100
00000000
00001001
00000000
,
00000001
00000010
00000100
00000010
,
00000100
00001000
00000100
00000000
00010000
00000000
00001000
00000000
,
01000000
00010000
01000000
00100000
,
10000000
00100000
10000000
00000000
00010000
00000000
00100000
00000000
,
01100000
00000000
00010000
00001000
,
00011000
00000000
00000010
00000100
,
00000110
00000000
00001000
00010000
,
00022000
00000000
00000000
00033000
,
01000000
00010000
01000000
00000000
00001000
00010000
00001000
00000000
,
00100000
00100000
01100000
10010000
,
20000000
00000000
00000000
00000000
,
00000000
00000000
00000000
00000000
,
32000000
00000000
00000000
00000000
,
00000000
00000000
00000000
00000000
,
03200000
00000000
00000000
00000000
,
00000000
00000000
00000000
00000000
,
00302000
00000000
00000000
00000000
,
00000000
00000000
00000000
00000000
,
00013000
00010000
00000100
00010000
,
00001000
00001000
01000000
00001000
,
00010000
00010000
00000010
00010000
,
00001000
00001000
00100000
00001000
,
00010000
00000100
00010000
00000000
00001000
00000000
00100000
00000000
,
00001000
01000000
00001000
00000000
00010000
00000000
00000010
00000000
,
00010000
00001000
00010000
00000000
00001000
00010000
00001000
00000000
,
00022000
00000000
00000000
00000000
00000000
00033000
00000000
00000000
,
00001000
00000000
00010000
00000000
00000100
00001000
00000100
00000000
,
00000010
00000001
00001000
00000010
,
00010000
00000000
00001000
00000000
01000000
00010000
01000000
00000000
,
00001000
00010000
00001000
00100000
,
00010000
00000000
10000000
00000000
01000000
00100000
01000000
00000000
,
10000000
00010000
01000000
00001000
,
00010000
00000000
00000100
00000000
00001000
00000100
00001000
00000000
,
00000001
00000000
00000010
00000000
00000100
00000010
00000100
00000000
,
00001000
00000000
00000001
00000000
00000100
00000001
00000100
00000000
,
00000010
00001000
00000010
00010000
,
00001000
00000000
01000000
00000000
00010000
01000000
00010000
00000000
,
10000000
00100000
10000000
01000000
,
01100000
00100000
00001000
00010000
,
00011000
00001000
00000010
00000001
,
00001001
00000000
00000000
00000110
00000000
00000000
00001001
00000000
,
00000001
00000000
00000100
00000000
00001000
00010000
00001000
00000000
,
00011000
00000000
00000000
00000000
;

//--------------- dance-double - forcednature ----------------
#NOTEDATA:;
#STEPSTYPE:dance-double;
#DESCRIPTION:forcednature;
#DIFFICULTY:Medium;
#METER:13;
#RADARVALUES:0,0,0,0,0;
#CREDIT:forcednature;
#NOTES:
00000000
00000000
00000000
00000000
,
00000000
00000000
00000000
00000000
,
00000000
00000000
00000000
00000000
,
00000000
00000000
00000000
00000000
,
00000000
00000000
00000000
00000000
,
00022000
00000000
00000000
00000000
00000000
00033000
00000000
00000000
,
00011000
01000000
00010000
00100000
,
00011000
00000100
00001000
00000010
,
00011000
00100000
00011000
00000010
,
00000220
00000000
00000000
00000330
,
00000001
00000010
00001000
00010000
,
00001000
00000010
00000001
00001000
,
00000100
00001000
00000100
00000000
00010000
00001000
00010000
00000000
,
00000010
00001000
00000010
00000000
00010000
00001000
00010000
00000000
,
00000100
00001000
00000010
00000100
,
00001000
00010000
00100000
01000000
,
00010000
10000000
00100000
00000000
10000000
00010000
00100000
00000000
,
01100000
00000000
00000000
00000000
00000000
00000000
00000000
00000000
10000000
00000000
00000000
10000000
00000000
00000000
00010000
00000000
,
10000000
00000000
01000000
00010000
00001000
00000000
00100000
00000000
,
00001000
00000000
00010000
00000100
00001000
00000000
00000001
00000000
,
00000100
00000000
00001000
00010000
00000010
00000000
00010000
00001000
,
00000010
00000000
00001000
00010000
00000010
00000000
00001000
00000000
,
00001001
00000001
00000010
00001000
,
00011000
00010000
00100000
10000000
,
10010000
01000000
10010000
00100000
,
00022000
00000000
00000000
00033000
,
00000200
00000000
00000000
00000000
,
00000000
00000000
00000000
00000000
,
00002300
00000000
00000000
00000000
,
00000000
00000000
00000000
00003001
,
00000201
00000000
00000000
00000000
,
00000000
00000000
00000000
00000300
,
00022000
00000000
00000000
00033000
,
00100000
00011000
00000010
00011000
,
01000000
00010000
00100000
00001000
00010000
00000010
00001000
00000000
,
00000100
00001000
00000010
00010000
00001000
00100000
00010000
01000000
,
00010000
00100000
00010000
01000000
00001000
00010000
00000100
00000000
,
00001000
00000010
00001000
00000100
00010000
00001000
01000000
00000000
,
00010000
00100000
01000000
00100000
00010000
01000000
00100000
01000000
,
00001000
00010000
00000100
00010000
00001000
00000010
00000100
00000010
,
00000001
00000100
00001000
00010000
01000000
10000000
00100000
00000000
,
20020000
00000000
30030000
00000000
,
10000000
01000000
00010000
00001000
00100000
00000000
00001000
00000000
,
00010000
00000010
00001000
00000000
00000010
00010000
00001000
00000000
,
00000010
00000001
00000100
00000001
00000010
00000000
00001000
00000000
,
00010000
01000000
10000000
00000000
00100000
00000000
10010000
00000000
,
00010000
01000000
00001000
00010000
00000010
00000000
00001000
00000000
,
00000001
00000010
00001000
00000000
00000010
00000001
00000100
00000000
,
00000010
00010000
00001000
00000010
00000100
00000000
00010000
00000000
,
00022000
00000000
00000000
00033000
,
00001000
01000000
00010000
00100000
00001000
00010000
00100000
00000000
,
01000000
00010000
10000000
00000000
01000000
00010000
00001000
00000000
,
00100000
00010000
01000000
00001000
00010000
00000010
00001000
00000000
,
00000100
00000010
00000001
00000000
00000100
00000000
00000010
00000000
,
00002001
00000100
00000001
00000010
,
00023000
01000000
10000000
00100000
,
00031000
00000000
00000000
00000000
00000100
00000000
00010000
00000000
00001000
00000000
00000000
00001000
00000000
00000000
01000000
00000000
,
00020000
10000000
00130000
01100000
,
10000000
01000000
00010000
00000000
00001000
00000010
00000001
00000000
,
00001000
00000100
00001000
00000100
00000010
00000000
00000110
00000000
,
00002001
00000000
00000000
00000000
,
00000000
00000000
00000000
00000000
,
00003200
00000000
00020300
00000000
,
00032000
00000000
00000000
00003000
,
00011000
00001000
01000000
01000000
,
00010000
00010000
10000000
10000000
,
00200000
02300000
03020000
20030000
,
30200000
00000000
00000000
00300000
,
10000000
00000000
01000000
00000000
00010000
00000000
00001000
00000000
00010000
00000000
00000000
00010000
00000000
00000000
00001000
00000000
,
00000010
00000000
00000001
00000000
00000100
00000000
00000001
00000000
00000010
00000000
00000000
00000010
00000000
00000000
00000010
00000000
,
00000001
00000000
00000100
00000000
00001000
00000000
00010000
00000000
00001000
00000000
00000000
00001000
00000000
00000000
00010000
00000000
,
00100000
00000000
10000000
00000000
01000000
00000000
10000000
00000000
00100000
00000000
00000000
00100000
00000000
00000000
10000000
00000000
,
00010000
00100000
00010000
00100000
00001000
00010000
00001000
00010000
,
00000010
00001000
00000010
00001000
00000001
00000010
00000001
00000010
,
00000100
00001000
00000001
00000100
00001000
00010000
00100000
00000000
,
02200000
00000000
00000000
03300000
,
01000000
00010000
00100000
01000000
00010000
00001000
00100000
00000000
,
00001000
00010000
00000010
00000000
00001010
00000000
00000101
00000000
,
00000001
00000010
00000100
00001000
00000010
00010000
00001000
00000000
,
01000000
00010000
00100000
00000000
01100000
00000000
10010000
00000000
,
10000000
00010000
01000000
00001000
00010000
00001000
00100000
00000000
,
00010000
01000000
00001000
00000000
00011000
00000000
00010010
00000000
,
00000010
00001000
00000100
00000010
00000001
00000100
00000010
00001000
,
00000100
00000000
00010000
00001000
01000000
00000000
01010000
00000000
,
00010000
00100000
01000000
00100000
00001000
00010000
00001000
01000000
,
00010000
00000000
10000000
01000000
00010000
00000000
00011000
00000000
,
00001000
00010000
00000010
00001000
00000001
00000100
00000001
00000010
,
00000100
00000000
00000001
00000100
00001000
00000000
00001100
00000000
,
00001010
00000000
00000010
00010000
00001000
00000000
00100000
00010000
,
01000000
00000000
00001000
00010000
00000100
00000000
00000110
00000000
,
00001001
00000000
00000001
00000100
00000000
00001000
00010000
00000000
,
00100000
10000000
01000000
10000000
00100000
00010000
00001000
00000000
,
00011000
00000000
00000000
00000000
;

//--------------- dance-double - forcednature ----------------
#NOTEDATA:;
#STEPSTYPE:dance-double;
#DESCRIPTION:forcednature;
#DIFFICULTY:Hard;
#METER:16;
#RADARVALUES:0,0,0,0,0;
#CREDIT:forcednature;
#NOTES:
00000000
00000000
00000000
00000000
,
00000000
00000000
00000000
00000000
,
00000000
00000000
00000000
00000000
,
00000000
00000000
00000000
00000000
,
00000000
00000000
00000000
00000000
,
00022000
00000000
00000000
00000000
00000000
00033000
00000000
00000000
,
00010000
00000000
01000000
10000000
00100000
00000000
00010000
00000000
,
00001000
00000000
00000100
00000001
00000010
00000000
00001000
00000000
,
00010000
00001000
00010000
00000000
00000100
00000000
00010000
00000000
00001000
00010000
00001000
00000000
01000000
00000000
00010000
00000000
,
00100000
01000000
00100000
01000000
00100000
01000000
10000000
00000000
,
01000000
00010000
00001000
00010000
00000000
00001000
00000010
00000001
,
00001000
00000010
00000000
00000100
00000000
00000001
00000100
00001000
,
00010000
00100000
00000000
00010000
00000000
00001000
00010000
00000000
,
01000000
00000000
10000000
00000000
00100000
00000000
10000000
00000000
01000000
00100000
01000000
00000000
00100000
00000000
00000000
00000000
,
00001000
00010000
00000100
00001000
00000000
00000001
00000010
00001000
,
00010000
00001000
00000000
00010000
00000000
01000000
10000000
00100000
,
10000000
01000000
00010000
00001000
00100000
00100000
00010000
00000000
,
10010000
00000000
00000000
00000000
00000000
00000000
00000000
00000000
00001000
00000000
00000000
00010000
00000000
00000000
00001000
00000000
,
00010000
00000100
00001000
00000100
00010000
00001000
00000010
00000000
,
00000001
00001000
00000100
00001000
00000001
00000000
00000011
00000000
,
00000010
00000001
00000100
00001000
00000000
00010000
00001000
00000000
,
00010000
00000000
00100000
00000000
10000000
00000000
00100000
00000000
01000000
00010000
01000000
00000000
00010000
00000000
00000000
00000000
,
10000000
01000000
00010000
00001000
00000100
00000001
00000010
00000000
,
00000001
00000100
00001000
00010000
01000000
10000000
00100000
00000000
,
10000000
01000000
10000000
00000000
01000000
00000000
00100000
00000000
00010000
00100000
00010000
00000000
00100000
00000000
00000000
00000000
,
00001000
00010000
00001000
00000000
00010000
00000000
00010000
00000000
00001000
00000000
00001000
00000000
00000010
00000000
00000000
00000000
,
00000001
00000100
00001000
00000200
00000000
00002300
00000000
00023000
,
00000000
00230000
00000000
00320000
00000000
00130000
10000000
00000000
,
10000000
01000000
00010000
02000000
00000000
03020000
00000000
00032000
,
00000000
00003020
00000000
00002030
00000000
00003010
00000011
00000000
,
00000001
00000100
00001000
00000200
00000000
00002300
00000000
00023000
,
00000000
00230000
00000000
00320000
00000000
00130000
10000000
00000000
,
10000000
01000000
00010000
02000000
00000000
03020000
00000000
00031000
,
00011000
01000000
00011000
00000100
,
00010000
00000000
00001000
00000000
01000000
00010000
00000000
01000000
00000000
00001000
00010000
00000000
00000010
00000000
00000000
00000000
,
00010000
00000000
00001000
00000000
00100000
00010000
00000000
00100000
00000000
00001000
00010000
00000000
00000100
00000000
00001000
00000000
,
00000100
00000000
00010000
00000000
00001000
00010000
00000000
00000010
00000000
00001000
00000010
00000000
00010000
00000000
00000000
00000000
,
00001000
00000000
00010000
00000000
00000100
00001000
00000000
00000100
00000000
00010000
00001000
00000000
00100000
00000000
00000000
00000000
,
01000000
10000000
01000000
10000000
01000000
00010000
01000000
00010000
,
00001000
00000100
00001000
00000100
00000001
00000100
00000001
00000100
,
00000001
00000010
00000001
00000000
00000010
00000100
00000010
00000000
00000100
00001000
00000100
00000000
00010000
00001000
00010000
00000000
,
00000020
00000000
00000000
00000000
00000000
00000030
00000000
00000000
,
00000100
00001000
00000100
00000001
00001000
00000010
00010000
00000000
,
00001000
00010000
00100000
00000000
00010000
00001000
01000000
00000000
,
00010000
00100000
01000000
00010000
00001000
00100000
00010000
00000000
,
01000000
00001000
00010000
00000000
00011000
00000000
00001010
00000000
,
00000001
00000010
00001000
00010000
00000100
00001000
00000010
00000000
,
00000100
00001000
00010000
00000000
01000000
00010000
00001000
00000000
,
00100000
00001000
00010000
01000000
10000000
00010000
00100000
00000000
,
00022000
00000000
00000000
00033000
,
00001000
00000000
00010000
00000100
00000000
00001000
00000100
00000000
00000010
00000000
00000001
00000000
00000100
00000000
00000001
00000000
,
00000010
00000000
00000100
00001000
00000000
00000100
00010000
00000000
00001000
00000000
01000000
00000000
00010000
00000000
00100000
00000000
,
01000000
00000000
10000000
00100000
00000000
10000000
01000000
00000000
00100000
00000000
00001000
00000000
00010000
00000000
00000100
00000000
,
00001000
00000000
00000010
00000100
00000000
00000001
00000100
00000000
00001000
00000000
00010000
00000000
00000010
00000000
00000000
00000000
,
00002000
00000000
00000100
00000000
00000001
00000000
00003010
00001000
,
00020000
00000000
01000000
00000000
10000000
00000000
00130000
00010000
,
00002000
00000000
00000000
00000000
00003010
00000000
00001000
00000000
00010000
00000000
00000000
01000000
00000000
00000000
00010000
00000000
,
10000000
01000000
00100000
00010000
00001000
00000100
00000011
00000000
,
00000001
00000100
00002000
00003000
00010000
01000000
20000000
30000000
,
00100000
10000000
00100000
10000000
00010000
01000000
00010000
01000000
00100000
00000000
10000000
00000000
00010000
00000000
00000000
00000000
,
10000000
01000000
00010000
02000000
00000000
03010000
00001000
00000020
,
00000000
00000000
00000032
00000000
,
00000203
00000000
00001300
00020000
00000000
00230000
00000000
00320000
,
00000000
00000000
00000000
00030000
,
00001000
00000010
00000001
00000020
00000000
00000031
00000100
00002000
,
00000000
00000000
00023000
00000000
,
00130000
20000000
00000000
32000000
00000000
03020000
00000000
00032000
,
00000000
00000000
00000000
00003000
,
01000000
00000000
00010000
00000000
00100000
00000000
00001000
00000000
00010000
00000000
00000000
00010000
00000000
00000000
00010000
00000000
,
00000100
00000000
00001000
00000000
00000010
00000000
00010000
00000000
00001000
00010000
00000000
00001000
00000000
00000000
00001000
00000000
,
00100000
00000000
00010000
00000000
01000000
00000000
00001000
00000000
00010000
00000000
00000000
00010000
00000000
00000000
00010000
00000000
,
00000010
00000000
00001000
00000000
00000100
00000000
00010000
00000000
00001000
00010000
00000000
00001000
00000000
00000000
00001000
00000000
,
01000000
00100000
00010000
00001000
00100000
01000000
00010000
00001000
,
00000010
00000100
00010000
00001000
00000100
00000010
00010000
00001000
,
00100000
00010000
00100000
00000000
00010000
01000000
00010000
00000000
10000000
01000000
10000000
00000000
00100000
10000000
00100000
00000000
,
02000000
00000000
00000000
00000000
00000000
03000000
00000000
00000000
,
10000000
01000000
00010000
00100000
00010000
10000000
01000000
00010000
,
00001000
00000010
00000100
00010000
00001000
00000010
00000011
00000000
,
00000001
00000100
00001000
00010000
01000000
00010000
00001000
00100000
,
01000000
00010000
00000100
00001000
00000010
00010000
00011000
00000000
,
00001000
00100000
00010000
01000000
00100000
10000000
01000000
00010000
,
00001000
00100000
00001000
00000010
00000100
00001000
00001010
00000000
,
00000002
00000203
00002300
00023000
02030000
23000000
32000000
03020000
,
00031000
00000010
00000100
00010000
00001000
00000000
00011000
00000000
,
01000000
00010000
01000000
00000000
00100000
00000000
10000000
00000000
01000000
00000000
00010000
00000000
00001000
00000000
00010000
00000000
,
00001000
00000010
00000100
00010000
00001000
00100000
00110000
00000000
,
00001000
00010000
00001000
00000000
01000000
00000000
00010000
00000000
00100000
00000000
01000000
00000000
00010000
00000000
00000100
00000000
,
00001000
00000000
00000010
00000000
00000100
00000000
00001000
00000000
00000100
00000000
00000001
00000000
00001000
00000000
00000010
00010000
,
00002000
00000000
01000000
01000000
01000000
00000000
01003000
00001000
,
00011000
00000000
00010000
00000100
00000010
00000000
00001001
00000000
,
00001000
00000100
00001000
00000000
00000100
00000000
00010000
00001000
00010000
00000000
00001000
00000000
00100000
00000000
00000000
00000000
,
00010000
01000000
00010000
00000000
01000000
00000000
00001000
00000000
00010000
00001000
00010000
00001000
00010000
00000000
00000000
00000000
,
00011000
00000000
00000000
00000000
;

//--------------- dance-double - forcednature ----------------
#NOTEDATA:;
#STEPSTYPE:dance-double;
#DESCRIPTION:forcednature;
#DIFFICULTY:Challenge;
#METER:17;
#RADARVALUES:0,0,0,0,0;
#CREDIT:forcednature;
#NOTES:
00000000
00000000
00000000
00000000
,
00000000
00000000
00000000
00000000
,
00000000
00000000
00000000
00000000
,
00000000
00000000
00000000
00000000
,
00000000
00000000
00000000
00000000
,
00022000
00000000
00000000
00000000
00000000
00033000
00000000
00000000
,
00010000
00001000
00010000
00000000
00000100
00000000
00001000
00000000
00000010
00000000
00010000
00000000
00001000
00000000
00100000
00000000
,
00001000
00010000
00001000
00000000
01000000
00000000
00010000
00000000
00100000
00000000
00001000
00000000
00010000
00000000
00000010
00000000
,
00001000
00000100
00010000
00000000
00001000
00000000
00100000
00000000
00010000
01000000
00001000
00000000
00010000
00000000
00000010
00000000
,
00001000
00000100
00001000
00000100
00010000
00001000
00010000
00001000
00100000
00010000
00100000
00010000
10000000
00000000
00000000
00000000
,
01000000
00010000
00001000
00010000
00001000
00000010
00000001
00000100
,
00001000
00000100
00000001
00000010
00001000
00010000
01000000
10000000
,
00100000
00010000
00100000
10000000
00000000
01000000
00010000
00000000
,
00001000
00000000
00000010
00000000
00000100
00000000
00000010
00000000
00000001
00001000
00000100
00000010
00000001
00000000
00000000
00000000
,
00000100
00001000
00010000
00001000
00010000
00100000
10000000
01000000
,
00010000
00001000
00010000
01000000
10000000
00100000
00010000
00001000
,
00000100
00000001
00001000
00000010
00000001
00001000
00000100
00000000
,
00000110
00000000
00000000
00000000
00000010
00000000
00001000
00000001
00000010
00000000
00000000
00000110
00000000
00000000
00001000
00000000
,
00000001
00000010
00000100
00000000
00001000
00000000
00000100
00010000
00001000
00000000
00100000
00000000
00010000
10000000
01000000
00000000
,
10000000
00100000
01000000
00000000
00001000
00000000
00010000
00000010
00001000
00000000
00000001
00000000
00000100
00000010
00001000
00000000
,
00000001
00000010
00001000
00010000
00001000
00000010
00000001
00000000
,
00000100
00000000
00001000
00000000
00010000
00000000
00100000
00000000
01000000
00010000
10000000
00100000
01000000
00000000
00000000
00000000
,
00010000
00100000
00010000
00100000
01000000
00000000
00100000
00000000
00001000
00000000
00010000
00000000
00000100
00000000
00000010
00000000
,
00000001
00000100
00000001
00000100
00000010
00000000
00001000
00000000
00000010
00000000
00010000
00000000
00001000
00000000
00100000
00000000
,
00010000
10000000
00100000
10000000
00010000
01000000
00010000
00000000
00100000
00001000
00010000
00001000
00100000
00010000
00100000
00000000
,
00001000
00010000
00000100
00001000
00000100
00010000
00001000
00010000
00000010
00001000
00000001
00000100
00000010
00000000
00000000
00000000
,
00001000
00000001
00000100
00002000
00000000
00023000
00000000
00230000
,
00000000
00320000
00000000
00032000
00000000
00013000
00100000
00000000
,
10000000
00010000
10000000
02000000
00000000
03020000
00000000
00032000
,
00000000
00003020
00000000
00002030
00000000
00013000
00011000
00000000
,
00001000
00000010
00000001
00000200
00000000
00002300
00000000
00023000
,
00000000
00230000
00000000
20300000
00000000
31000000
00010000
00000000
,
00001000
00010000
00100000
20000000
00000000
32000000
00000000
03010000
,
00011000
00100000
00011000
00000010
,
00001000
00000000
00000100
00000000
00010000
00001000
00000000
00100000
00000000
00010000
00100000
00000000
00110000
00000000
00000000
00000000
,
00010000
00000000
01000000
00000000
00001000
00010000
00000000
00000010
00000000
00001000
00000010
00000000
00001000
00000000
00000001
00000010
,
00000100
00000000
00001000
00000000
00000100
00010000
00000000
00001000
00000000
00100000
00010000
00000000
00110000
00000000
00000000
00000000
,
00010000
00000000
01000000
00000000
00001000
00010000
00000000
00000010
00000000
00001000
00000010
00000000
00001000
00000000
00000001
00000010
,
00000100
00001000
00000010
00001000
00010000
01000000
00010000
00100000
,
01000000
00010000
00001000
00010000
00001000
00000010
00000001
00001000
,
00000001
00000100
00000010
00000100
00000001
00001000
00000010
00001000
00000100
00001000
00000100
00010000
00001000
00100000
00010000
00100000
,
00010000
10000000
00010000
10000000
00010000
10000000
00010000
10000000
00100000
00000000
00000000
00000000
10000000
01000000
00100000
00010000
,
01000000
00000000
00010000
01000000
00000000
00001000
00000000
00010000
00000000
00000000
00000100
00000000
00001000
00000000
00000100
00000000
,
00000010
00000000
00000100
00001000
00000000
00000001
00000000
00000010
00000000
00000001
00000000
00001000
00000010
00000100
00000010
00001000
,
00000001
00000000
00000100
00001000
00000000
00010000
00000000
00001000
00000000
00000000
00010000
00000000
00100000
00000000
10000000
00000000
,
00010000
00000000
00100000
01000000
00000000
10000000
00000000
01000000
00000000
00010000
00000000
00001000
00100000
00000000
00000000
00000000
,
00011000
00000000
00010000
00000010
00000000
00001000
00000000
00000010
00000000
00000000
00000100
00000000
00001000
00000000
00000100
00000000
,
00000001
00000000
00001000
00000010
00000000
00010000
00000000
00001000
00000000
00100000
00000000
00010000
10000000
01000000
10000000
00010000
,
00100000
00000000
00001000
00010000
00000000
00000010
00000000
00010000
00000000
00000000
00001000
00000000
00000010
00000000
00000010
00000000
,
00000002
00000000
00000000
00000100
00000000
00000100
00000000
00001000
00000000
00000013
00000001
00001000
00000100
00000000
00000000
00000000
,
00010000
00000000
00001000
01000000
00010000
01000000
00000000
00100000
10000000
00000000
00010000
00000000
00100000
00010000
00100000
00000000
,
00001000
00000000
00010000
00000010
00001000
00000010
00000000
00000100
00000001
00001000
00000000
00000100
00001000
00000100
00010000
00001000
,
00100000
00000000
00010000
10000000
00100000
01000000
00000000
00010000
10000000
00000000
01000000
00000000
00010000
00000000
00001000
00000000
,
00100000
00000000
00001000
00010000
00000100
00001000
00000000
00000100
00000010
00000001
00000000
00001000
00000010
00000000
00000000
00000000
,
00001000
00000100
00001000
00000100
00010000
00001000
00010000
00001000
00100000
00010000
00100000
00010000
10000000
00000000
10000000
00000000
,
00010000
01000000
00010000
01000000
00001000
00010000
00001000
00010000
00000010
00001000
00000010
00001000
00000001
00000000
00000001
00000000
,
00001000
00000100
00010000
00001000
00100000
00000000
01000000
00000000
01100000
00000000
00000000
00100000
00000000
00000000
00001000
00000000
,
00010000
00000100
00001000
00000100
00010000
00001000
00010000
00000010
00001000
00000001
00000100
00000010
00001000
00000000
00000000
00000000
,
00000001
00000010
00001000
00000000
00010000
01000000
10000000
00000000
,
00010000
01000000
00001000
00100000
00010000
01000000
00001000
00100000
00010000
00000000
01000000
00000000
10000000
00000000
00000000
00000000
,
01000000
00010000
00100000
02000000
00000000
03010000
00001000
00000020
,
00000000
00000000
00000230
00000000
,
00020300
00000000
00031000
00000020
00000000
00000032
00000000
00000203
,
00000010
00000000
00000010
00000010
00000000
00000000
00000300
00000000
,
00000001
00000100
00001000
00000200
00000000
00001300
00010000
00200000
,
00000000
00000000
20300000
00000000
,
31000000
00020000
00000000
00032000
00000000
00003020
00000000
00000032
,
00000100
00000000
00000100
00000100
00000000
00000000
00000003
00000000
,
00000001
00000000
00000010
00000000
00001000
00000000
00010000
00000000
01000000
00000000
00000000
01100000
00000000
00000000
00110000
00000000
,
10000000
00000000
00100000
00000000
00010000
00000000
00001000
00000000
00010000
00000100
00000000
00001100
00000000
00000000
00000011
00000000
,
00000001
00000000
00000100
00000000
00001000
00000000
00010000
00000000
00011000
00000000
00000000
00110000
00000000
00000000
00010000
00000000
,
10000000
00000000
01000000
00000000
00010000
00000000
00001000
00000000
00100000
00010000
00000000
00110000
00000000
00000000
00001000
00000000
,
00010000
00000010
00001000
00000010
00010000
00001000
00010000
00000000
00000100
00001000
00000100
00010000
00001000
00100000
00010000
00000000
,
01000000
00010000
01000000
00001000
00010000
00001000
00100000
00000000
00010000
10000000
00100000
01000000
00010000
01000000
00100000
00000000
,
01000000
00010000
01000000
00001000
00010000
00001000
00100000
00010000
00100000
00001000
00010000
00000100
00001000
00000100
00010000
00001000
,
00000020
00000000
00000000
00000000
00000000
00000030
00000000
00000000
,
00000100
00001000
00000001
00000000
00000100
00000000
00001000
00000000
00010000
00001000
00010000
00000000
00100000
00000000
10000000
00000000
,
00010000
01000000
00100000
00000000
10000000
01000000
00100000
00000000
00010000
01000000
00100000
00000000
10000000
00000000
00010000
00000000
,
00100000
00001000
00010000
00000000
00000010
00000000
00001000
00000000
00000100
00000010
00000001
00000000
00001000
00000000
00000010
00000000
,
00010000
00001000
01000000
00000000
00010000
01000000
00001000
00000000
00010000
00001000
00100000
00000000
00010000
00000000
10000000
00000000
,
00100000
01000000
00010000
00000000
01000000
00000000
00001000
00000000
00010000
00000100
00001000
00000000
00000100
00000000
00000010
00000000
,
00000001
00001000
00000010
00000000
00010000
00000000
00001000
00000000
01000000
00010000
10000000
00000000
01000000
00000000
00010000
00000000
,
00001000
00010000
00001000
00100000
00010000
00100000
00001000
00010000
00001000
01000000
00010000
01000000
00001000
00000000
00010000
00000000
,
00000100
00000000
00001000
00000100
00001000
00000000
00000001
00000000
00000010
00000000
00000000
00000000
00001001
00000000
00000000
00000000
,
00000001
00000100
00000010
00000000
00001000
00000000
00000010
00000000
00010000
00001000
01000000
00000000
00010000
00000000
10000000
00000000
,
01000000
00100000
00010000
00000000
00100000
00000000
00001000
00000000
00010000
00000100
00001000
00000000
00000001
00000010
00000100
00000000
,
00001000
00000001
00000100
00000000
00000010
00000000
00001000
00000000
00000100
00010000
00001000
00000000
00100000
00000000
00010000
00000000
,
10000000
00100000
01000000
00000000
00010000
00000000
00100000
00000000
00001000
00010000
00001000
00000000
01000000
00000000
00010000
00000000
,
00110000
00000000
00000000
00000000
00010000
01000000
00010000
01000000
00001000
00010000
00001000
00010000
00000010
00001000
00000001
00001000
,
00000100
00000000
00000000
00000000
00001000
00000100
00001000
00000100
00010000
00001000
00010000
00001000
00100000
00010000
10000000
00000000
,
01000000
00100000
01000000
00100000
00010000
00000000
00100000
00010000
00100000
00001000
00010000
00000000
00001000
00010000
00000010
00001000
,
00000010
00000000
00000100
00000001
00001000
00000010
00001000
00000001
00000010
00000100
00001000
00000100
00010000
00001000
00010000
00000000
,
00000010
00000000
00000000
00000000
;
