#VERSION:0.83;
#TITLE:Water Horizon;
#SUBTITLE:;
#ARTIST:青龍;
#TITLETRANSLIT:;
#SUBTITLETRANSLIT:;
#ARTISTTRANSLIT:Seiryu;
#GENRE:;
#CREDIT:;
#MUSIC:Water Horizon.ogg;
#BANNER:Water Horizon.png;
#BACKGROUND:Water Horizon-bg.png;
#CDTITLE:./CDTitles/jubeat saucer.png;
#SAMPLESTART:97.740;
#SAMPLELENGTH:15.000;
#SELECTABLE:YES;
#OFFSET:0.257;
#BPMS:0.000=191.000;
#STOPS:;
#TIMESIGNATURES:0.000=4=4;
#BGCHANGES:0.000=../BGAs/19cy.mp4=1.000=0=0=0=StretchNoLoop====,
99999.000=-nosongbg-=1.000=0=0=0=StretchNoLoop====
;
#FGCHANGES:;

//--------------- dance-single - forcednature ----------------
#NOTEDATA:;
#STEPSTYPE:dance-single;
#DESCRIPTION:forcednature;
#DIFFICULTY:Beginner;
#METER:4;
#RADARVALUES:0,0,0,0,0;
#CREDIT:forcednature;
#NOTES:
0000
0000
0000
0000
,
0000
0000
0000
0000
,
0000
0000
0000
0000
,
0000
0000
0000
0000
,
0000
0000
0000
0000
,
0200
0000
0000
0000
,
0000
0000
0000
0000
0000
0300
0000
0000
,
0010
0000
0000
0000
,
0010
0000
0010
0000
,
1000
1000
0001
0001
,
1000
1000
0001
0001
,
1000
0000
0001
0000
,
0020
0000
0030
0000
,
1001
0000
0000
0000
,
1000
0000
0000
0000
,
0001
0000
0000
0000
,
0100
0000
0000
0000
,
0010
0000
0000
0000
,
1000
0000
0000
0000
,
0100
0000
0000
0000
,
0010
0000
0000
0000
,
0110
0000
0000
0000
,
0100
0000
0000
0000
,
1000
0000
0000
0000
,
0001
0000
0000
0000
,
0100
0000
0000
0000
,
0001
0000
0000
0000
,
0010
0000
0000
0000
,
0100
0000
0000
0000
,
1001
0000
0000
0000
,
0000
0000
0000
0000
,
0000
0000
0000
0000
,
0000
0000
0000
0000
,
1001
0000
0000
0000
,
0001
0000
0000
0000
,
0100
0000
0000
0000
,
0020
0000
0000
0000
,
0030
0000
0100
0000
,
0000
0000
0010
0000
,
0001
0000
1000
0000
,
0000
0000
0001
0000
,
0000
0000
0010
0000
,
0000
0000
0100
0000
,
0000
0000
1000
0000
,
0010
0000
0000
0000
,
0100
0000
0001
0000
,
0000
0000
1000
0000
,
0100
0000
1000
0000
,
0000
0000
0001
0000
,
0010
0000
0000
0000
,
0100
0000
0000
0000
,
1000
0000
0001
0000
,
0100
0000
0010
0000
,
2002
0000
0000
0000
,
0000
0000
0000
0000
,
0000
0000
0000
0000
,
0000
0000
0000
0000
,
0000
0000
0000
0000
,
0000
0000
0000
0000
,
0000
0000
0000
0000
,
3003
0000
0000
0000
,
1000
0000
0000
0000
,
0000
0000
0000
0000
,
0001
0000
0000
0000
,
0000
0000
0000
0000
,
0100
0000
0000
0000
,
0000
0000
0000
0000
,
0010
0000
0000
0000
,
0000
0000
0000
0000
,
1000
0000
0000
0000
,
0001
0000
0000
0000
,
0010
0000
0000
0000
,
0100
0000
0000
0000
,
1001
0000
0000
0000
,
0110
0000
0000
0000
,
1000
0000
1000
0000
,
0001
0000
0001
0000
,
0200
0000
0300
0000
,
0010
0000
0000
0000
,
1000
0000
0000
0000
,
0001
0000
0010
0000
,
0001
0000
0010
0000
,
0100
0000
0000
0000
,
1000
0000
0000
0000
,
0010
0000
0100
0000
,
0010
0000
0000
0000
,
1001
0000
0000
0000
,
1000
0000
0100
0000
,
1000
0000
0000
0000
,
0001
0000
0100
0000
,
0001
0000
0000
0000
,
0110
0000
0000
0000
,
1000
0000
0001
0000
,
0010
0010
0010
0000
,
1001
0000
0000
0000
;

//--------------- dance-single - forcednature ----------------
#NOTEDATA:;
#STEPSTYPE:dance-single;
#DESCRIPTION:forcednature;
#DIFFICULTY:Easy;
#METER:8;
#RADARVALUES:0,0,0,0,0;
#CREDIT:forcednature;
#NOTES:
0000
0000
0000
0000
,
0000
0000
0000
0000
,
0000
0000
0000
0000
,
0000
0000
0000
0000
,
0000
0000
0000
0000
,
2002
0000
0000
0000
,
0000
0000
0000
0000
0000
3003
0000
0000
,
1000
1000
0000
0000
,
0001
0001
0000
0000
,
0100
0100
0010
0010
,
1000
1000
0001
1000
,
0010
0100
0010
1000
,
0002
0000
0013
0100
,
1000
0001
0100
0010
,
0000
1000
0010
0010
,
0100
0001
1000
0001
,
0000
0100
0010
0010
,
0100
0001
1000
0100
,
0000
0100
0010
0010
,
0001
1000
0001
0100
,
0020
0030
0010
0010
,
1001
1000
0001
0000
,
0100
0010
1000
0001
,
0010
0100
1000
0000
,
0001
0100
0010
1000
,
0001
0001
0001
0000
,
1000
1000
1000
0000
,
0010
0100
0001
1000
,
0200
0000
0310
0010
,
0001
0000
1000
0000
,
0001
0000
0100
0000
,
0010
0000
1000
0000
,
0001
0000
0010
0000
,
0100
1000
0100
0000
,
0010
0001
1000
0001
,
0100
0001
1000
0000
,
0200
0000
0000
0000
,
0310
0001
0100
0001
,
1000
0010
0100
0110
,
1001
0001
0010
0100
,
1000
0001
0100
0010
,
1000
0001
0010
0001
,
0100
0001
1000
0001
,
0001
1000
0100
1000
,
0020
0000
0000
0030
,
0100
0001
0101
0000
,
0001
1000
0010
0000
,
1000
0100
1100
0000
,
0001
1000
0010
0000
,
0110
0000
0100
0000
,
0110
0000
0010
0000
,
1000
0000
0001
0000
,
0010
0100
1000
0001
,
0200
0000
0000
0000
,
0000
0000
0000
0000
,
0000
0000
0000
0000
,
0000
0000
0000
0000
,
0000
0000
0000
0000
,
0000
0000
0000
0000
,
0000
0000
0000
0000
,
0000
0000
0000
0300
,
0010
0000
1000
0000
,
0000
0000
0001
0000
,
0010
0000
0100
0000
,
0010
0000
0001
0000
,
0100
0000
0010
0000
,
0000
0000
1000
0000
,
0001
0000
0010
0000
,
0200
0000
0000
0000
,
1300
1000
1000
0000
,
0010
0100
0010
0000
,
0001
0001
0001
0000
,
0010
0100
0010
0000
,
1000
0100
1000
0000
,
0001
0100
0001
0000
,
0010
0100
1000
0001
,
0200
0000
0000
0000
,
0020
0000
0330
0100
,
1001
0001
0100
0010
,
1000
0001
0010
0100
,
1000
0010
0100
0010
,
1000
0001
0010
0100
,
0010
0001
1000
0010
,
0100
0001
1000
0001
,
0010
0100
1000
0010
,
0100
0002
0000
0003
,
1001
1000
0100
1000
,
0010
0100
0001
0010
,
1001
0001
0100
0010
,
1000
0100
1000
0010
,
1001
0001
0010
0100
,
1001
1000
0010
0100
,
0110
0000
0000
0001
0000
1000
0000
1000
,
0000
0100
0220
0330
,
2002
0000
0000
0000
,
0000
0000
0000
0000
,
3003
0000
0000
0000
;

//--------------- dance-single - forcednature ----------------
#NOTEDATA:;
#STEPSTYPE:dance-single;
#DESCRIPTION:forcednature;
#DIFFICULTY:Medium;
#METER:12;
#RADARVALUES:0,0,0,0,0;
#CREDIT:forcednature;
#NOTES:
0000
0000
0000
0000
,
0000
0000
0000
0000
,
0000
0000
0000
0000
,
0000
0000
0000
0000
,
0000
0000
0000
0000
,
2002
0000
0000
0000
,
0000
0000
0000
0000
0000
3003
0000
0000
,
0101
0101
0000
0000
,
1100
1100
0000
0000
,
0011
1001
1010
1001
,
0101
0101
0011
1100
,
0001
0100
0001
0000
1000
0100
1000
0000
,
0020
0000
0130
0110
,
0010
0000
1000
0000
0001
0010
0100
0000
,
0010
0001
0100
0000
0010
0000
0010
0000
,
1000
0000
0001
0000
0010
0100
1000
0000
,
0001
1000
0100
0000
0010
0000
0010
0000
,
0001
0000
0100
0000
0010
1000
0001
0000
,
0010
0100
1000
0000
0010
0000
0010
0000
,
0100
0000
0001
0000
1000
0100
0010
0000
,
0220
0330
0010
0010
,
1001
0000
1000
0000
0010
0000
0100
0001
,
1000
0010
1000
0001
0100
0000
0010
0000
,
1000
0000
0001
0000
0010
0000
0100
1000
,
0001
0010
0001
1000
0100
0000
0010
0000
,
0001
0001
0100
0100
,
0010
0000
0010
0000
1000
0001
1000
0001
,
0010
0000
0010
0000
0100
1000
0100
0000
,
0020
0000
0031
1001
,
1000
0001
0200
0300
,
0010
1000
0001
0010
,
0100
1000
0200
0300
,
0010
0001
1000
0010
,
0101
0000
1000
0000
0001
0010
0001
0000
,
0100
0010
1000
0001
,
0010
0000
0100
0000
1000
0001
1000
0000
,
0020
0000
0000
0000
,
0130
0000
0001
0000
0010
0100
0010
0000
,
0001
1000
0010
0110
,
1001
0000
1000
0100
0010
0001
1000
0000
,
0010
0100
0001
0000
0010
0001
0100
0000
,
0010
0000
1000
0001
0010
0100
1000
0000
,
0001
0100
0001
0000
1000
0010
1000
0000
,
0100
0000
0010
0001
1000
0010
0100
0000
,
0001
0001
1000
0100
,
0010
0001
0100
0001
0010
0000
0100
0000
,
1000
0000
0010
0010
0100
0000
0001
0000
,
1000
0100
1000
0010
1000
0000
0100
0000
,
0010
0000
0001
0001
1000
0000
0010
0000
,
0110
0000
0100
0000
0001
0000
1000
0100
,
1000
0000
0001
0000
0010
0001
0010
0001
,
0100
0000
0010
0000
0100
0100
0001
0000
,
1000
0100
1000
0100
0010
0001
0100
0000
,
2002
0000
0000
0000
,
0000
0000
0000
0000
,
0000
0000
0000
0000
,
0000
0000
0000
0000
,
0000
0000
0000
0000
,
0000
0000
0000
0000
,
0000
0000
0000
0000
,
0000
0000
0000
3003
,
1000
0100
0010
0002
,
0000
0103
0020
0030
,
1000
0001
0010
0002
,
0000
0103
0010
1000
,
0001
0010
0100
2000
,
0000
3010
0100
0010
,
1000
0002
0000
0013
,
0100
2000
0000
3000
,
0101
0001
1000
1000
,
0100
0010
0001
0100
,
0110
0010
1000
1000
,
0001
0010
0100
1000
,
0001
0010
0001
0010
0001
0010
0001
0000
,
1000
0010
1000
0010
1000
0010
1000
0000
,
0100
0010
0100
0010
0001
1000
0001
1000
,
0010
0100
0001
2000
0000
0000
0000
0000
,
3200
0000
0310
0110
,
0100
1000
0001
0010
0001
1000
0010
0200
,
0000
0301
1000
0100
0020
0000
0000
0000
,
0130
1000
0001
0100
0010
1000
0001
0020
,
0000
0130
0010
0001
1000
0010
0100
0001
,
1000
0100
1000
0010
0100
0001
0010
0002
,
0000
0103
0010
1000
0001
0010
0100
1000
,
0002
0000
0103
0020
0000
1030
0001
0010
,
0001
0100
0010
2000
0000
0000
3000
0000
,
1001
0000
0001
0020
0000
0130
1000
0200
,
0000
0310
0001
1000
0001
0100
0010
1000
,
0200
0000
0310
0002
0000
1003
0010
0100
,
0001
0010
0001
0100
0010
1000
0100
0010
,
0002
0000
1003
0010
1000
0100
1000
0001
,
0200
0000
0310
1000
0001
0010
0100
1000
,
0001
0000
0100
1000
0000
1000
0100
0001
,
0000
0010
0100
1000
0002
0000
0103
0000
,
2020
0000
0000
0000
,
0000
0000
0000
0000
,
3030
0000
0000
0000
;

//--------------- dance-single - forcednature ----------------
#NOTEDATA:;
#STEPSTYPE:dance-single;
#DESCRIPTION:forcednature;
#DIFFICULTY:Hard;
#METER:15;
#RADARVALUES:0,0,0,0,0;
#CREDIT:forcednature;
#NOTES:
0000
0000
0000
0000
,
0000
0000
0000
0000
,
0000
0000
0000
0000
,
0000
0000
0000
0000
,
0000
0000
0000
0000
,
2002
0000
0000
0000
,
0000
0000
0000
0000
0000
3003
0000
0000
,
0101
0101
1000
0010
,
1100
1100
0011
0001
,
1000
0100
1000
0010
0100
0001
0010
0001
,
0100
0010
1000
0001
0010
0100
1000
0001
,
0100
0100
0010
1000
0100
0100
0010
0001
,
0200
0000
0310
0110
,
0001
0100
0001
0010
0100
0001
0100
1000
,
0001
0010
0001
1000
0010
0000
0110
0000
,
0100
1000
0100
0001
1000
0001
0010
0100
,
0010
1000
0010
0001
1000
0000
1001
0000
,
0001
0100
0010
0100
1000
0100
0001
1000
,
0010
1000
0100
0010
0001
0000
1001
0000
,
1000
0010
0100
0010
0001
0010
0100
0001
,
1000
0100
0000
0100
0010
0000
0110
0000
,
0100
0000
1000
0000
0001
0000
0100
0000
0001
0000
0010
0000
0100
1000
0000
1000
,
0001
0000
0100
0000
0010
1000
0000
1000
0001
0000
0010
0000
0001
0000
0100
0000
,
0010
0000
0001
0000
0010
0000
1000
0000
0001
0000
0010
0000
0001
0100
0000
0100
,
0010
0000
1000
0000
0001
0010
0000
0010
0100
0000
1000
0000
0010
0000
1000
0000
,
0100
0000
0100
0000
0010
0000
0010
0010
,
0001
0000
0001
0000
0100
0100
0010
0010
,
1000
0000
0000
0000
1000
0000
0000
0000
0001
0000
1000
0100
1000
0000
0010
0000
,
0100
1000
0100
0001
0010
0000
0110
0000
,
1001
0000
0000
0000
0001
0000
0000
0000
1000
0010
1000
0000
0000
0000
0100
0000
,
0000
0000
0010
0000
0000
0001
0000
0000
0100
0000
0000
0001
0000
0000
0010
0000
,
0000
0000
0100
0000
0000
1000
0000
0000
0001
0100
0001
0000
0000
0000
1000
0000
,
0000
0000
0010
0000
0000
0010
0000
0000
0100
0000
0001
0000
0010
0000
0000
0000
,
0110
0000
0000
0000
0100
0000
1000
0000
0001
0010
0001
0000
0100
0000
0010
0000
,
1000
0000
0001
0010
1000
0000
0010
0100
,
1000
0000
0001
0000
0100
0000
0001
0000
1000
0010
1000
0000
0100
0000
0010
0000
,
0002
0000
0000
0000
,
1003
0000
0010
0000
0100
0000
0001
0000
1000
0100
1000
0000
0001
0000
0010
0000
,
0001
0100
0010
1000
0100
0000
0110
0000
,
0001
0000
0100
0000
0001
0000
0010
0000
0100
1000
0100
0000
0010
0000
0001
0000
,
1000
0100
0010
0100
0001
0100
1000
0001
,
0100
0000
0010
0000
1000
0000
0001
0000
0010
0100
0010
0000
0001
0000
1000
0000
,
0010
0100
1000
0100
0001
1000
0001
0010
,
0100
0000
0001
0000
0100
0000
1000
0000
0001
0010
0001
0000
2000
0000
0000
0000
,
3001
0100
0010
0100
1000
0100
0001
1000
,
0001
0010
0100
0010
1010
0000
0010
0001
,
1000
0000
0010
0000
0100
0001
0100
0010
1000
0000
0001
0000
0010
0000
0100
0000
,
1000
0010
0100
0010
0011
0000
0010
1000
,
0001
0000
0010
0000
0100
1000
0100
0010
0001
0000
1000
0000
0010
0000
0100
0000
,
0001
0000
0000
0000
0001
0000
0000
0000
1000
0010
1000
0000
0001
0000
0010
0100
,
0010
0000
0010
0000
0001
1000
0001
0100
,
1000
0000
0000
0000
1000
0000
0100
0000
0001
1000
0001
0000
0010
0000
0100
0000
,
1000
0010
0001
0010
0100
0001
1000
0000
,
2002
0000
0000
0003
,
0200
3000
0020
0300
,
0002
0000
0000
0030
,
0200
0003
0020
0300
,
2000
0000
0000
0030
,
0002
3000
0020
0003
,
0200
0030
2000
0300
,
0002
0000
0000
3003
,
1000
0100
1000
0010
0100
1000
0100
0001
,
0000
0010
0100
1000
0001
0000
0000
0000
,
0010
0100
0001
0100
0010
0100
1000
0001
,
0000
0100
1000
0100
0010
0100
0001
1000
,
0001
0010
0100
0010
1000
0010
0001
1000
,
0000
0010
0100
0001
1000
0100
1000
0010
,
0100
0000
1000
0100
0000
0001
0010
0100
,
0001
0100
1000
0020
0000
0000
0030
0000
,
0100
1000
0100
0001
0010
0100
1000
0002
,
0000
0013
1000
0010
0200
0000
0010
0000
,
1300
0100
1000
0001
0010
0100
0001
0200
,
0000
1300
0001
0100
0010
1000
0001
0010
,
0100
1000
0010
1000
0100
1000
0010
1000
,
1000
0001
0010
0001
0100
0001
0010
0001
,
0001
0100
1000
0100
0010
0001
0010
1000
,
0100
0010
0100
0000
1000
0000
0001
0000
0100
0000
0010
0000
1000
0000
0001
0000
,
0020
0000
0130
1001
,
1000
0001
1000
0000
0010
0000
0100
0000
0001
0000
0010
0000
0100
0000
1000
0000
,
0010
0001
0010
1000
0001
0000
0101
0000
,
1000
0001
0100
1000
0100
0001
0010
0100
,
0001
0100
1000
0001
1000
0010
0100
0001
,
0010
0100
0010
0000
0001
0000
1000
0000
0010
0000
0001
0000
0010
0000
0100
0000
,
1000
0100
0001
1000
0001
0010
0100
1000
,
1100
0000
0001
0101
0000
1000
0001
0010
,
1000
0010
0001
0200
1000
0000
0301
0000
,
0110
0000
0010
0001
0010
1000
0001
0010
,
0100
0000
0001
0000
0100
0000
1000
0000
0010
0000
1000
0001
1000
0000
0100
0000
,
0110
0000
0010
0001
0100
1000
0100
0010
,
1000
0000
0001
0000
0010
0000
0001
0000
0100
0000
0010
1000
0010
0000
0100
0000
,
0101
0000
0000
0000
0001
0000
0010
0000
0100
0000
1000
0000
0010
0000
1000
0100
,
1000
0000
0000
0000
0001
0000
0010
0000
0100
0000
1000
0000
0010
0000
0100
0001
,
0100
0000
0010
1010
0000
1000
0100
1100
,
0000
0001
0101
0100
0110
0000
1001
0000
,
0220
0000
0000
0000
,
0000
0000
0000
0000
,
0330
0000
0000
0000
;

//--------------- dance-double - forcednature ----------------
#NOTEDATA:;
#STEPSTYPE:dance-double;
#DESCRIPTION:forcednature;
#DIFFICULTY:Easy;
#METER:8;
#RADARVALUES:0,0,0,0,0;
#CREDIT:forcednature;
#NOTES:
00000000
00000000
00000000
00000000
,
00000000
00000000
00000000
00000000
,
00000000
00000000
00000000
00000000
,
00000000
00000000
00000000
00000000
,
00000000
00000000
00000000
00000000
,
00022000
00000000
00000000
00000000
,
00000000
00000000
00000000
00000000
00000000
00033000
00000000
00000000
,
00001000
01000000
00000000
00000000
,
00010000
00000100
00000000
00000000
,
00001000
00100000
00001000
00010000
,
00000010
00010000
00001000
00100000
,
00020000
00030000
02000000
03000000
,
00200000
00000000
10300000
10000000
,
10010000
00000000
00010000
00100000
,
01000000
00100000
00001000
00010000
,
00000010
00000000
00001000
00000001
,
00000010
00000001
00000100
00000010
,
00001000
00000000
00000100
00010000
,
00001000
00010000
00000010
00001000
,
00000010
00000000
00010000
00001000
,
00100000
00010000
00100000
01000000
,
10010000
00000000
00010000
01000000
,
00001000
00010000
00000100
00001000
,
00000010
00000000
00000100
00000001
,
00001000
00000001
00000010
00000100
,
00001000
00000000
00000010
00000010
,
00010000
00000000
00001000
00001000
,
00100000
00010000
01000000
00010000
,
00200000
00000000
01300000
01000000
,
20020000
00000000
00000000
00000000
,
00000000
00000000
00000000
00000000
,
00000000
00000000
00000000
00000000
,
00000000
00000000
30030000
00000000
,
10010000
00000000
00010000
01000000
,
00001000
00010000
00000100
00001000
,
00000010
00000000
00000100
00000001
,
00000020
00000000
00000000
00000000
,
00000130
00001000
00000010
00000100
,
00000001
00000010
00000100
00000000
,
00000110
00000000
00000100
00010000
,
00001000
01000000
00010000
00100000
,
01000000
00000000
00100000
00010000
,
01000000
00100000
10000000
00010000
,
01000000
00000000
00001000
00010000
,
00000100
00000000
00000000
00000000
,
00000110
00000000
00000010
00000001
,
00000100
00000001
00000010
00000100
,
00001000
00000000
00000010
00010000
,
00001000
00100000
00010000
01000000
,
01100000
00000000
00100000
10000000
,
10010000
00000000
00010000
00100000
,
01100000
00000000
10000000
00010000
,
01000000
00001000
00010000
00000000
,
00002200
00000000
00000000
00000000
,
00000000
00000000
00000000
00000000
,
00000000
00000000
00000000
00000000
,
00000000
00000000
00000000
00000000
,
00000000
00000000
00000000
00000000
,
00000000
00000000
00000000
00000000
,
00000000
00000000
00000000
00000000
,
00000000
00000000
00000000
00003300
,
00000100
00000010
00000001
00000100
,
00000000
00000010
00001000
00000000
,
00000100
00010000
00001000
01000000
,
00000000
00010000
00100000
00000000
,
01000000
10000000
00010000
01000000
,
00000000
00001000
00010000
00000100
,
00001000
00000000
00000010
00000100
,
00000001
00000010
00000000
00000000
,
00000110
00000000
00000100
00001000
,
00000010
00010000
00001000
00000000
,
00101000
00000000
00100000
00010000
,
01000000
00100000
10000000
00000000
,
10010000
00000000
00010000
01000000
,
00001000
00000000
00010000
00000100
,
00001000
00001000
00000001
00000001
,
00000100
00000010
00001000
00000001
,
00000020
00000000
00000130
00000100
,
00000110
00000010
00000100
00010000
,
00001000
01000000
00010000
00100000
,
01000000
10000000
00010000
01000000
,
00100000
10000000
00010000
00100000
,
00001000
00010000
00000010
00001000
,
00000001
00000010
00000001
00000100
,
00000010
00001000
00000100
00010000
,
00001000
01000000
00000000
00000000
,
01100000
00000000
00100000
10000000
,
00010000
00100000
00001000
00010000
,
00011000
00000000
00000100
00001000
,
00000001
00000100
00000010
00001000
,
00001100
00000000
00010000
00001000
,
00011000
00000000
01000000
00010000
,
00100000
00000000
00000000
01000000
00000000
00000000
10000000
00000000
,
00000000
00010000
01000000
00000000
,
20020000
00000000
00000000
00000000
,
00000000
00000000
00000000
00000000
,
30030000
00000000
00000000
00000000
;

//--------------- dance-double - forcednature ----------------
#NOTEDATA:;
#STEPSTYPE:dance-double;
#DESCRIPTION:forcednature;
#DIFFICULTY:Medium;
#METER:12;
#RADARVALUES:0,0,0,0,0;
#CREDIT:forcednature;
#NOTES:
00000000
00000000
00000000
00000000
,
00000000
00000000
00000000
00000000
,
00000000
00000000
00000000
00000000
,
00000000
00000000
00000000
00000000
,
00000000
00000000
00000000
00000000
,
00022000
00000000
00000000
00000000
,
00000000
00000000
00000000
00000000
00000000
00033000
00000000
00000000
,
01001000
01001000
00000000
00000000
,
00010100
00010100
00000000
00000000
,
00101000
00011000
00010010
00011000
,
01001000
00011000
00010100
00011000
,
00001000
01000000
00001000
00000000
00010000
00000100
00010000
00000000
,
00002000
00000000
00003010
00000110
,
00000100
00000000
00001000
00000000
00000001
00000100
00000010
00000000
,
00001000
00000100
00010000
00000000
00001000
00000000
00001000
00000000
,
01000000
00000000
00010000
00000000
00100000
01000000
10000000
00000000
,
00010000
10000000
00100000
00000000
01000000
00000000
01000000
00000000
,
00001000
00000000
00010000
00000000
00000100
00001000
00000010
00000000
,
00010000
00001000
00100000
00000000
01000000
00000000
01000000
00000000
,
10000000
00000000
00010000
00000000
01000000
00001000
00010000
00000000
,
00022000
00033000
00000100
00000100
,
00000110
00000000
00000010
00000000
00000001
00000000
00000100
00000010
,
00000100
00001000
00010000
00001000
00100000
00000000
01000000
00000000
,
00100000
00000000
00010000
00000000
10000000
00000000
00100000
01000000
,
00010000
01000000
00001000
00010000
00000100
00000000
00000010
00000000
,
00000001
00000001
00000100
00000100
,
00001000
00000000
00001000
00000000
00010000
00100000
00010000
00100000
,
01000000
00000000
01000000
00000000
00010000
10000000
00010000
00000000
,
00200000
00000000
01300000
11000000
,
10000000
00010000
02000000
03000000
,
00001000
00010000
00000100
00001000
,
00000010
00000100
00000002
00000003
,
00000010
00000100
00010000
00001000
,
00011000
00000000
01000000
00000000
00010000
00100000
00010000
00000000
,
01000000
00001000
00010000
00000100
,
00001000
00000000
00000010
00000000
00000100
00000001
00000100
00000000
,
00002000
00000000
00000000
00000000
,
00013000
00000000
00100000
00000000
01000000
00010000
01000000
00000000
,
00100000
10000000
01000000
01100000
,
10010000
00000000
10000000
01000000
00010000
00001000
00100000
00000000
,
00010000
01000000
00001000
00000000
00010000
00000100
00001000
00000000
,
00000010
00000000
00000100
00000001
00001000
00000001
00000010
00000000
,
00000100
00010000
00001000
00000000
00100000
00001000
00010000
00000000
,
00100000
00000000
01000000
00010000
10000000
00010000
00100000
00000000
,
01000000
01000000
00010000
00001000
,
00000100
00001000
00000100
00000001
00000100
00000000
00000010
00000000
,
00010000
00000000
00001000
00001000
00100000
00000000
00010000
00000000
,
01000000
10000000
01000000
00010000
01000000
00000000
00100000
00000000
,
10000000
00000000
01000000
01000000
00100000
00000000
00001000
00000000
,
00011000
00000000
00010000
00000000
00000010
00000000
00001000
00000100
,
00001000
00000000
00000010
00000000
00010000
00001000
00010000
00001000
,
00100000
00000000
01000000
00000000
10000000
10000000
00100000
00000000
,
01000000
00010000
01000000
00001000
00010000
00000100
00001000
00000000
,
00002002
00000000
00000000
00000000
,
00000000
00000000
00000000
00000000
,
00000000
00000000
00000000
00000000
,
00000000
00000000
00000000
00000000
,
00000000
00000000
00000000
00000000
,
00000000
00000000
00000000
00000000
,
00000000
00000000
00000000
00000000
,
00000000
00000000
00000000
00003003
,
00000001
00000100
00001000
00020000
,
00000000
00130000
02000000
03000000
,
00010000
00100000
01000000
20000000
,
00000000
30010000
01000000
00001000
,
00010000
00000100
00001000
00000020
,
00000000
00000130
00000001
00000010
,
00000100
00020000
00000000
00031000
,
01000000
00020000
00000000
00030000
,
10010000
00010000
10000000
10000000
,
01000000
00010000
00001000
00010000
,
00010100
00000100
00001000
00001000
,
00000010
00000100
00000001
00000100
,
00000010
00010000
00000010
00010000
00000010
00010000
00001000
00000000
,
00100000
00001000
00100000
00001000
00100000
00001000
00010000
00000000
,
00100000
01000000
00100000
01000000
00010000
10000000
00010000
10000000
,
01000000
00100000
00001000
00020000
00000000
00000000
00000000
00000000
,
00030200
00000000
00000310
00000110
,
00000100
00001000
00000001
00000100
00000010
00010000
00001000
00200000
,
00000000
00310000
10000000
00100000
02000000
00000000
00000000
00000000
,
03010000
10000000
01000000
00010000
00001000
00100000
00001000
00020000
,
00000000
00030010
00001000
00000010
00000100
00000001
00001000
00000001
,
00000010
00000100
00010000
00000100
00001000
00000010
00010000
00002000
,
00000000
00103000
00010000
00100000
01000000
10000000
00010000
01000000
,
00002000
00000000
00013000
00000200
00000000
00001300
00000010
00000100
,
00000001
00000010
00000100
00020000
00000000
00000000
00030000
00000000
,
00011000
00000000
00001000
00200000
00000000
01300000
10000000
02000000
,
00000000
03100000
00001000
00010000
00000010
00001000
00000010
00000100
,
00000002
00000000
00000013
00000200
00000000
00000310
00000001
00001000
,
00000010
00000100
00000010
00010000
00001000
00100000
00010000
00100000
,
02000000
00000000
13000000
00010000
10000000
01000000
00010000
00001000
,
00020000
00000000
00030100
00001000
00000010
00000100
00000001
00000100
,
00001000
00000000
00010000
00100000
00000000
00100000
01000000
10000000
,
00000000
10000000
01000000
00010000
00200000
00000000
01300000
00000000
,
00022000
00000000
00000000
00000000
,
00000000
00000000
00000000
00000000
,
00033000
00000000
00000000
00000000
;

//--------------- dance-double - forcednature ----------------
#NOTEDATA:;
#STEPSTYPE:dance-double;
#DESCRIPTION:forcednature;
#DIFFICULTY:Hard;
#METER:15;
#RADARVALUES:0,0,0,0,0;
#CREDIT:forcednature;
#NOTES:
00000000
00000000
00000000
00000000
,
00000000
00000000
00000000
00000000
,
00000000
00000000
00000000
00000000
,
00000000
00000000
00000000
00000000
,
00000000
00000000
00000000
00000000
,
00022000
00000000
00000000
00000000
,
00000000
00000000
00000000
00000000
00000000
00033000
00000000
00000000
,
01001000
01001000
00010000
00000010
,
00010100
00010100
00001000
00100000
,
01000000
10000000
01000000
00100000
00010000
00001000
00000100
00000010
,
00000001
00000100
00000001
00000010
00001000
00010000
00100000
10000000
,
01000000
01000000
00010000
00001000
00000100
00000100
00001000
00010000
,
00200000
00000000
01300000
01100000
,
00100000
10000000
00010000
10000000
01000000
00010000
00001000
00010000
,
00000100
00001000
00000010
00000100
00000001
00000000
00000011
00000000
,
00000010
00000100
00000001
00000100
00001000
00000010
00010000
00001000
,
00100000
00010000
01000000
10000000
01000000
00000000
01100000
00000000
,
00100000
10000000
01000000
00010000
00001000
00100000
00010000
00001000
,
00000100
00010000
00001000
01000000
00010000
00000000
00110000
00000000
,
00100000
01000000
00010000
00001000
00000100
00000010
00001000
00000001
,
00000010
00000100
00000000
00000100
00010000
00000000
00011000
00000000
,
00001000
00000000
01000000
00000000
00100000
00000000
00010000
00000000
00100000
00000000
10000000
00000000
01000000
00100000
00000000
00100000
,
00010000
00000000
01000000
00000000
00001000
00010000
00000000
00010000
00000100
00000000
00001000
00000000
00000010
00000000
00000001
00000000
,
00000010
00000000
00000100
00000000
00001000
00000000
00000100
00000000
00000001
00000000
00000010
00000000
00000100
00010000
00000000
00010000
,
00001000
00000000
01000000
00000000
00010000
00100000
00000000
00100000
01000000
00000000
10000000
00000000
00100000
00000000
10000000
00000000
,
01000000
00000000
01000000
00000000
00010000
00000000
00001000
00001000
,
00000100
00000000
00000100
00000000
00001000
00001000
00010000
00010000
,
01000000
00000000
00000000
00000000
01000000
00000000
00000000
00000000
00100000
00000000
00010000
10000000
00010000
00000000
01000000
00000000
,
00100000
00010000
00001000
00010000
00000100
00000000
00000110
00000000
,
00001001
00000000
00000000
00000000
00001000
00000000
00000000
00000000
00000001
00000100
00000001
00000000
00000000
00000000
00000010
00000000
,
00000000
00000000
00000100
00000000
00000000
00010000
00000000
00000000
00001000
00000000
00000000
00100000
00000000
00000000
00010000
00000000
,
00000000
00000000
01000000
00000000
00000000
00010000
00000000
00000000
10000000
00100000
10000000
00000000
00000000
00000000
01000000
00000000
,
00000000
00000000
00010000
00000000
00000000
00010000
00000000
00000000
00001000
00000000
00000010
00000000
00000100
00000000
00000000
00000000
,
00000110
00000000
00000000
00000000
00000010
00000000
00000001
00000000
00001000
00000010
00001000
00000000
00000100
00000000
00010000
00000000
,
00001000
00000000
01000000
00010000
00100000
00000000
01000000
10000000
,
00010000
00000000
01000000
00000000
00001000
00000000
00010000
00000000
00000100
00001000
00000100
00000000
00000010
00000000
00000001
00000000
,
00000200
00000000
00000000
00000000
,
00000310
00000000
00000100
00000000
00001000
00000000
00010000
00000000
00100000
01000000
00100000
00000000
10000000
00000000
00010000
00000000
,
00100000
01000000
00010000
00001000
00000010
00000000
00000110
00000000
,
00000100
00000000
00001000
00000000
00000001
00000000
00000100
00000000
00000010
00001000
00000010
00000000
00010000
00000000
00001000
00000000
,
00100000
00010000
01000000
10000000
01000000
00010000
00100000
01000000
,
00010000
00000000
00001000
00000000
00000100
00000000
00000010
00000000
00001000
00000001
00001000
00000000
00000100
00000000
00010000
00000000
,
00001000
01000000
00010000
00100000
01000000
00010000
01000000
10000000
,
00010000
00000000
01000000
00000000
00001000
00000000
00010000
00000000
00000100
00001000
00000100
00000000
00000020
00000000
00000000
00000000
,
00000031
00000100
00000010
00000100
00001000
00010000
00100000
10000000
,
01000000
00010000
00001000
00000010
00000110
00000000
00000100
00001000
,
00000001
00000000
00000100
00000000
00000010
00001000
00000010
00010000
00001000
00000000
00010000
00000000
00000010
00000000
00000000
00000000
,
00000100
00001000
00010000
00100000
01100000
00000000
01000000
00010000
,
10000000
00000000
01000000
00000000
00100000
00010000
00100000
00001000
00010000
00000000
00000010
00000000
00001000
00000000
00000000
00000000
,
00000100
00000000
00000000
00000000
00000100
00000000
00000000
00000000
00010000
00001000
00010000
00000000
00100000
00000000
01000000
00010000
,
01000000
00000000
01000000
00000000
00100000
10000000
00010000
10000000
,
01000000
00000000
00000000
00000000
01000000
00000000
00010000
00000000
00001000
00010000
00001000
00000000
00000100
00000000
00000001
00000000
,
00000010
00000100
00000001
00000100
00001000
00000010
00010000
00000000
,
00022000
00000000
00000000
00030000
,
02000000
00003000
00020000
03000000
,
00200000
00000000
00000000
00030000
,
02000000
00300000
20000000
03000000
,
00020000
00000000
00000000
30000000
,
02000000
00030000
00002000
03000000
,
00020000
00003000
00000200
00030000
,
00002000
00000000
00000000
00003300
,
00000100
00000001
00000100
00000010
00000001
00000100
00001000
00000100
,
00000000
00000010
00001000
00010000
01000000
00000000
00000000
00000000
,
00100000
00010000
00100000
10000000
01000000
00010000
00001000
00010000
,
00000000
00100000
01000000
00100000
00010000
00001000
00000010
00000100
,
00001000
00000010
00000001
00000010
00000100
00001000
00010000
01000000
,
00000000
00100000
00001000
00010000
00100000
00010000
00001000
01000000
,
00010000
00000000
10000000
01000000
00000000
00010000
00001000
00000100
,
00000001
00000010
00000100
00002000
00000000
00000000
00003000
00000000
,
00000010
00000100
00000010
00010000
00001000
00100000
01000000
00200000
,
00000000
00310000
01000000
10000000
02000000
00000000
00100000
00000000
,
03010000
01000000
00001000
00010000
01000000
00010000
00001000
00000020
,
00000000
00000130
00001000
00000010
00000001
00000010
00000100
00001000
,
00010000
01000000
00100000
01000000
10000000
01000000
00100000
00001000
,
00001000
00010000
00000010
00010000
00001000
00010000
01000000
00100000
,
00100000
00010000
00001000
00000100
00000010
00001000
00000010
00000001
,
00000100
00000010
00000100
00000000
00001000
00000000
00010000
00000000
00100000
00000000
01000000
00000000
00010000
00000000
10000000
00000000
,
02000000
00000000
03100000
10010000
,
10000000
01000000
10000000
00000000
00100000
00000000
01000000
00000000
00010000
00000000
00100000
00000000
01000000
00000000
00010000
00000000
,
00001000
00000100
00000010
00001000
00000001
00000000
00000011
00000000
,
00000010
00000100
00000001
00000100
00001000
00000010
00010000
00001000
,
00010000
00100000
01000000
10000000
01000000
00010000
10000000
01000000
,
00100000
00010000
00100000
00000000
01000000
00000000
00010000
00000000
00001000
00000000
00000100
00000000
00000010
00000000
00010000
00000000
,
00001000
00000010
00000100
00000010
00000001
00000100
00001000
00010000
,
00011000
00000000
01000000
01010000
00000000
00010000
00100000
10000000
,
00100000
01000000
00010000
00002000
00100000
00000000
01003000
00000000
,
00011000
00000000
00001000
00010000
00001000
00000010
00000100
00001000
,
00000010
00000000
00000001
00000000
00000010
00000000
00000100
00000000
00000001
00000000
00001000
00000010
00001000
00000000
00000100
00000000
,
00010100
00000000
00010000
00001000
00100000
01000000
00100000
00010000
,
01000000
00000000
10000000
00000000
01000000
00000000
00100000
00000000
10000000
00000000
01000000
00100000
01000000
00000000
00010000
00000000
,
00011000
00000000
00000000
00000000
00001000
00000000
00000100
00000000
00000001
00000000
00000010
00000000
00000100
00000000
00010000
00001000
,
00010000
00000000
00000000
00000000
00010000
00000000
01000000
00000000
10000000
00000000
00100000
00000000
01000000
00000000
00001000
00010000
,
00001000
00000000
00100000
00110000
00000000
00001000
00010000
00010010
,
00000000
00000100
00001000
00010000
01000000
00000000
01100000
00000000
,
20020000
00000000
00000000
00000000
,
00000000
00000000
00000000
00000000
,
30030000
00000000
00000000
00000000
;
