#VERSION:0.83;
#TITLE:分けるな危険!モモモモモモーイズム;
#SUBTITLE:;
#ARTIST:ARM×狐夢想 feat. 桃井はるこ;
#TITLETRANSLIT:Wakeruna kiken! Momomomomomoizm;
#SUBTITLETRANSLIT:;
#ARTISTTRANSLIT:;
#GENRE:;
#CREDIT:;
#MUSIC:Wakeruna kiken! Momomomomomoizm.ogg;
#BANNER:Wakeruna kiken! Momomomomomoizm.png;
#BACKGROUND:Wakeruna kiken! Momomomomomoizm-bg.png;
#CDTITLE:./CDTitles/BeatStream AnimTribe.png;
#SAMPLESTART:68.331;
#SAMPLELENGTH:15.000;
#SELECTABLE:YES;
#OFFSET:0.000;
#BPMS:0.000=200.000;
#STOPS:;
#TIMESIGNATURES:0.000=4=4;
#BGCHANGES:0.000=Wakeruna kiken! Momomomomomoizm.mp4=1.000=0=0=0=StretchNoLoop====,
99999.000=-nosongbg-=1.000=0=0=0=StretchNoLoop====
;
#FGCHANGES:;

//--------------- dance-single - forcednature ----------------
#NOTEDATA:;
#STEPSTYPE:dance-single;
#DESCRIPTION:forcednature;
#DIFFICULTY:Beginner;
#METER:4;
#RADARVALUES:0,0,0,0,0;
#CREDIT:forcednature;
#NOTES:
0000
0000
0000
0000
,
0000
0000
0000
0000
,
0000
0000
0000
0000
,
0000
0000
0000
0000
,
0000
0000
0000
0000
,
0000
0000
0000
0000
,
1000
0000
0000
0000
,
0000
0000
0000
0000
,
1001
0000
0000
0000
,
0000
0000
0000
0000
,
0001
0000
0000
0000
,
0000
0000
0000
0000
,
0100
0000
0000
0000
,
0000
0000
0000
0000
,
0010
0000
0000
0000
,
0000
0000
0000
0000
,
1000
0000
0000
0000
,
1000
0000
0000
0000
,
0100
0000
0000
0000
,
0010
0000
0000
0000
,
0001
0000
0000
0000
,
0001
0000
0000
0000
,
0100
0000
0000
0000
,
0010
0000
0000
0000
,
1000
0000
0000
0000
,
0100
0000
0000
0000
,
1000
0000
0000
0000
,
0001
0000
0000
0000
,
0100
0000
0000
0000
,
0010
0000
0000
0000
,
0100
0000
0000
0000
,
0000
0000
0000
0000
,
1001
0000
0000
0000
,
0001
0000
0001
0000
,
0001
0000
0000
0000
,
1000
0000
1000
0000
,
1000
0000
0000
0000
,
0010
0000
0010
0000
,
0010
0000
0000
0000
,
0100
0000
0100
0000
,
0100
0000
0000
0000
,
0001
0000
1000
0000
,
0001
0000
0000
0000
,
1000
0000
0100
0000
,
1000
0000
0000
0000
,
0001
0000
0100
0000
,
0001
0000
0001
0000
,
0010
0000
0000
0000
,
0000
0000
0000
0100
,
0000
0000
0000
0000
,
0000
0000
0000
1000
,
0000
0000
0000
0000
,
0001
0000
0000
0000
,
0100
0000
0000
0000
,
0010
0000
0000
0000
,
2000
0000
0000
0000
,
0000
0000
3000
0000
,
0000
0000
0000
0000
,
1001
0000
0000
0000
,
1000
0000
0100
0000
,
1000
0000
0000
0000
,
0001
0000
0000
0000
,
0010
0000
0000
0000
,
0001
0000
0100
0000
,
0001
0000
0000
0000
,
1000
0000
0000
0000
,
0100
0000
0000
0000
,
0010
0000
0100
0000
,
0010
0000
0000
0000
,
0001
0000
0000
0000
,
1000
0000
0000
0000
,
0001
0000
0100
0000
,
0001
0000
0001
0000
,
0001
0000
0000
0000
,
1000
0000
0000
0000
,
0100
0000
1000
0000
,
0100
0000
0000
0000
,
0010
0000
0100
0000
,
0010
0000
0000
0000
,
0001
0000
0010
0000
,
0001
0000
0000
0000
,
0100
0000
0000
0000
,
1001
0000
0000
0000
,
0001
0000
0100
0000
,
0001
0000
0000
0000
,
0100
0000
0010
0000
,
0100
0000
0100
0000
,
0010
0000
0010
0000
,
1000
0000
1000
0000
,
0001
0000
0001
0000
,
0010
0000
0000
0000
,
0100
0000
1000
0000
,
2002
0000
0000
0000
,
3003
0000
0000
0000
;

//--------------- dance-single - forcednature ----------------
#NOTEDATA:;
#STEPSTYPE:dance-single;
#DESCRIPTION:forcednature;
#DIFFICULTY:Easy;
#METER:7;
#RADARVALUES:0,0,0,0,0;
#CREDIT:forcednature;
#NOTES:
0000
0000
0000
0000
,
0000
0000
0000
0000
,
0000
0000
0000
0000
,
0000
0000
0000
0000
,
0000
0000
0000
0000
,
0000
0000
0000
0000
,
1000
0001
1000
0001
,
0200
0000
0310
0010
,
1001
0000
1000
0000
,
0100
0010
0100
0000
,
1000
0000
0001
0000
,
0100
0010
0100
0000
,
0002
0000
1000
1000
,
2000
0000
3003
0000
,
0020
0000
0000
0000
,
0000
0000
0130
0000
,
1001
0000
1000
0000
,
0100
1000
0000
1000
,
0001
0000
0100
0000
,
0010
1000
0010
0000
,
0100
0000
0001
0000
,
0010
0001
0010
0000
,
0100
0000
1000
0001
,
0000
0001
0100
0000
,
0110
0000
0010
0000
,
1000
0001
1000
0000
,
0100
0010
0000
0010
,
0001
0001
0001
0000
,
0100
0000
0010
0000
,
0100
0000
0010
0000
0100
0000
0000
1001
,
0000
0000
0010
0100
,
0020
0030
0000
0000
,
1001
0000
1000
0000
,
1000
0100
1000
0000
,
0001
0000
0001
0000
,
0001
0100
0001
0000
,
1000
0000
1000
0000
,
1000
0010
1000
0000
,
0001
0000
0001
0000
,
0001
0010
0001
0000
,
1001
0000
1000
0000
,
1001
0000
0001
0000
,
0110
0000
0100
0000
,
0110
0000
0010
0000
,
1001
0000
0100
0000
,
1001
0000
0010
0000
,
1000
0000
0001
0000
,
2002
0000
0000
3003
,
0000
0000
0000
1000
,
0000
0000
0000
0001
,
0000
0000
0000
0100
,
0000
0000
0000
0010
,
0000
1000
0000
1000
,
0000
0100
0000
0100
,
0000
0010
0000
0010
,
0002
0000
0000
0000
,
0000
0000
0003
0000
,
0100
0000
0010
0000
,
1001
0000
1000
0100
,
1000
0000
0001
0000
,
1001
0000
0001
0100
,
0001
0000
1000
0000
,
1001
0000
0001
0000
,
1000
0010
1000
0000
,
0100
1000
0100
0000
,
0010
0100
0010
0000
,
1001
0000
0001
0100
,
0001
0000
0100
0010
,
0100
0000
0010
1000
,
0010
0000
1000
1000
,
0001
0000
0010
0001
,
0010
0001
0010
0000
,
0110
0000
1001
0000
,
0220
0000
0330
0000
,
1000
0000
1000
0010
,
1000
0000
1000
0001
,
1000
0000
1000
0100
,
1000
0000
0100
0010
,
0001
0000
0001
0100
,
0001
0000
0001
1000
,
0001
0000
0001
0010
,
0100
0000
0010
0100
,
1001
0000
1000
0001
,
1001
0000
0010
0100
,
0110
0000
1000
0001
,
0110
0000
0001
1000
,
0010
0010
0010
0000
,
0100
0100
0100
0000
,
0001
0001
0001
0001
,
1000
1000
1000
0000
,
0200
0000
0010
0000
,
1000
0000
0310
0000
,
2002
0000
0000
0000
,
3003
0000
0000
0000
;

//--------------- dance-single - forcednature ----------------
#NOTEDATA:;
#STEPSTYPE:dance-single;
#DESCRIPTION:forcednature;
#DIFFICULTY:Medium;
#METER:12;
#RADARVALUES:0,0,0,0,0;
#CREDIT:forcednature;
#NOTES:
0000
0000
0000
0000
,
0000
0000
0000
0000
,
0000
0000
0000
0000
,
0000
0000
0000
0000
,
0000
0000
0000
0000
,
0000
0000
0000
0000
,
0100
0100
0100
0100
,
0100
0100
0100
0100
0010
0000
0110
0000
,
1001
0000
1000
0000
0100
0010
0001
0000
,
0100
0010
1000
0000
0001
0010
0100
0000
,
1000
0000
0001
0000
1000
0010
0100
0000
,
0001
0010
0001
0000
1000
0100
0010
0000
,
1002
0000
0000
0100
0000
0000
0000
0000
,
0020
0000
0000
0033
,
1000
0001
0100
0010
,
1000
0001
1000
0001
0010
0000
0100
0000
,
1000
0010
1000
0000
0001
0010
0001
0000
,
0100
0000
0010
1000
0000
0001
0100
0000
,
0001
0010
0100
0000
1000
0010
0100
0000
,
0001
1000
0001
0100
0000
0010
1000
0000
,
0001
1000
0100
0000
1000
0001
0100
0000
,
0110
0000
1000
0001
0000
0110
0000
1000
,
0001
0100
1000
0100
,
0001
0010
0000
0100
1000
0000
1001
0000
,
0110
0000
1000
0001
0100
0000
0010
1000
,
0001
0000
1000
0100
0000
0010
0001
0000
,
0100
0010
1000
0000
0001
0010
0100
0000
,
1100
0000
0101
0000
0001
1000
0100
1000
,
0010
0000
0100
0000
0001
0010
0100
0000
,
0001
0000
0100
0000
1000
0001
0000
0110
,
0000
1000
0000
0001
0000
0100
0010
0100
,
0020
0030
0100
0100
,
1001
0000
1000
0100
0000
1000
0010
0000
,
0100
0001
0100
0000
0010
1000
0010
0000
,
1000
0000
0100
0010
0000
0001
0000
1000
,
0000
0010
1000
0001
0010
0000
0100
0000
,
1001
0000
0100
1000
0000
0100
0001
0000
,
0100
1000
0000
0100
0001
0000
0010
0000
,
1001
1000
0100
0001
,
0100
0100
0100
0100
0100
0000
0010
0000
,
1001
0100
1000
0010
,
1001
0100
0001
0010
,
0110
1000
0100
0001
,
0110
0001
0100
1000
,
1100
0000
0001
0000
0100
0010
0100
0000
,
0101
0000
1000
0000
0100
0010
0100
0000
,
1000
0000
0001
0000
0100
0000
0001
0000
1000
0000
0100
0000
,
2002
0000
0000
3003
,
1000
0000
0000
1000
1000
0000
0000
0000
,
0001
0000
0000
0001
0001
0000
0000
0000
,
0100
0000
0000
0100
0100
0000
0000
0000
,
0010
0000
0000
0010
0010
0000
0000
0000
,
1000
0100
0010
0001
,
0010
1000
0010
0001
,
1000
0010
0100
0001
,
2002
0000
0000
0000
,
0000
0000
3003
0000
,
0100
0000
0010
0000
,
1001
0100
1000
0001
,
0101
0001
1100
1000
,
0110
1000
0001
0010
,
0100
1000
0101
1001
,
1100
0010
0001
0100
,
0110
1000
0110
0001
,
1001
0100
0010
1000
,
0001
0010
1100
0101
,
1001
1000
0100
1000
,
1010
0001
0011
1000
,
0110
0001
0010
0100
,
1000
0001
0101
1001
,
1100
0010
0100
0001
,
1010
0000
0000
0110
0000
0000
0101
0000
,
1002
1000
1000
1000
,
0103
0100
0000
0010
0000
0000
1001
0000
,
1000
0100
1000
0000
0010
0100
0010
0000
,
1000
0100
0010
0000
0001
0100
0010
0000
,
1000
0001
0010
0000
0100
1000
0001
0000
,
0100
0001
1000
0000
0010
1000
0001
0000
,
0010
0001
1000
0000
0001
0100
0010
0000
,
1000
0100
1000
0000
0010
0100
0001
0000
,
0010
0010
0010
0010
,
0100
1000
0001
0000
0100
0001
1000
0000
,
1001
0000
0010
0000
1000
0100
0010
0000
,
0100
1000
0001
0100
0010
1000
0001
0000
,
0110
0000
0001
0000
1000
0100
0010
0000
,
0100
1000
0001
0100
0001
0100
0010
0000
,
0110
0100
0101
0100
,
1100
0100
0110
0100
,
0001
1000
0001
1000
0001
1000
0001
1000
,
0100
0010
0100
0010
0100
0010
0100
0010
,
0100
0000
1000
0000
0001
0100
1000
0000
,
0100
0000
0010
0000
1000
0100
0001
0000
,
0220
0000
0000
0000
,
0330
0000
0000
0000
;

//--------------- dance-single - forcednature ----------------
#NOTEDATA:;
#STEPSTYPE:dance-single;
#DESCRIPTION:forcednature;
#DIFFICULTY:Hard;
#METER:16;
#RADARVALUES:0,0,0,0,0;
#CREDIT:forcednature;
#NOTES:
0000
0000
0000
0000
,
0000
0000
0000
0000
,
0000
0000
0000
0000
,
0000
0000
0000
0000
,
0000
0000
0000
0000
,
0000
0000
0000
0000
,
0002
1000
1000
1000
,
1003
0000
0001
0000
0010
0000
0100
0000
1000
0100
1000
0000
0001
0100
0001
0000
,
1000
0010
0100
0001
0010
0100
0001
0100
,
1000
0010
1000
0000
0001
0000
0010
0000
,
0100
0001
0100
0010
0001
1000
0010
0100
,
0001
0100
1000
0000
0100
0000
0010
0000
,
2001
0000
0000
0000
0100
0100
0100
0100
,
0001
0000
0000
0020
0000
0000
3030
0000
,
0001
0100
1000
0010
,
0001
0100
1000
0100
0020
0000
0130
0000
,
0001
0100
0001
0010
0001
0100
1000
0100
,
0001
0010
0100
1000
0010
1000
0001
0000
,
1000
0100
1000
0010
1000
0100
0001
0100
,
0010
0010
0100
0010
0010
0001
0010
0000
,
0100
1000
0001
1000
0010
0100
0001
1000
,
0100
1000
0001
0100
0010
1000
0001
0000
,
0100
1000
0100
0001
0010
0100
1000
0001
,
0000
0110
0000
1000
0001
0000
0110
0000
,
1000
0100
1000
0010
0100
0001
0010
0001
,
0100
0000
0010
1000
0000
0001
0010
0000
,
0100
0001
0100
1000
0001
0100
0010
1000
,
1001
0000
0000
0000
0110
0000
0000
0000
0001
0000
1000
0100
1000
0000
0001
0000
,
0100
0001
0100
0010
1000
0001
1000
0100
,
0010
0001
0100
0010
2000
0000
3100
1100
,
0000
0001
0000
0100
0000
0001
1000
0100
,
2002
0000
3003
0000
0200
0300
0020
0030
,
1001
0001
0000
0100
0000
0010
1000
0010
,
0000
1000
0100
1000
0010
0100
0001
0000
,
0011
0000
0100
1000
0000
0001
0000
0100
,
0000
0010
1000
0001
0100
0000
2002
3003
,
1000
0100
0001
0100
1000
0010
0001
0010
,
0100
0001
1000
0010
1000
0100
0010
0000
,
0001
0001
0100
0100
0001
0001
1000
1000
,
0100
0000
0100
0000
1000
0000
1000
0000
0001
0100
0001
0000
1000
0100
1000
0000
,
0010
0100
0001
0100
0010
1000
0001
0000
,
1000
0100
0010
0001
0100
0010
1000
0001
,
0010
0100
1000
0001
0100
0010
1000
0100
,
0010
0001
1000
0100
1000
0010
0100
0001
,
0010
0001
0010
0000
0100
0000
1000
0000
0001
0000
0100
0000
0010
0000
1000
0000
,
0001
1000
0001
0000
1000
0000
0100
0000
0010
0000
0001
0000
0100
0000
0010
0000
,
1000
0000
1010
0000
0101
0000
0011
0000
1100
0000
0110
0000
,
2002
0000
0000
0000
0000
0000
0000
0000
0000
0000
3003
0000
,
0001
0000
0100
1000
1000
0000
0100
0000
,
0001
0000
0000
1000
1000
0000
0010
0000
,
0100
0000
1000
0100
0100
0000
0001
0000
,
0010
0000
0000
0100
0100
0000
1000
0000
,
0001
0100
1000
0110
,
1000
0100
0001
0110
,
1001
1001
1001
1001
,
0120
0100
0000
0100
,
0000
0000
0100
0100
0130
0000
0000
0000
,
2002
3003
0220
0330
,
2001
0000
3001
0100
0010
1000
0001
0000
,
1002
0103
2100
3001
,
0021
0000
0031
1000
0010
0100
0001
1000
,
0100
0010
0001
0000
0101
0000
1100
0000
,
2001
0000
3010
1000
0001
0010
0100
0000
,
0210
1300
0210
0301
,
1002
1000
1003
0010
0000
1000
0001
0100
,
0001
0000
0000
0000
1000
0000
0001
0100
0001
0000
0010
0000
0100
0000
1000
0000
,
1002
0000
1003
0010
0100
0001
0010
0000
,
0021
0130
1200
0310
,
1002
0000
1003
0010
1000
0001
0100
0000
,
0110
1000
0011
1001
,
2100
0000
3001
0100
1000
0100
0001
0010
,
0100
1000
0010
1000
0001
0010
0100
1000
,
2001
0001
0100
3001
,
1000
0000
1000
0000
0000
0000
0110
0000
0000
0000
0001
1000
0001
1000
0001
0000
,
0100
0000
0001
0000
1000
0000
0010
0000
0100
0000
0001
0000
1000
0010
1000
0000
,
0001
0000
0010
0000
0100
0000
1000
0000
0001
0000
0010
0000
0100
1000
0100
0000
,
0010
0000
1000
0000
0010
0000
0001
0000
0010
0000
1000
0000
0010
0001
0010
0000
,
0100
0000
0001
0000
0100
0000
1000
0000
0100
0000
0010
0000
0001
1000
0001
0000
,
1000
0000
0100
0000
1000
0000
0010
0000
0100
0000
0001
0000
0010
0100
0010
0000
,
0001
0000
0100
0000
0010
0000
1000
0000
0100
0000
1000
0000
0010
0100
0010
0000
,
0110
0110
0110
0110
,
1000
0000
0001
0100
0001
0000
1000
0000
0100
0000
0010
0000
0001
0000
0100
0000
,
0010
1000
0001
0000
1000
0000
0100
0000
0010
0000
0001
0000
0100
0000
0010
0000
,
1000
0100
0010
0000
0001
0000
0100
0000
0010
0000
0100
0000
0001
0000
0010
0000
,
0100
1000
0001
0000
0100
0000
0001
0000
1000
0000
0010
0000
1000
0000
0100
0000
,
0010
0001
1000
0000
0001
0000
0100
0000
0010
0000
1000
0000
0001
0000
1000
0000
,
1001
1100
1001
0101
,
0110
1010
0011
0110
,
1000
1000
0001
0001
1000
1000
0001
0001
,
1000
0001
1000
0001
1000
0001
1000
0001
1000
0001
1000
0001
1000
0001
1000
0001
,
1000
0000
0010
0000
0100
0000
0001
0000
1000
0000
0010
0000
0100
0001
0010
0000
,
0100
0000
1000
0000
0100
0000
0010
0000
0001
0000
1000
0000
0010
0100
0001
0000
,
2001
0000
0000
0000
,
3100
0000
0000
0000
;

//--------------- dance-double - forcednature ----------------
#NOTEDATA:;
#STEPSTYPE:dance-double;
#DESCRIPTION:forcednature;
#DIFFICULTY:Easy;
#METER:8;
#RADARVALUES:0,0,0,0,0;
#CREDIT:forcednature;
#NOTES:
00000000
00000000
00000000
00000000
,
00000000
00000000
00000000
00000000
,
00000000
00000000
00000000
00000000
,
00000000
00000000
00000000
00000000
,
00000000
00000000
00000000
00000000
,
00000000
00000000
00000000
00000000
,
00001000
00010000
00001000
00010000
,
00000200
00000000
00001300
00001000
,
00001001
00000000
00000001
00000000
,
00000100
00000010
00000100
00000000
,
00000001
00000000
00001000
00000000
,
00000100
00001000
00000100
00000000
,
00020000
00000000
00001000
00001000
,
00002000
00000000
00033000
00000000
,
02000000
00000000
00000000
00000000
,
00000000
00000000
03100000
00000000
,
10010000
00000000
10000000
00000000
,
01000000
10000000
00000000
10000000
,
00010000
00000000
01000000
00000000
,
00001000
00010000
00001000
00000000
,
00010000
00000000
00000100
00000000
,
00001000
00000001
00001000
00000000
,
00000010
00000000
00010000
00001000
,
00000000
00001000
00100000
00000000
,
10010000
00000000
10000000
00000000
,
10000000
01000000
00100000
00000000
,
00010000
01000000
00000000
01000000
,
00001000
00001000
00001000
00000000
,
00010000
00000000
00000100
00000000
,
00001000
00000000
00000100
00000000
00001000
00000000
00000000
00001001
,
00000000
00000000
00000001
00000100
,
00000002
00000003
00000000
00000000
,
00001001
00000000
00001000
00000000
,
00001000
00000100
00001000
00000000
,
00000100
00000000
00000100
00000000
,
00000100
00010000
00000100
00000000
,
00010000
00000000
00010000
00000000
,
00010000
00001000
00010000
00000000
,
00001000
00000000
00001000
00000000
,
00001000
01000000
00001000
00000000
,
00011000
00000000
00100000
00000000
,
00011000
00000000
00000010
00000000
,
00011000
00000000
01000000
00000000
,
00011000
00000000
00000100
00000000
,
00011000
00000000
01000000
00000000
,
00011000
00000000
00000100
00000000
,
00010000
00000000
00001000
00000000
,
00022000
00000000
00000000
00033000
,
00000000
00000000
00000000
01000000
,
00000000
00000000
00000000
00010000
,
00000000
00000000
00000000
10000000
,
00000000
00000000
00000000
00010000
,
00000000
00100000
00000000
00100000
,
00000000
00001000
00000000
00001000
,
00000000
00010000
00000000
00010000
,
00002000
00000000
00000000
00000000
,
00000000
00000000
00003000
00000000
,
00010000
00000000
00001000
00000000
,
00011000
00000000
00000100
00001000
,
00000100
00000000
00000010
00000000
,
00001001
00000000
00000001
00000100
,
00000001
00000000
00001000
00000000
,
00001001
00000000
00000001
00000000
,
00000010
00000100
00000010
00000000
,
00000100
00001000
00000100
00000000
,
00010000
00001000
00010000
00000000
,
00011000
00000000
00001000
01000000
,
00001000
00000000
01000000
00010000
,
01000000
00000000
00100000
01000000
,
00100000
00000000
10000000
10000000
,
00010000
00000000
00100000
00010000
,
00100000
00010000
00100000
00000000
,
00001000
00000000
00010000
00000000
,
00022000
00000000
00033000
00000000
,
00000100
00000000
00000100
00001000
,
00000100
00000000
00000100
00010000
,
00001000
00000000
00001000
00010000
,
00001000
00000000
00001000
01000000
,
00010000
00000000
00010000
10000000
,
00010000
00000000
00010000
00100000
,
01000000
00000000
01000000
10000000
,
01000000
00100000
01000000
00000000
,
10010000
00000000
10000000
01000000
,
01100000
00000000
00100000
00001000
,
00011000
00000000
00010000
00000010
,
00000110
00000000
00000010
00000100
,
00000001
00000001
00000001
00000000
,
00000010
00000010
00000010
00000000
,
00000100
00000100
00000100
00000100
,
00010000
00010000
00010000
00000000
,
00002000
00000000
01000000
00000000
,
00010000
00000000
01003000
00000000
,
00022000
00000000
00000000
00000000
,
00033000
00000000
00000000
00000000
;

//--------------- dance-double - forcednature ----------------
#NOTEDATA:;
#STEPSTYPE:dance-double;
#DESCRIPTION:forcednature;
#DIFFICULTY:Medium;
#METER:13;
#RADARVALUES:0,0,0,0,0;
#CREDIT:forcednature;
#NOTES:
00000000
00000000
00000000
00000000
,
00000000
00000000
00000000
00000000
,
00000000
00000000
00000000
00000000
,
00000000
00000000
00000000
00000000
,
00000000
00000000
00000000
00000000
,
00000000
00000000
00000000
00000000
,
00001000
00010000
00001000
00010000
,
01000000
00100000
01000000
00100000
00010000
00000000
10000000
00000000
,
10010000
00000000
10000000
00010000
00000000
01000000
00000000
00001000
,
00000000
00010000
00000000
00000000
00000100
00001000
00000100
00000000
,
00000010
00000000
00000001
00001000
00000000
00000010
00000000
00010000
,
00000000
00001000
00000000
00000000
00000010
00000100
00000010
00000000
,
00000210
00000000
00000001
00000010
,
00001000
00000000
00000000
00020000
00000000
00000000
00030300
00000000
,
00010000
00001000
01000000
00010000
,
10000000
00100000
10000000
00000000
01000000
00000000
00100000
00000000
,
10010000
00010000
01000000
00001000
,
00010000
00000100
00010000
00000100
00000000
00000000
00001000
00000000
,
00000001
00000100
00000010
00001000
,
00000100
00000010
00000100
00000010
00000000
00000000
00000001
00000000
,
00000100
00001000
00010000
00100000
,
10000000
00010000
10000000
00010000
00000000
10000000
00000000
01000000
,
00000000
00010000
00000000
00001000
00000000
00000010
00000000
00000100
,
00000000
00001001
00000000
00000001
00000100
00000000
00000010
00000000
,
00001000
00000100
00001000
00000000
00000001
00000100
00000001
00000000
,
00000010
00000000
00000100
00001000
00000000
00000010
00010000
00000000
,
00001000
00100000
00001000
00000000
00010000
00000100
00010000
00000000
,
00010100
00010100
00010100
00010000
,
00001000
01000000
00001000
01000000
00000000
00010000
10000000
00000000
,
01000000
10000000
01000000
10000000
02000000
00000000
03000000
01100000
,
00000000
00100000
00010000
00100000
00001000
00000000
00010100
00000000
,
00011000
00000000
00010000
00001000
,
00010000
01000000
00000000
00100000
00000000
00010000
10000000
00010000
,
00000000
01000000
00001000
01000000
00001000
00000000
00100000
00000000
,
00101000
00000000
00001000
00010000
00000000
00000010
00000000
00010000
,
00000000
00000100
00001000
00000100
00001000
00000000
00000010
00000000
,
00001000
00000001
00001000
00000000
00000001
00000100
00000001
00000000
,
00000010
00000001
00000010
00000001
00000010
00000000
00000100
00000000
,
00000110
00000100
00010000
00001000
,
01000000
00010000
01000000
00010000
10000000
00100000
10000000
00000000
,
11000000
00010000
00001000
00000010
,
00000101
00001000
00010000
00100000
,
11000000
00010000
00001000
00000100
,
00000101
00001000
00010000
01000000
,
11000000
00000000
00100000
00000000
00001000
00010000
00000010
00000000
,
00000101
00000000
00000010
00000000
00010000
00001000
00100000
00000000
,
01000000
00000000
00010000
00000000
00001000
00000000
00010000
00000000
00000100
00000000
00001000
00000000
,
00002002
00000000
00000000
00003003
,
00000001
00000100
00001000
00010000
,
00100000
00000000
00000000
10000000
00000000
00000000
00010000
00000000
,
10000000
01000000
00010000
00001000
,
00000010
00000000
00000000
00000001
00000000
00000000
00001000
00000000
,
00000001
00000100
00001000
00011000
,
00010000
01000000
10000000
10010000
,
10000000
00100000
00010000
00011000
,
00022000
00000000
00000000
00000000
,
00000000
00000000
00033000
00000000
,
00020200
00030300
02002000
03003000
,
00011000
00000000
00001000
01000000
00001000
01000000
00010000
00000000
,
10010000
10000000
11000000
01000000
,
01100000
00000000
00100000
00010000
00100000
00010000
00100000
00000000
,
00001000
00010000
00000010
00001000
,
00001001
00000000
00000001
00000010
00000001
00000010
00000001
00000000
,
00000101
00000100
00000110
00000010
,
00001000
00000100
00001000
00000100
00000000
00010000
00001000
00010000
,
00001000
00000000
01000000
00010000
01000000
00100000
10000000
00000000
,
10010000
00000000
00010000
00100000
01000000
10000000
00010000
00000000
,
01010000
01000000
00001000
00010000
,
00010100
00000000
00000100
00001000
00000001
00000100
00000010
00000000
,
00001010
00001000
00000100
00000010
,
00000110
00000000
00000100
00001000
00000100
00000000
00000010
00000000
,
00000001
00000000
00000100
00000010
00000000
00000100
00000001
00000000
,
00020200
00030300
02002000
03003000
,
01000000
01000000
00000000
20020000
00000000
00000000
30030000
00000000
,
10000000
01000000
10000000
01000000
10000000
01000000
10000000
00000000
,
00010000
01000000
00010000
01000000
00010000
01000000
00010000
00000000
,
00100000
00001000
00100000
00001000
00010000
00000100
00010000
00000000
,
00000010
00010000
00000010
00010000
00001000
01000000
00001000
00000000
,
00010000
00000100
00010000
00000100
00010000
00001000
00100000
00000000
,
00010000
01000000
00010000
01000000
00001000
00010000
00000010
00000000
,
00001010
00010010
00101000
00110000
,
01000000
00010000
01000000
00000000
00100000
10000000
00100000
00000000
,
10010000
00000000
10000000
01000000
00100000
00010000
01000000
00000000
,
01001000
00000000
00001000
00010000
00000100
00001000
00000100
00000000
,
00000110
00000000
00000010
00000001
00000100
00000010
00001000
00000000
,
00001100
00000000
00000100
00010000
00001000
01000000
00010000
00000000
,
01010000
01001000
00011000
00010100
,
00001100
00010100
00011000
01001000
,
01000000
00010000
01000000
00001000
00010000
00000100
00001000
00000100
,
00000010
00000001
00000100
00000010
00000100
00001000
00010000
00100000
,
01000000
00010000
10000000
01000000
,
00010000
00001000
00000100
00000001
,
00002001
00000000
00000000
00000000
,
00013000
00000000
00000000
00000000
;

//--------------- dance-double - forcednature ----------------
#NOTEDATA:;
#STEPSTYPE:dance-double;
#DESCRIPTION:forcednature;
#DIFFICULTY:Hard;
#METER:16;
#RADARVALUES:0,0,0,0,0;
#CREDIT:forcednature;
#NOTES:
00000000
00000000
00000000
00000000
,
00000000
00000000
00000000
00000000
,
00000000
00000000
00000000
00000000
,
00000000
00000000
00000000
00000000
,
00000000
00000000
00000000
00000000
,
00000000
00000000
00000000
00000000
,
00010100
00010100
01001000
01001000
,
01000000
00010000
10000000
01000000
00200000
00000000
00320000
00000000
,
01030000
00010000
01000000
00001000
00010000
00000100
00001000
00000100
,
00000010
00000001
00000100
00000000
00000010
00010000
00001000
00000000
,
00100000
00010000
10000000
00100000
01000000
00010000
10000000
01000000
,
00010000
00001000
00010000
00000000
00000010
00001000
00000100
00000000
,
00021000
00000000
00000000
00000000
01000000
01000000
01000000
01000000
,
01000000
00000000
00000000
00002000
00000000
00000000
00033000
00000000
,
00010000
00000100
00001000
01000000
,
00010000
00001000
00022000
00033000
,
00010000
00000100
00010000
00001000
01000000
00010000
10000000
01000000
,
00100000
00010000
01000000
00001000
00010000
00000100
00000010
00000000
,
00000100
00001000
00000001
00000100
00000010
00010000
00001000
01000000
,
00100000
00100000
00010000
00100000
10000000
00010000
10000000
00000000
,
01000000
00100000
00010000
01000000
00001000
00010000
00000100
00000010
,
00000100
00001000
00000001
00000100
00001000
00010000
00001000
00000000
,
00100000
00010000
01000000
00100000
10000000
01000000
00010000
00001000
,
00000000
00011000
00000000
00000100
00000010
00000000
00001001
00000000
,
00000001
00000010
00000001
00000100
00000010
00010000
00000100
00010000
,
00001000
00000000
01000000
00010000
00000000
10000000
01000000
00000000
,
00100000
00010000
01000000
00100000
10000000
01000000
00010000
00001000
,
00000010
00000000
00000000
00000000
00000110
00000000
00000000
00000000
00001000
00000000
00000001
00000100
00000001
00000000
00000010
00000000
,
00000100
00001000
00000100
00000010
00000100
00010000
00001000
01000000
,
00100000
01000000
00010000
01000000
00200000
00000000
10300000
10010000
,
00000000
00010000
00000000
01000000
00000000
00001000
00010000
00000100
,
00000020
00000000
00000030
00000000
00000002
00000003
00002000
00003000
,
00000010
00010000
00000000
00001000
00000000
00100000
01000000
10000000
,
00000000
00100000
00010000
00001000
00100000
01000000
00010000
00000000
,
00011000
00000000
00000100
00001000
00000000
00000001
00000000
00000100
,
00000000
00001000
00010000
00000100
00000010
00000000
00002002
00003003
,
00000001
00000100
00001000
00010000
01000000
10000000
00100000
00010000
,
00001000
00000010
00000001
00000100
00001000
00010000
00100000
00000000
,
10000000
10000000
01000000
01000000
00010000
00010000
00001000
00001000
,
00000100
00000000
00000100
00000000
00000001
00000000
00000001
00000000
00001000
00000100
00001000
00000000
00000001
00000100
00000001
00000000
,
00000010
00001000
00000010
00000100
00010000
00001000
01000000
00000000
,
00100000
00010000
00100000
10000000
00010000
10000000
01000000
00010000
,
00001000
00000100
00000001
00001000
00000100
00000010
00001000
00000010
,
00000001
00000100
00001000
00010000
00100000
00010000
00001000
01000000
,
00100000
10000000
00100000
00000000
01000000
00000000
00010000
00000000
00100000
00000000
00001000
00000000
00010000
00000000
00000010
00000000
,
00001000
00000001
00001000
00000000
00000100
00000000
00010000
00000000
00001000
00000000
01000000
00000000
00100000
00000000
00010000
00000000
,
00001000
00000000
00000010
00000000
00001000
00000000
00010000
00000000
00100000
00000000
00010000
00000000
,
00022000
00000000
00000000
00000000
00000000
00000000
00000000
00000000
00000000
00000000
00033000
00000000
,
00010000
00000000
00000000
00000100
00000100
00000000
00000010
00000000
,
00000001
00000000
00000000
00000100
00000100
00000000
00001000
00000000
,
00010000
00000000
00000000
00100000
00100000
00000000
10000000
00000000
,
00010000
00000000
00000000
01000000
01000000
00000000
00001000
00000000
,
00010000
00000100
00010000
00011000
,
00001000
01000000
00001000
00011000
,
00000100
00010000
00001000
01000000
,
00022000
00000000
00000000
00000000
,
00000000
00000000
00033000
00000000
,
00020200
00030300
02002000
03003000
,
00011000
00000000
00001000
00100000
00010000
10000000
00100000
00000000
,
02002000
03003000
00020200
00030300
,
00001001
00000000
00000001
00001000
00000100
00000010
00000100
00010000
,
00001000
01000000
00100000
00000000
10100000
00000000
01100000
00000000
,
01010000
00000000
01000000
00001000
00010000
00000100
00001000
00000000
,
00002002
00003003
00000220
00000330
,
00010000
00000100
00010000
00000100
00000000
00010000
00001000
01000000
,
00010000
00000000
00000000
00000000
10000000
00000000
00010000
00100000
00010000
00000000
01000000
00000000
00001000
00000000
00010000
00000000
,
00000100
00000000
00000010
00000001
00000100
00000010
00001000
00000000
,
00020200
00030300
02002000
03003000
,
00011000
00000000
00001000
01000000
00010000
10000000
01000000
00000000
,
00100000
00001000
00010000
00000000
00010100
00000000
00101000
00000000
,
00011000
00000000
00001000
00000100
00000010
00001000
00000100
00000010
,
00000001
00000100
00000010
00000100
00001000
00010000
00100000
10000000
,
00020000
00100000
10000000
01030000
,
00010000
00000000
00100000
00000000
00000000
00000000
00011000
00000000
00000000
00000000
00001000
00010000
00001000
00010000
00001000
00000000
,
01000000
00000000
00010000
00000000
10000000
00000000
01000000
00000000
00010000
00000000
00001000
00000000
00010000
00000100
00010000
00000000
,
00000010
00000000
00001000
00000000
00000001
00000000
00000010
00000000
00000100
00000000
00001000
00000000
00000010
00010000
00000010
00000000
,
00001000
00000000
00000100
00000000
00010000
00000000
00001000
00000000
01000000
00000000
00010000
00000000
10000000
01000000
10000000
00000000
,
00100000
00000000
01000000
00000000
00001000
00000000
01000000
00000000
00010000
00000000
00100000
00000000
00001000
00010000
00001000
00000000
,
01000000
00000000
00001000
00000000
00010000
00000000
00000100
00000000
00001000
00000000
00000001
00000000
00000100
00000001
00000100
00000000
,
00000010
00000000
00010000
00000000
00001000
00000000
01000000
00000000
00010000
00000000
10000000
00000000
01000000
00100000
01000000
00000000
,
00200000
10000000
01000000
00010000
,
00301000
00000000
00100000
00010000
00100000
00000000
01000000
00000000
00010000
00000000
00001000
00000000
00010000
00000000
00000100
00000000
,
00001000
00000001
00000010
00000000
00000100
00000000
00010000
00000000
00001000
00000000
01000000
00000000
00010000
00000000
10000000
00000000
,
01000000
00100000
00010000
00000000
01000000
00000000
00001000
00000000
00010000
00000000
00000010
00000000
00010000
00000000
00001000
00000000
,
00000100
00000001
00001000
00000000
00000100
00000000
00000010
00000000
00000100
00000000
00010000
00000000
00001000
00000000
01000000
00000000
,
00100000
10000000
00010000
00000000
10000000
00000000
01000000
00000000
00010000
00000000
00001000
00000000
00000010
00000000
00000001
00000000
,
00000011
00001100
00011000
01010000
,
10100000
11000000
00101000
00011000
,
00001000
01000000
00001000
00010000
00000100
00010000
00001000
00000000
,
00010000
00001000
00010000
00001000
00010000
00001000
00010000
00001000
00010000
00001000
00010000
00001000
00010000
00001000
00010000
00001000
,
00010000
00000000
00000100
00000000
00010000
00000000
00001000
00000000
01000000
00000000
00010000
00000000
10000000
01000000
10000000
00000000
,
00100000
00000000
01000000
00000000
00010000
00000000
00100000
00000000
00001000
00000000
00010000
00000000
00000100
00001000
00000100
00000000
,
00000020
00000000
00000000
00000000
,
00000031
00000000
00000000
00000000
;
