#VERSION:0.83;
#TITLE:WONDER WALKER;
#SUBTITLE:;
#ARTIST:L.E.D.;
#TITLETRANSLIT:;
#SUBTITLETRANSLIT:;
#ARTISTTRANSLIT:;
#GENRE:HARD TRANCE;
#CREDIT:;
#MUSIC:WONDER WALKER.ogg;
#BANNER:WONDER WALKER.png;
#BACKGROUND:WONDER WALKER-bg.png;
#CDTITLE:./CDTitles/bm IIDX 19 Lincle.png;
#SAMPLESTART:39.593;
#SAMPLELENGTH:15.000;
#SELECTABLE:YES;
#OFFSET:1.112;
#BPMS:0.000=165.000;
#STOPS:104.000=1.455;
#TIMESIGNATURES:0.000=4=4;
#BGCHANGES:0.000=../BGAs/19po.mp4=1.000=0=0=0=StretchNoLoop====,
99999.000=-nosongbg-=1.000=0=0=0=StretchNoLoop====
;
#FGCHANGES:;

//--------------- dance-single - forcednature ----------------
#NOTEDATA:;
#STEPSTYPE:dance-single;
#DESCRIPTION:forcednature;
#DIFFICULTY:Beginner;
#METER:3;
#RADARVALUES:0,0,0,0,0;
#CREDIT:forcednature;
#NOTES:
0000
0000
0000
0000
,
0000
0000
0000
0000
,
0000
0000
0000
0000
,
0000
0000
0000
0000
,
0000
0000
0000
0000
,
0000
0000
0000
0000
,
0001
0000
0000
0000
,
0000
0000
0000
0000
,
0100
0000
0000
0000
,
0000
0000
0000
0000
,
0010
0000
0000
0000
,
0000
0000
0000
0000
,
1000
0000
0000
0000
,
0000
0000
0000
0000
,
0100
0000
0000
0000
,
0000
0000
0000
0000
,
0010
0000
0000
0000
,
0000
0000
0000
0000
,
0001
0000
0000
0000
,
1000
0000
0000
0000
,
0001
0000
0000
0000
,
1000
0000
0000
0000
,
0010
0000
0100
0000
,
0010
0000
0100
0000
,
0001
0001
1000
1000
,
0001
1000
0001
1000
,
0010
0000
0000
0000
,
1000
0000
1000
0000
,
0100
0000
0000
0000
,
0010
0000
0001
0000
,
1000
0000
0000
0000
,
0001
0000
0001
0000
,
0100
0000
0000
0000
,
0010
0000
1000
0000
,
0001
0000
0000
0000
,
1000
0000
1000
0000
,
0100
0000
0000
0000
,
0010
0000
0001
0000
,
1000
0000
0000
0000
,
0001
0000
0001
0000
,
0100
0000
0000
0000
,
0010
0000
1000
0000
,
0001
0000
0001
0000
,
0010
0000
0000
0000
,
0100
0000
0000
0000
,
1000
0000
0000
0000
,
0010
0000
0000
0000
,
0100
0000
0000
0000
,
0001
0000
0000
0000
,
0010
0000
0000
0000
,
0100
0000
0100
0000
,
1000
0000
0000
0000
,
0010
0000
0000
0000
,
0100
0000
0000
0000
,
0001
0000
0000
0000
,
1000
0000
0000
0000
,
0100
0000
0000
0000
,
0010
0000
0010
0000
,
0001
0001
0001
0000
,
0200
0000
0000
0000
,
0000
0000
0000
0000
,
0000
0000
0000
0000
,
0300
0000
0000
0000
,
1001
0000
0000
0000
,
0110
0000
0000
0000
,
1000
0000
1000
0000
,
0001
0001
0001
0000
,
0100
0000
0010
0000
,
0100
0000
0000
0000
,
0010
0000
1000
0000
,
0001
0000
0000
0000
,
0010
0000
0100
0000
,
0010
0000
0000
0000
,
0001
0000
1000
0000
,
0010
0000
0100
0000
,
0001
0000
1000
0000
,
0001
0000
0000
0000
,
0010
0000
0100
0000
,
1000
0000
0000
0000
,
0010
0000
1000
0000
,
0010
0000
0000
0000
,
0100
0000
0100
0000
,
0001
0000
1000
0000
,
1001
0000
0000
0000
;

//--------------- dance-single - forcednature ----------------
#NOTEDATA:;
#STEPSTYPE:dance-single;
#DESCRIPTION:forcednature;
#DIFFICULTY:Easy;
#METER:7;
#RADARVALUES:0,0,0,0,0;
#CREDIT:forcednature;
#NOTES:
0000
0000
0000
0000
,
0000
0000
0000
0000
,
0000
0000
0000
0000
,
0000
0000
0000
0000
,
0000
0000
0000
0000
,
0000
0000
0000
0000
,
1000
1000
0000
0000
,
0010
0000
0100
0000
,
0001
0001
0000
0000
,
0010
0000
0100
0000
,
1001
0000
0001
0100
,
0000
0100
0010
0000
,
1000
0000
0100
0010
,
0000
0010
0001
0000
,
1001
0000
1000
0010
,
0000
0010
0100
0000
,
0001
0000
0010
0100
,
0010
0100
0000
1000
,
0010
1000
0000
0001
,
0010
0001
0000
1000
,
0100
1000
0000
0001
,
0100
0001
0000
0010
,
0110
0000
1001
0000
,
0110
0000
1001
0000
,
0001
0001
1000
1000
,
0001
1000
0010
0100
,
1001
0000
0000
0000
,
1000
0100
0010
0001
,
0100
0000
0010
1000
,
0001
0010
0100
1000
,
0010
0000
1000
0001
,
0100
0010
1000
0001
,
0010
0000
0100
1000
,
0010
0100
0001
0010
,
0001
0000
1000
1000
,
0010
0100
0001
0010
,
0100
0000
1000
0001
,
0100
0010
1000
0001
,
0010
0000
0100
1000
,
0001
0100
0010
1000
,
0001
0000
0010
0100
,
1000
1000
0001
0001
,
0100
0000
0010
0000
,
0110
0000
1000
0001
,
0010
0001
1000
0000
,
0100
0000
0010
0001
,
1000
0010
1000
0000
,
0110
0000
0001
0100
,
0001
1000
0010
0000
,
1001
0000
1000
0100
,
1000
1000
0001
0000
,
0110
0000
0001
0100
,
0010
1000
0010
0100
,
0001
0000
0010
0100
,
1000
0010
0100
0001
,
0010
0000
0001
1000
,
0010
0100
0001
1000
,
0100
0100
0010
0010
,
0001
1000
0001
1000
,
2002
0000
0000
0000
,
0000
0000
0000
0000
,
0000
0000
0000
0000
,
3003
0000
0000
0000
,
0110
0000
0001
1000
,
1001
0000
0100
0010
,
0110
0000
1001
0000
,
1000
1000
0001
0100
,
0010
1000
0010
1000
,
0001
0000
0010
0100
,
1000
0010
1000
0010
,
0100
0000
0001
0100
,
0001
0010
0001
0010
,
0100
0000
1000
0100
,
0010
0001
0010
0001
,
1000
1000
0010
0100
,
0001
0010
0100
1000
,
0010
0000
0100
0001
,
0010
0001
1000
0010
,
0100
0000
0010
1000
,
0100
0010
0001
0100
,
0010
0000
1000
0001
,
0010
0010
0100
0100
,
1000
0001
0001
1000
,
2002
0000
0000
0000
,
3003
0000
0000
0000
;

//--------------- dance-single - forcednature ----------------
#NOTEDATA:;
#STEPSTYPE:dance-single;
#DESCRIPTION:forcednature;
#DIFFICULTY:Medium;
#METER:11;
#RADARVALUES:0,0,0,0,0;
#CREDIT:forcednature;
#NOTES:
0000
0000
0000
0000
,
0000
0000
0000
0000
,
0000
0000
0000
0000
,
0000
0000
0000
0000
,
0000
0000
0000
0000
,
0000
0000
0000
0000
,
0001
0000
0001
0100
0000
0010
0100
0010
,
0000
1000
0010
0000
1000
0000
1000
0000
,
0001
0000
0001
0000
0000
0010
0000
0010
,
0100
0000
0100
1000
0000
0010
0000
0100
,
0001
0000
0001
0010
0000
0001
1000
0000
,
0001
0100
0001
0000
1000
0000
0010
0000
,
1000
0000
1000
0100
0000
0100
0010
0000
,
0001
1000
0001
0000
0100
0000
0010
0000
,
1001
0000
1000
0100
0000
1000
0010
0000
,
1000
0001
1000
0000
0010
0000
0100
0000
,
0001
0000
0001
0010
0000
0001
0100
0000
,
0010
0000
0010
1000
0000
1000
0100
0000
,
1001
0020
0030
0110
,
1001
0020
0030
0110
,
1001
0020
0030
0110
,
1001
0020
0030
0110
,
1001
0100
1001
0010
,
1001
0100
1001
0010
,
0110
1001
0110
1001
,
0001
1000
0001
1000
0010
0100
0010
0000
,
1001
0000
0000
0000
,
1000
0100
0010
0100
1000
0001
0010
0000
,
0110
0000
0001
0000
1000
0010
0100
0000
,
0001
0010
0001
0010
0100
1000
0001
0000
,
0110
0000
1000
0000
0001
0100
0010
0000
,
1000
0001
1000
0001
0010
0100
1000
0000
,
0110
0000
0001
0000
0100
0010
1000
0000
,
0001
0010
0001
0010
0001
0100
0010
0000
,
1000
0100
1000
0000
0001
0001
0001
0000
,
0010
0100
1000
0010
0100
0001
0010
0000
,
0110
0000
1000
0000
0001
0100
0001
0000
,
0010
0001
0100
0010
1000
0100
0010
0000
,
0110
0000
1000
0000
0010
0100
0001
0000
,
1000
0100
0010
0001
0100
0010
1000
0000
,
0110
0000
0001
0000
0010
0100
1000
0000
,
0001
0100
0001
0100
0010
1000
0010
1000
,
0001
0000
0000
0001
0000
0000
0010
0000
0100
0000
0000
0100
0000
0000
1000
0000
,
0010
0000
1000
0100
0001
0000
0100
0000
,
1000
0010
0001
0000
0020
0000
1000
0000
,
1030
0000
0001
0100
1000
0000
0100
0000
,
0001
0010
1000
0000
0020
0000
0001
0000
,
0031
0000
1000
0010
0001
0000
0010
0000
,
1000
0100
0001
0000
0200
0000
1000
0000
,
1300
0000
0001
0100
1000
0000
0100
0000
,
0001
0010
1000
0000
0010
0010
0010
0000
,
0001
0100
0010
0000
1000
0100
0010
0000
,
0001
1000
0010
0100
0001
0000
1001
0000
,
1000
0100
0010
0000
0001
0100
0010
0000
,
1000
0100
0010
0001
0100
0000
0110
0000
,
0001
0010
0001
1000
0100
0000
0110
0000
,
1000
0010
1000
0001
0100
0000
0110
0000
,
0001
0010
0001
0010
0100
1000
0100
1000
,
0001
0100
0010
1000
0100
0010
0001
0000
,
2000
0000
0000
3000
,
0020
0000
0000
0030
,
0200
0000
0000
0300
,
0002
0000
0000
0003
,
1001
0000
1000
0000
0100
0000
0010
0001
,
1001
0000
0001
0000
0100
0000
0010
1000
,
1001
0000
0001
0010
0110
0000
1000
0010
,
0100
0100
0100
0001
1000
0010
0200
0000
,
0301
0010
0100
1000
0010
1000
0100
0010
,
0001
0000
0110
0000
1000
0001
0100
0000
,
0010
1000
0100
1000
0001
0100
0001
0000
,
0010
0000
1001
0000
1000
0100
0010
0000
,
0100
1000
0001
0100
0001
1000
0010
0000
,
0100
0000
1001
0000
0001
0010
0100
0000
,
1000
0010
0100
0001
0010
0100
1000
0000
,
0001
0010
1000
0010
0001
1000
0100
0000
,
0010
0001
0100
0010
0100
0001
0010
0100
,
1000
0000
0110
0000
0001
1000
0010
0000
,
1000
0100
0010
0100
1000
0010
0100
0001
,
0010
0000
1001
0000
0001
0100
0010
0000
,
1000
0100
1000
0001
0100
0001
0010
1000
,
0010
0000
1001
0000
0001
0100
1000
0000
,
0100
0001
0001
1000
0010
1000
1000
0001
,
0010
0000
0000
0100
0000
0000
0110
0000
1000
0000
0000
1001
0000
0000
0001
0000
,
0200
0000
0000
0000
,
0300
0000
0000
0000
;

//--------------- dance-single - forcednature ----------------
#NOTEDATA:;
#STEPSTYPE:dance-single;
#DESCRIPTION:forcednature;
#DIFFICULTY:Hard;
#METER:16;
#RADARVALUES:0,0,0,0,0;
#CREDIT:forcednature;
#NOTES:
0000
0000
0000
0000
,
0000
0000
0000
0000
,
0000
0000
0000
0000
,
0000
0000
0000
0000
,
0000
0000
0000
0000
,
0000
0000
0000
0000
,
1000
0000
1000
0100
0000
0010
0001
1000
,
0000
0010
0100
0000
0001
0000
0001
0000
,
0010
0000
0010
0000
0000
0100
0000
0100
,
1000
0001
0100
0010
0000
1000
0000
1000
,
0001
0010
0100
0010
0000
0001
1000
0100
,
0000
1000
0001
0000
0010
0000
1001
0000
,
1000
0010
0100
0010
0000
1000
0001
0100
,
0000
0000
0001
0000
1000
0000
0000
1000
0010
0000
0000
0000
0110
0000
0000
0000
,
0001
1000
0100
1000
0000
0001
0010
0100
,
0000
0010
0001
0000
0100
0000
1001
0000
,
1000
0000
1000
0000
0010
0100
0000
0100
,
0001
1000
0100
0010
0000
0001
0000
0001
,
0011
0000
1000
0100
0000
1000
1010
0000
,
1010
0000
0001
0100
0000
0001
0011
0000
,
0011
0000
1000
0100
0000
1000
1010
0000
,
1010
0000
0001
0100
0000
0001
0011
0000
,
0021
0000
0130
1000
1020
0000
0130
0001
,
0021
0000
0130
1000
1020
0000
0130
0001
,
0011
1100
1010
0101
,
0001
0000
1000
0000
0001
0000
1000
0000
0001
1000
0001
1000
0010
0100
0010
0100
,
0001
0000
0000
0000
,
1000
0000
0100
0000
0010
0100
0000
0010
0001
0000
1000
0000
0010
0100
0010
0100
,
0001
0000
0000
0001
1000
0000
0100
0000
0001
0000
0100
0000
1000
0000
1000
0000
,
0001
0000
0100
0000
0010
0100
0000
0010
1000
0000
0001
0000
0010
0100
0010
0100
,
1000
0000
0000
1000
0001
0000
0100
0000
1000
0000
0100
0000
0001
0000
1000
0001
,
1000
0000
0010
0000
0100
0010
0000
0100
0001
0000
1000
0000
0100
0010
0100
0010
,
0001
0000
0000
0001
0100
0010
0100
0010
1000
0000
1000
0000
0001
1000
0010
0100
,
0001
0000
0010
0000
0100
0010
0100
1000
0001
0000
0100
0000
0010
0100
0000
0010
,
1000
0000
1000
0000
0001
1000
0001
0010
0100
0000
0010
0000
0110
0000
0100
1000
,
0001
0000
0100
0010
0000
0100
0001
0100
0010
1000
0000
0010
0100
0000
0001
0000
,
1000
0000
0000
1000
0100
0000
0001
0100
0001
0000
0100
0000
1000
0001
1000
0001
,
0010
0000
0001
0000
0100
0010
0100
0001
0000
1000
0010
0000
0110
0000
1000
0000
,
0001
0000
0000
0001
0100
0000
1000
0100
1000
0000
0100
0000
0001
0000
1000
0001
,
1000
0000
0100
0000
0010
0100
1000
0100
0010
0000
0001
0000
1000
0010
0100
0001
,
1000
0000
0000
1000
0010
0100
0010
0100
0001
0000
0010
0000
0001
1000
0001
1000
,
0001
0001
0010
0010
0100
0100
1000
1000
,
1001
0000
0000
1001
0000
0000
0001
0000
0100
0010
0000
0110
0000
0000
1001
0000
,
1000
0100
0001
0100
1000
0001
1000
0010
,
0100
1000
0100
0001
1000
0010
1000
0001
,
0010
0100
0001
0100
0010
0001
1000
0010
,
1000
0000
0100
0000
0001
0000
0100
0000
0000
0000
0100
0000
0000
0000
0100
1000
,
0001
0100
1000
0100
0001
1000
0001
0010
,
0100
0001
0100
1000
0001
0010
0001
1000
,
0010
0100
1000
0100
0010
1000
0001
0010
,
0001
0000
0100
0000
0010
0000
1000
0000
0110
0000
0100
0000
1001
0000
0001
0010
,
0100
0000
1000
0100
1000
0000
0010
0000
0100
0000
0001
1000
0001
0000
0010
0000
,
0100
0010
0100
0000
1000
0100
1000
0000
0100
0000
0010
0001
1000
0000
0010
0000
,
0100
0000
0001
0100
0001
0000
1000
0000
0010
0000
1000
0100
1000
0000
0001
0000
,
0010
0000
1000
0000
0010
0000
0001
0000
1000
0000
0001
0000
1000
0000
0001
0100
,
0010
0000
1000
0010
1000
0000
0001
0000
0010
0000
0100
1000
0100
0000
0010
0000
,
0110
0000
0001
1000
0001
0000
0100
0000
0010
0000
1000
0100
1000
0000
1100
0000
,
0001
0000
0010
0001
0010
0000
0100
0010
0001
0000
0100
0010
1000
0000
0001
0000
,
1000
0100
1000
0100
0010
0000
0001
0000
1000
0010
1000
0010
0100
0001
0100
0001
,
2000
0000
0000
0000
,
3200
0000
0000
0000
,
0320
0000
0000
0000
,
0032
0000
0000
0003
,
0110
0000
0001
0000
1000
0000
0010
0100
,
0110
0000
1000
0000
0001
0000
0010
0100
,
1001
1000
0100
0010
1001
0001
0100
0010
,
1000
0001
1000
0001
0010
0100
0010
0000
0001
1000
0001
1000
0010
0100
0010
0100
,
0001
0000
0010
0001
0010
0100
0000
0010
0001
0000
0010
0100
1000
0100
0010
0001
,
1000
0000
0000
0100
0001
0000
0100
1000
0100
0000
1000
0000
0010
0000
0010
0000
,
1000
0000
0010
1000
0010
0100
0000
0010
1000
0000
0010
0100
0001
0100
0010
1000
,
0001
0100
0000
1000
0100
0000
0001
0100
0001
0000
1000
0000
0010
0000
0010
1000
,
0001
0000
0100
0001
0010
0100
0010
0001
0100
0000
0010
0100
0001
1000
0010
0100
,
0001
0000
0000
0010
0000
1000
0000
0010
0001
0000
0100
0000
0001
0000
1000
0001
,
1000
0000
0010
1000
0010
0100
0010
1000
0100
0000
0010
0001
0010
0100
0000
0100
,
1000
0000
1000
0010
1000
0100
0010
0001
0100
0010
0100
0010
1000
0000
1000
0001
,
1000
0000
0100
0010
0001
0010
0100
0010
0001
0010
0100
0010
0001
1000
0010
0100
,
0001
0000
0000
0001
0010
0000
1000
0010
1000
0000
0010
0000
0001
0000
0001
1000
,
0001
0000
0100
0010
1000
0010
0100
0010
1000
0010
0100
0010
1000
0001
0010
0100
,
1000
0000
0000
1000
0010
0000
0001
0010
0001
0000
0010
0000
1000
0001
0000
0001
,
1000
0000
0100
0010
0001
0010
0100
1000
0100
0010
0001
0010
0100
1000
0001
1000
,
0010
0000
0000
1000
0100
1000
0100
0010
0001
0000
1000
0000
0010
0000
0010
0100
,
0001
0000
0001
0010
0100
0000
0100
1000
0010
0000
0010
0100
0001
1000
0000
1000
,
0010
0000
0000
0110
0000
0000
1001
0000
0100
0010
0000
0110
0000
0000
0110
0000
,
2002
0000
0000
0000
,
3003
0000
0000
0000
;

//--------------- dance-double - forcednature ----------------
#NOTEDATA:;
#STEPSTYPE:dance-double;
#DESCRIPTION:forcednature;
#DIFFICULTY:Easy;
#METER:7;
#RADARVALUES:0,0,0,0,0;
#CREDIT:forcednature;
#NOTES:
00000000
00000000
00000000
00000000
,
00000000
00000000
00000000
00000000
,
00000000
00000000
00000000
00000000
,
00000000
00000000
00000000
00000000
,
00000000
00000000
00000000
00000000
,
00000000
00000000
00000000
00000000
,
00001000
00000000
00000000
00000000
,
00010000
00000000
00000000
00000000
,
00100000
00000000
00000000
00000000
,
10000000
00000000
00000000
00000000
,
10010000
00000000
00000000
00000000
,
00010000
00000000
00010000
00000000
,
00100000
00000000
00000000
00000000
,
00001000
00000000
00010000
00000000
,
00001000
00000000
00000000
00000000
,
00010000
00000000
00010000
00000000
,
00000100
00000000
00000000
00000000
,
00001000
00000000
00000000
00000010
,
00000010
00000000
00000000
00000100
,
00000010
00000000
00000000
00000100
,
00000010
00000000
00000000
00000100
,
00000010
00000000
00000000
00000100
,
00000010
00000000
00000110
00000000
,
00001000
00000000
00011000
00000000
,
01000000
01000000
00010000
00010000
,
10000000
00100000
10000000
00100000
,
10010000
00000000
00000000
00000000
,
10000000
01000000
00100000
00010000
,
01000000
00000000
00000000
00000000
,
00001000
00010000
00000010
00001000
,
00000100
00000000
00000000
00000000
,
00000010
00000001
00001000
00000010
,
00000100
00000000
00000000
00000000
,
00000010
00010000
00001000
00000000
,
00100000
00001000
00010000
00000000
,
00100000
01000000
00010000
10000000
,
01000000
00000000
00000000
00000000
,
00100000
00001000
00010000
00000100
,
00001000
00000000
00000000
00000000
,
00000010
00000100
00000001
00001000
,
00000100
00000000
00000000
00000000
,
00000010
00000001
00001000
00000000
,
00000100
00000000
00010000
00000000
,
00011000
00000000
00001000
01000000
,
00010000
01000000
00001000
00010000
,
00000010
00000000
00010000
00001000
,
00100000
00000000
01000000
00000000
,
10010000
00000000
00010000
01000000
,
00001000
00010000
00000100
00001000
,
00000100
00000000
00000010
00000001
,
00000100
00000000
00000110
00000000
,
00001001
00000000
00001000
00000010
,
00010000
00001000
00100000
00010000
,
01000000
00000000
00100000
10000000
,
00010000
00000000
00100000
00000000
,
10010000
00000000
00010000
01000000
,
00001000
00010000
00000100
00001000
,
00000010
00000000
00000100
00000100
,
00000001
00000001
00000010
00000100
,
00002002
00000000
00000000
00000000
,
00000000
00000000
00000000
00000000
,
00000000
00000000
00000000
00000000
,
00003003
00000000
00000000
00000000
,
00001001
00000000
00000000
00000000
,
00011000
00000000
00000000
00000000
,
10010000
00000000
01100000
00000000
,
10000000
10000000
00010000
00010000
,
00100000
01000000
10000000
01000000
,
00100000
00000000
00010000
01000000
,
00001000
00010000
00000010
00010000
,
00001000
00000000
00000010
00000001
,
00000100
00000001
00000010
00000100
,
00001000
00000000
00000010
00010000
,
00001000
01000000
00010000
00000000
,
00100000
00001000
00010000
00000000
,
00000100
00000100
00001000
00000010
,
00010000
00001000
00100000
00010000
,
01000000
01000000
00010000
00100000
,
00001000
00010000
00000010
00001000
,
00000100
00000100
00001000
00000010
,
00010000
00001000
00100000
00010000
,
01000000
01000000
00001000
00001000
,
00010000
00100000
10000000
01000000
,
00020000
00000000
00000000
00000000
,
00030000
00000000
00000000
00000000
;

//--------------- dance-double - forcednature ----------------
#NOTEDATA:;
#STEPSTYPE:dance-double;
#DESCRIPTION:forcednature;
#DIFFICULTY:Medium;
#METER:11;
#RADARVALUES:0,0,0,0,0;
#CREDIT:forcednature;
#NOTES:
00000000
00000000
00000000
00000000
,
00000000
00000000
00000000
00000000
,
00000000
00000000
00000000
00000000
,
00000000
00000000
00000000
00000000
,
00000000
00000000
00000000
00000000
,
00000000
00000000
00000000
00000000
,
00001000
00000000
00001000
00000000
00000000
00010000
00000000
00100000
,
00000000
10000000
00000000
00000000
01000000
00000000
01000000
00000000
,
00010000
00000000
00010000
00000000
00000000
00001000
00000000
00001000
,
00000010
00000000
00000001
00000010
00000000
00000001
00000100
00000000
,
00000110
00000000
00000010
00000000
00001000
00000001
00000010
00000000
,
00000100
00010000
00001000
00100000
,
00010000
00000000
01000000
00000000
00100000
10000000
00010000
00000000
,
00100000
01000000
00010000
00001000
,
00011000
00000000
00000100
00000000
00001000
00000010
00000100
00000000
,
00000001
00000010
00001000
00010000
,
00000010
00000000
00001000
00000000
00000001
00000100
00000000
00000100
,
00001000
00000000
00010000
00200000
00000000
00000000
01300000
00000000
,
10010000
00000000
00000000
00001000
,
00011000
00000000
00000000
00000001
,
00001001
00000000
00000000
00010000
,
00011000
00000000
00000000
10000000
,
10010000
00000000
01100000
00000000
,
00011000
00000000
00000110
00000000
,
00001001
00000110
00011000
01100000
,
00010000
10000000
00010000
10000000
00100000
01000000
00100000
00000000
,
10010000
00000000
00000000
00000000
,
10000000
01000000
00010000
00000000
00001000
00100000
00010000
00000000
,
11000000
00000000
00010000
00100000
,
00001000
00010000
00000010
00000000
00010000
00001000
00000010
00000000
,
00000110
00000000
00001000
00000001
,
00000100
00001000
00010000
00000000
00000010
00001000
00000001
00000000
,
00000011
00000000
00001000
00000010
,
00010000
00001000
00100000
00000000
00001000
00010000
00100000
00000000
,
01000000
00010000
10000000
00000000
01000000
00010000
00001000
00000000
,
00100000
00010000
01000000
00000000
00001000
00010000
00000010
00000000
,
00001010
00000000
00000001
00000010
,
00000100
00010000
00001000
00000000
00000010
00000001
00000100
00000000
,
00000110
00000000
00001000
00000100
,
00010000
00001000
00100000
00000000
00001000
00010000
01000000
00000000
,
01100000
00000000
00010000
10000000
,
00100000
10000000
01000000
00000000
00010000
00001000
00100000
00000000
,
00010000
00000000
00000000
00010000
00000000
00000000
01000000
00000000
00001000
00000000
00000000
00001000
00000000
00000000
00010000
00000000
,
00000100
00000000
00001000
00000010
00000000
00001000
00000100
00000000
,
00000010
00000001
00000010
00000000
00000100
00001000
00000100
00000000
,
00010000
00000000
00001000
01000000
00000000
00010000
01000000
00000000
,
00100000
10000000
00100000
00000000
10000000
01000000
10000000
00000000
,
01000000
00000000
00010000
00001000
00000000
00100000
00010000
00000000
,
00100000
00001000
00010000
00000000
00000100
00010000
00001000
00000000
,
00000010
00000000
00000001
00001000
00000000
00000010
00001000
00000000
,
00000001
00000100
00000010
00000100
00000000
00000010
00001000
00000000
,
00001001
00000000
00000001
00000010
00000100
00000000
00001000
00000100
,
00000010
00000000
00000100
00010000
00001000
00000000
00100000
00000000
,
00010000
00000000
10000000
00100000
01000000
00000000
00010000
01000000
,
00100000
00000000
10000000
01000000
00010000
00000000
00001000
00000000
,
00011000
00000000
00010000
00000100
00001000
00000000
00000010
00000000
,
00011000
00000000
00001000
01000000
00010000
00000000
00100000
00001000
,
00010000
00000000
00000010
00010000
00001000
00000000
01000000
00001000
,
00010000
00000000
00010000
00000000
00000100
00001000
00000010
00000000
,
00000220
00000000
00000000
00000000
,
00000000
00000000
00000000
00000000
,
00000000
00000000
00000000
00000000
,
00000000
00000000
00000000
00000330
,
00001001
00000000
00001000
00000000
00000100
00000000
00010000
00001000
,
00001000
00000000
01000000
00000000
00010000
00000000
10000000
00100000
,
00100000
00000000
10000000
01000000
00100000
00000000
01000000
10000000
,
00010000
00100000
00010000
00000000
00100000
00001000
00010000
00000000
,
00001000
00000010
00000001
00000100
00000001
00000010
00000100
00000000
,
00000110
00000000
00001000
00000000
00000001
00000100
00001000
00000000
,
00010000
00000010
00001000
00000010
00010000
00001000
01000000
00000000
,
01010000
00000000
10000000
00000000
00010000
00100000
01000000
00000000
,
00010000
00001000
00100000
00010000
00100000
00001000
00010000
00000000
,
00001100
00000000
00010000
00000000
00000010
00001000
00000001
00000000
,
00000010
00001000
00010000
00000100
00010000
00001000
00000010
00000000
,
00000001
00001000
00000010
00000100
00001000
00010000
00100000
00000000
,
01000000
00010000
10000000
00010000
01000000
00010000
10000000
00000000
,
10100000
00000000
00010000
00000000
00100000
01000000
00010000
00000000
,
00001000
00000010
00000100
00000010
00001000
00000010
00000100
00000000
,
00001100
00000000
00000001
00000000
00000010
00000100
00001000
00000000
,
00000010
00010000
00001000
00010000
00000010
00010000
00001000
00000000
,
00101000
00000000
01000000
00010000
00100000
00010000
10000000
00000000
,
01000000
00010000
00001000
00000000
00000100
00001000
00010000
00000000
,
00000010
00000000
00000000
00000010
00000000
00000000
00001000
00000000
00000001
00000000
00000000
00000100
00000000
00000000
00001000
00000000
,
00020000
00000000
00000000
00000000
,
00030000
00000000
00000000
00000000
;

//--------------- dance-double - forcednature ----------------
#NOTEDATA:;
#STEPSTYPE:dance-double;
#DESCRIPTION:forcednature;
#DIFFICULTY:Hard;
#METER:16;
#RADARVALUES:0,0,0,0,0;
#CREDIT:forcednature;
#NOTES:
00000000
00000000
00000000
00000000
,
00000000
00000000
00000000
00000000
,
00000000
00000000
00000000
00000000
,
00000000
00000000
00000000
00000000
,
00000000
00000000
00000000
00000000
,
00000000
00000000
00000000
00000000
,
00001000
00000000
00001000
00010000
00000000
00100000
10000000
00010000
,
00000000
00100000
01000000
00000000
00010000
00000000
00010000
00000000
,
00001000
00000000
00001000
00000000
00000000
00000010
00000000
00000010
,
00000001
00001000
00000010
00000100
00000000
00001000
00000000
00001000
,
00010000
00100000
01000000
00100000
00000000
10000000
00010000
00100000
,
00000000
01000000
00010000
00000000
00001000
00000000
00011000
00000000
,
00010000
00000100
00001000
00000010
00000000
00010000
00001000
00000010
,
00000000
00000000
00000100
00000000
00001000
00000000
00000000
00001000
00000001
00000000
00000000
00000000
00000110
00000000
00000000
00000000
,
00000001
00000100
00001000
00000100
00000000
00001000
00010000
00100000
,
00000000
01000000
00010000
00000000
00100000
00000000
10010000
00000000
,
10000000
00000000
10000000
00000000
01000000
00010000
00000000
00010000
,
00001000
00000010
00000100
00001000
00000000
00000010
00000000
00000010
,
00000110
00000000
00000001
00000100
00000000
00001000
00011000
00000000
,
01100000
00000000
10000000
01000000
00000000
00010000
00011000
00000000
,
00000110
00000000
00000001
00000100
00000000
00001000
00011000
00000000
,
01100000
00000000
10000000
01000000
00000000
00010000
00011000
00000000
,
00000110
00000000
00001000
00010000
01100000
00000000
00010000
00001000
,
00000110
00000000
00001000
00010000
01100000
00000000
00010000
00001000
,
00000110
00011000
01100000
00011000
,
00000010
00000000
00000100
00000000
00001000
00000000
00010000
00000000
00100000
01000000
00100000
01000000
00010000
10000000
00010000
10000000
,
00100000
00000000
00000000
00000000
,
10000000
00000000
01000000
00000000
00100000
01000000
00000000
00100000
00001000
00000000
00010000
00000000
00000100
00001000
00000100
00000000
,
00000010
00000000
00000000
00000010
00000001
00000000
00001000
00000000
00000010
00000000
00000100
00000000
00001000
00000000
00001000
00000000
,
00010000
00000000
00100000
00000000
01000000
00100000
00000000
10000000
00100000
00000000
10000000
00000000
01000000
00100000
01000000
00000000
,
00100000
00000000
00000000
00100000
00001000
00000000
00010000
00000000
00000100
00000000
00000010
00000000
00000001
00000000
00000010
00000001
,
00000010
00000000
00000100
00000000
00001000
00000010
00000000
00000100
00000010
00000000
00001000
00000000
00000100
00010000
00000100
00010000
,
00001000
00000000
00000000
00100000
00000000
00100000
00010000
00000000
01000000
00000000
01000000
00000000
00100000
10000000
00100000
10000000
,
00010000
00000000
00100000
00000000
01000000
00000000
00100000
00001000
00010000
00000000
00000100
00000000
00001000
00000010
00000000
00000100
,
00000010
00000000
00000010
00000000
00001000
00000001
00001000
00000001
00000100
00000000
00001000
00000000
00010000
00000000
00001000
00010000
,
00100000
00000000
01000000
00010000
00000000
10000000
00000000
10000000
00000000
01000000
00000000
00100000
00010000
00000000
01000000
00000000
,
00001000
00000000
00000000
00001000
00010000
00000000
00000100
00000000
00000010
00000000
00000001
00000000
00000100
00000010
00000100
00000010
,
00001000
00000000
00010000
00000000
01000000
00000000
00010000
10000000
00000000
10000000
00000000
00000000
01000000
00000000
00010000
00000000
,
00001000
00000000
00000000
00001000
00000010
00000000
00000100
00000000
00001000
00000000
00000001
00000000
00000100
00000000
00000010
00000100
,
00000010
00000000
00001000
00000000
00000100
00000000
00010000
00001000
00010000
00000000
00001000
00000000
01000000
00010000
01000000
00010000
,
10000000
00000000
00000000
01000000
00000000
01000000
00010000
00000000
00001000
00000000
00000010
00000000
00000100
00000010
00000100
00000010
,
00000001
00000100
00000010
00001000
00010000
01000000
00100000
10000000
,
10010000
00000000
00000000
10010000
00000000
00000000
10000000
00000000
01000000
00010000
00000000
00011000
00000000
00000000
00011000
00000000
,
00000100
00010000
00001000
00000010
00000100
00010000
00001000
00000100
,
00000010
00001000
00000001
00000010
00001000
00010000
01000000
00100000
,
00001000
00010000
00100000
01000000
00010000
10000000
00100000
10000000
,
01000000
00000000
00010000
00000000
00001000
00000000
00000010
00000000
00000000
00000000
00000010
00000000
00000000
00000000
00000010
00000100
,
00001000
00000001
00000100
00010000
00001000
00000010
00001000
00010000
,
01000000
00100000
10000000
00010000
00100000
01000000
00010000
00000100
,
00001000
00000010
00000100
00001000
00010000
01000000
00100000
00001000
,
00010000
00000000
00000100
00000000
00001000
00000000
00000010
00000000
00000110
00000000
00000100
00000000
00001001
00000000
00000001
00000010
,
00000100
00000000
00001000
00000100
00001000
00000000
00000010
00000000
00000100
00000000
00001000
00000000
00010000
00000000
00100000
00000000
,
01000000
00010000
01000000
00000000
00010000
00100000
01000000
00000000
10000000
00000000
01000000
00000000
00010000
00000000
00001000
00000000
,
00000010
00000000
00000001
00000010
00000001
00000000
00001000
00000000
00000010
00000000
00000100
00000000
00001000
00000000
00010000
00000000
,
00100000
00000000
10000000
00000000
01000000
00000000
00010000
00000000
00001000
00000000
00100000
00000000
00001000
00000000
00010000
00000100
,
00001000
00000000
00000100
00000010
00000100
00000000
00000010
00000000
00000001
00000000
00000100
00000000
00001000
00000000
00010000
00000000
,
00100000
00000000
01000000
00010000
01000000
00000000
00010000
00000000
10000000
00000000
01000000
00000000
00100000
00000000
01100000
00000000
,
00010000
00000000
01000000
00010000
01000000
00000000
00001000
00010000
00001000
00000000
00100000
00010000
00100000
00000000
00001000
00000000
,
00010000
00000100
00010000
00000100
00001000
00000000
00000010
00000000
00000100
00000001
00000100
00000001
00001000
00000000
00000100
00000000
,
00000120
00000000
00000000
00000000
,
00000032
00000000
00000000
00000000
,
00000203
00000000
00000000
00000000
,
00002300
00000000
00000000
00003000
,
00011000
00000000
01000000
00000000
00010000
00000000
00100000
01000000
,
00010000
00000000
00001000
00000000
00000010
00000000
00000100
00010000
,
00011000
00000010
00001000
00000100
00011000
00100000
00010000
01000000
,
00100000
10000000
00100000
00000000
10000000
01000000
10000000
00000000
01000000
00100000
00010000
00000000
00100000
00001000
00010000
00000000
,
00000100
00000000
00001000
00000100
00000000
00000010
00000000
00000100
00000010
00000000
00000001
00000100
00000001
00000000
00000100
00000000
,
00001000
00000000
00000000
00001000
00010000
00000000
00100000
10000000
00100000
00000000
10000000
00000000
01000000
00000000
01000000
00000000
,
10000000
00000000
00010000
00000000
00100000
01000000
00000000
00100000
00010000
00000000
00100000
00001000
00000000
00010000
00001000
00000000
,
00010000
00000100
00000000
00001000
00000100
00000000
00000010
00000100
00000010
00000000
00000001
00000000
00000100
00000000
00000100
00000010
,
00001000
00000000
00000100
00000000
00010000
00001000
00010000
00001000
00100000
00000000
00010000
01000000
00000000
00100000
01000000
00100000
,
10000000
00000000
00000000
01000000
00000000
01000000
00000000
00010000
00001000
00000000
00100000
00000000
00001000
00000000
00010000
00000100
,
00001000
00000000
00000010
00000100
00000000
00000100
00000000
00000001
00000010
00000000
00000100
00001000
00000000
00001000
00000000
00000100
,
00010000
00000000
00010000
00000000
00001000
00100000
00010000
00000000
10000000
00100000
10000000
00100000
01000000
00000000
00010000
00000000
,
10000000
00000000
01000000
10000000
00000000
01000000
00000000
00010000
00000000
00001000
00000000
00010000
00000100
00001000
00000100
00000000
,
00000010
00000000
00000000
00000010
00000001
00000000
00000100
00000000
00001000
00000000
00010000
00000000
00000010
00000000
00001000
00000010
,
00001000
00000000
00000001
00000100
00000000
00000100
00001000
00000000
00010000
00001000
00010000
00000000
00001000
00010000
00001000
00100000
,
00010000
00000000
00000000
00010000
01000000
00000000
00010000
00000000
00100000
00000000
10000000
00000000
00100000
00010000
00000000
00010000
,
10000000
00000000
01000000
00100000
00010000
00000000
00100000
00001000
00010000
00000000
00000100
00001000
00000100
00000000
00000010
00000000
,
00001001
00000000
00000000
00000001
00000000
00000001
00000000
00000100
00001000
00000000
00010000
00000000
00100000
00000000
00100000
01000000
,
00010000
00000000
10000000
00000000
01000000
00000000
00100000
00001000
00010000
00000000
00010000
00000000
00000100
00001000
00000000
00001000
,
00000010
00000000
00000000
00000110
00000000
00000000
00000001
00000000
00000100
00001000
00000000
00001000
00000000
00000000
00010000
00000000
,
00022000
00000000
00000000
00000000
,
00033000
00000000
00000000
00000000
;
