#VERSION:0.83;
#TITLE:WHA;
#SUBTITLE:;
#ARTIST:かめりあ involving ななひら;
#TITLETRANSLIT:;
#SUBTITLETRANSLIT:;
#ARTISTTRANSLIT:Camellia involving Nanahira;
#GENRE:CROSSO-WHA-R;
#CREDIT:;
#MUSIC:WHA.ogg;
#BANNER:WHA.png;
#BACKGROUND:WHA-bg.png;
#CDTITLE:./CDTitles/bm IIDX 29 CastHour.png;
#SAMPLESTART:17.399;
#SAMPLELENGTH:15.000;
#SELECTABLE:YES;
#OFFSET:2.589;
#BPMS:0.000=108.000
,152.000=27.000
,152.875=216.000
,153.000=108.000
;
#STOPS:152.875=0.243;
#TIMESIGNATURES:0.000=4=4,
152.000=1=4,
153.000=4=4
;
#DISPLAYBPM:108.000;
#BGCHANGES:5.850=WHA.mp4=1.000=0=0=0=StretchNoLoop====,
99999.000=-nosongbg-=1.000=0=0=0=StretchNoLoop====
;
#FGCHANGES:;

//--------------- dance-single - forcednature ----------------
#NOTEDATA:;
#STEPSTYPE:dance-single;
#DESCRIPTION:forcednature;
#DIFFICULTY:Beginner;
#METER:7;
#RADARVALUES:0,0,0,0,0;
#CREDIT:forcednature;
#NOTES:
0000
0000
0000
0000
,
0000
0000
0000
0000
,
0000
0000
0000
0000
,
0000
0000
0000
0000
,
1000
0000
1000
1000
,
0001
0000
0001
0001
,
1001
0000
0000
0000
,
0110
0000
0000
0000
,
1000
1000
0001
0001
,
0100
0010
0100
0000
,
1001
0000
0001
0000
0100
0001
0100
0000
,
0010
1000
0001
0000
,
1000
0000
0100
0000
1000
0100
1000
0000
,
0010
0100
0001
0000
,
1001
0000
1000
0000
0100
0010
0100
0000
,
1000
0001
0100
0010
,
1000
0000
0001
0000
0010
0100
0010
0000
,
0001
0000
1000
1000
0000
0001
0001
0000
,
1001
0000
0000
0000
,
0110
0000
0000
0000
,
0001
0001
1000
1000
,
0010
0010
0100
0000
,
1001
1000
0000
1000
,
0100
0010
0000
0010
,
0001
0100
0000
0100
,
0010
1000
0001
1000
,
0100
0010
0000
0010
,
0001
1000
0000
0001
,
0100
0100
0010
0010
,
1000
1000
0001
0010
,
0002
0000
0000
0000
,
0000
0000
0000
0000
,
0203
0000
0000
0000
,
0320
0000
0000
0030
,
1000
1000
1000
0000
,
0001
0001
0001
0000
,
0100
0010
0100
0010
,
1000
0000
0001
0000
1000
0001
1000
0000
,
0002
0000
0000
0000
0000
0000
0000
0003
1000
0000
0000
0000
0000
0000
0000
0000
1000
0000
0000
0000
0100
0000
0000
0000
1000
0000
0000
0000
0000
0000
0000
0000
,
0001
0000
0100
0001
0100
0000
0010
0000
,
0000
0000
1000
0000
0001
0010
0001
0000
,
0100
0000
0010
1000
0010
0000
0100
0000
,
0000
0000
0001
0000
0010
0000
0001
0010
,
0001
0000
0010
0000
0100
0000
0010
0100
,
0010
0000
0100
0000
1000
0000
0100
1000
,
0000
0000
2002
0000
0000
3003
0220
0000
,
0000
0330
0001
0100
0001
0010
0100
0100
,
1000
0000
0010
1000
0001
1000
0100
0100
,
0010
0000
0001
0100
1000
0000
1000
0100
,
0001
0000
1001
0000
0110
0000
1000
1000
,
0001
0000
0010
0100
1000
0100
0010
0100
,
1000
0000
0010
0100
0001
0100
0010
0100
,
0001
0000
1000
1000
1000
0000
0001
0001
,
0001
0000
0100
0100
0010
0010
1000
0001
,
0010
2002
3003
0000
0000
0000
0000
0000
;

//--------------- dance-single - forcednature ----------------
#NOTEDATA:;
#STEPSTYPE:dance-single;
#DESCRIPTION:forcednature;
#DIFFICULTY:Easy;
#METER:12;
#RADARVALUES:0,0,0,0,0;
#CREDIT:forcednature;
#NOTES:
0000
0000
0000
0000
,
0000
0000
0000
0000
,
0000
0000
0000
0000
,
0000
0000
0000
0000
,
1000
0000
1000
0000
0100
0010
0001
0000
,
0200
0000
0010
0000
0301
1000
0010
0000
,
1001
0000
0020
0030
,
1001
0000
0000
0000
0000
0000
0000
0000
0000
1001
0000
0000
0000
0000
0000
0000
0000
0000
0000
0000
0000
0000
0000
0000
0200
0000
0000
0000
0300
0000
0000
0000
0000
0020
0000
0000
0000
0030
0000
0000
0000
0000
0000
0000
0000
0000
0000
0000
,
1100
0101
0011
1010
,
1000
0000
1000
0000
0001
0000
0001
0000
0100
0010
0100
0010
0100
0000
0000
0000
,
1001
0000
0001
0000
0010
0000
0100
0000
0000
1000
0100
0000
1000
0000
0000
0000
,
0001
0000
0000
0100
0001
0000
1000
0000
0000
0010
1000
0000
0001
0000
0010
0000
,
0100
0000
0010
0100
0010
0000
0001
0000
0000
0001
0100
0000
0010
0000
1000
0000
,
0000
0000
0100
0010
0100
0000
0010
0000
0001
0000
0000
0100
0000
0000
0001
0000
,
1000
0000
0010
1000
0010
0000
0100
0000
0000
0100
0001
0000
1000
0000
0000
0000
,
0100
0000
0000
0010
0000
0000
0100
0000
0010
0000
0000
0000
0001
0000
0000
0000
0000
0000
0001
0000
0100
0000
0000
0000
0010
0000
0000
0000
1000
0000
0000
0000
,
0100
0000
1000
0100
1000
0000
0001
0000
0000
0001
0100
0000
0010
0000
0000
0000
,
1000
0100
0000
0100
0010
0000
0010
0001
0000
0001
1000
0000
0010
0100
0000
0000
,
1001
0000
0020
0030
,
1001
0000
0000
0000
0000
0000
0000
0000
0000
1001
0000
0000
0000
0000
0000
0000
0000
0000
0000
0000
0000
0000
0000
0000
0200
0000
0000
0000
0300
0000
0000
0000
0000
0020
0000
0000
0000
0030
0000
0000
0000
0000
0000
0000
0000
0000
0000
0000
,
0101
1100
1010
0011
,
0001
0000
0001
0000
1000
0000
1000
0000
0100
0010
0100
0010
0100
0000
0000
0000
,
1001
0000
0000
0001
0100
0000
1000
0000
0000
0100
0001
0000
0010
0000
0100
0000
,
1000
0010
0000
0010
1000
0000
1000
0010
0000
0000
0100
0000
0001
0000
1000
0000
,
0100
0000
0000
0001
0100
0000
1000
0000
0000
0010
1000
0000
0100
0000
0010
0000
,
0000
0001
0000
0100
0001
0000
0100
0000
0000
0010
1000
0010
1000
0000
0001
0000
,
0010
0000
0000
1000
0010
0000
0001
0000
0000
0010
0100
0000
1000
0000
0001
0000
,
0100
1000
0000
0100
0010
0000
0100
0001
0000
0000
0010
0000
0110
0000
0000
0000
,
1000
0000
0000
1001
0000
0000
0001
0000
0000
1001
0000
0000
0110
0000
0000
1010
,
0000
0000
0011
0000
0000
0101
0000
0000
1000
0000
1000
0000
0100
0000
0100
0000
,
0020
0000
0000
0000
0000
0000
0000
0000
0000
0000
0001
0000
0000
0001
0000
0000
,
0230
0000
0000
0000
1000
1000
1300
0000
,
0100
0100
0010
0000
0001
0001
1000
0000
,
0010
0100
0010
0100
0001
1000
0100
0000
,
0010
0011
0001
0100
0010
1010
1000
0100
,
0010
0000
0110
0000
0100
0000
1000
0000
0010
0000
0110
0000
0100
0001
0000
0000
,
1000
1100
0001
0101
1000
1010
0001
0011
,
1000
0000
1000
0000
0001
0000
0001
0000
0100
0010
0100
0010
0100
0010
0100
0000
,
0002
0000
0000
0000
0000
0000
0000
0003
1000
0000
0000
0000
0100
0000
0010
0000
0100
0000
0000
0000
1000
0000
0000
0000
0001
0000
0100
0000
0001
0000
0000
0000
,
0010
0000
0100
1000
0100
0000
0010
0000
0001
1000
0001
0000
0100
0000
0010
1000
,
0010
0000
0100
0000
0001
0000
0010
0100
0010
0000
0001
0000
1000
0100
1000
0000
,
0010
1000
0010
0000
0100
0001
0010
0001
0000
1000
0010
0000
0200
0000
0001
0000
,
0010
0000
1300
0000
0100
0001
0100
0000
0001
0100
0001
0000
0010
0000
0010
0000
,
0110
0000
1001
0000
1000
0100
1000
0000
0100
1000
0100
0000
0010
0000
0010
0001
,
0200
0000
0300
0000
0010
1000
0010
0000
1000
0100
1000
0000
0001
0100
0001
0000
,
0010
0000
0000
0001
0000
0000
0010
0000
0000
0000
0000
0000
0100
0000
0000
0000
0010
0000
0000
0000
0100
0000
0000
0000
0010
0000
0000
0000
0100
0000
0000
0000
0010
0000
0000
0000
2002
0000
0000
0000
0000
0000
0000
0000
0000
0000
0000
0000
,
0000
0000
3003
0000
1000
0100
0010
0000
0100
1000
0001
0000
0101
0000
1010
0000
,
1000
0000
0001
0000
0010
0100
1000
0000
0001
0100
0010
0000
1010
0000
0011
0000
,
1000
0000
0001
0000
0100
0010
0100
0000
0011
0000
1010
0000
0100
0010
0100
0000
,
1010
0000
0000
0000
0011
0000
0000
0000
1000
0000
0000
0000
1000
0000
0100
0000
0000
0000
0100
0000
0010
0000
0000
0000
0001
0000
0000
0001
0000
0000
0001
0000
,
0100
0010
1010
1000
1100
1000
1010
0101
,
1010
0000
0000
0000
0000
0000
0000
0000
0011
0000
0000
0000
0001
0000
0000
0000
0101
0000
0000
0000
0001
0000
0000
0000
0011
0000
0000
1000
0000
0000
0001
0000
,
0200
0000
0300
0000
0010
1000
0010
1000
0010
1000
0100
0000
0010
0001
0010
0001
,
0010
0001
0100
0000
0001
1000
0001
1000
0100
0010
0100
0010
0001
0000
0200
0000
,
1300
1001
0000
0000
0000
0000
0000
0000
;

//--------------- dance-single - forcednature ----------------
#NOTEDATA:;
#STEPSTYPE:dance-single;
#DESCRIPTION:forcednature;
#DIFFICULTY:Medium;
#METER:15;
#RADARVALUES:0,0,0,0,0;
#CREDIT:forcednature;
#NOTES:
0000
0000
0000
0000
,
0000
0000
0000
0000
,
0000
0000
0000
0000
,
0000
0000
0000
0000
,
0001
0001
0100
0100
0010
0010
1000
1000
,
0002
0000
0023
0000
0230
0000
1300
0001
0100
0010
1000
0000
0100
0010
0001
0000
,
1001
0000
0020
0030
,
1001
0000
0000
0000
0000
0000
0000
0000
0000
1001
0000
0000
0000
0000
0000
0000
0000
0000
0000
0000
0000
0000
0000
0000
0200
0000
0000
0000
0300
0000
0000
0000
0000
0020
0000
0000
0000
0030
0000
0000
0000
0000
0000
0000
0000
0000
0000
0000
,
1000
0100
1000
0000
0100
0010
0100
0000
0010
0001
0010
0000
0001
1000
0001
0000
,
0100
0001
1000
0000
0100
1000
0001
0000
0100
0010
0100
0010
0200
0000
0300
0000
,
1001
0000
1000
0100
0010
0000
0011
0000
0000
0001
0100
0000
0110
0000
0000
0000
,
1010
0000
1000
0001
0010
0000
0110
0000
0100
0001
0100
0000
0100
1000
0010
0000
,
0110
0000
0100
0001
1000
0000
1100
0000
0100
0010
0001
0000
0101
0000
2002
0000
,
3003
0000
0001
0100
1000
0100
0001
0000
0010
0001
1000
0010
1000
0100
0010
0000
,
0110
0000
0100
1000
0010
0000
0110
0000
0100
0001
1000
0000
1100
0000
0001
0000
,
0100
0000
0000
0100
0000
0000
0100
0000
0010
0000
0000
0000
1000
0000
0100
0000
0010
0000
0100
0000
0001
0000
0000
0000
0100
0000
1000
0000
0010
0000
0000
0000
,
0110
0000
0100
1000
0100
0000
0101
0000
0001
0010
0100
0000
0220
0000
0330
0000
,
0010
0010
0000
1000
1000
0000
0001
0001
0000
0010
0010
0000
0100
0010
0000
0000
,
1001
0000
0020
0030
,
1001
0000
0000
0000
0000
0000
0000
0000
0000
1001
0000
0000
0000
0000
0000
0000
0000
0000
0000
0000
0000
0000
0000
0000
0200
0000
0000
0000
0300
0000
0000
0000
0000
0020
0000
0000
0000
0030
0000
0000
0000
0000
0000
0000
0000
0000
0000
0000
,
0001
0100
0001
0000
0100
0010
0100
0000
0010
1000
0010
0000
1000
0001
1000
0000
,
0100
1000
0001
0000
0100
0001
1000
0000
0100
0010
0100
0010
0200
0000
0300
0000
,
1001
0000
0001
0100
1000
0000
0100
0000
0010
0001
0010
1000
0010
0001
0010
0000
,
0100
0002
0003
0010
0002
0003
0100
0002
0003
0010
0100
1000
0100
0010
0001
0000
,
1001
0000
1000
0100
0001
0000
0100
0000
0010
0001
0100
0001
1000
0001
0100
0000
,
0010
2000
3000
0100
0010
0100
2000
3000
0001
0100
0001
0000
0010
0100
1000
0000
,
1001
0000
0001
0010
1000
0000
0010
0000
0100
1000
0010
1000
0001
0100
0010
0000
,
1000
0100
0000
0001
0100
0000
1000
0100
0000
0010
0001
0000
1001
0000
0100
0000
,
1001
0000
0000
1100
0000
0000
0101
0000
0000
1010
0000
0000
0011
0000
0000
1100
,
0000
0000
0101
0000
0000
0110
0000
0000
1000
0100
1000
0010
0100
0001
0010
0001
,
0200
0000
0000
0000
0000
0000
0000
0000
0000
0000
0010
0000
0000
0010
0000
0000
,
0302
0000
0000
0000
0010
0010
0010
0000
,
1003
1000
0100
1000
0001
0001
0100
0001
,
0010
0100
0010
0000
0001
1000
0001
0000
0100
0010
1000
0001
0010
0100
1000
0000
,
0001
0010
1000
0000
0010
0000
1001
0000
1000
0010
0001
0000
0010
0000
1001
0000
,
0001
0100
1000
0000
0100
0000
1001
0000
1000
0100
0001
0100
0010
0001
1000
0000
,
0001
0100
0010
0100
1000
0100
0010
0100
0001
0010
0100
0010
1000
0010
0100
0010
,
0001
0100
0010
1000
0001
0010
0100
1000
0010
0100
0010
0100
0010
0100
0010
0100
,
0002
0000
0000
0000
0000
0000
0000
0003
1000
0000
0100
0000
1000
0000
0100
0000
0010
0000
1000
0000
0010
0000
0001
0000
1000
0000
0001
0000
0100
0000
0010
0000
,
0001
0010
0001
0010
0100
0001
1000
0010
1000
0100
0010
0001
0100
0010
0100
0010
,
1000
0001
0020
0000
0130
0001
0100
0010
0001
0010
0001
0100
0010
1000
0100
1000
,
0001
0010
1000
0010
0100
1000
0010
1000
0001
0010
0001
0100
0020
0000
0001
0000
,
0130
0010
1000
0000
0001
0010
1000
0010
0001
0010
0200
0000
1300
0010
0001
0010
,
0200
0000
0302
0000
1003
0100
0001
0100
1000
0100
0020
0000
0031
0100
0010
1000
,
0002
0000
0003
0000
1000
0100
1000
0100
0010
0001
0100
0000
0010
0001
0010
0100
,
0010
0000
0000
1000
0000
0000
0001
0000
0000
0000
0000
0000
2000
0000
0000
0000
0000
0000
3001
0000
0100
0000
0001
0000
0100
0000
0010
0000
0100
0000
0010
0000
1000
0000
0010
0000
2000
0000
0000
0000
0000
0000
0000
0000
0000
0000
0000
0000
,
0000
0000
0000
0000
3000
0000
0000
0000
0001
0000
0010
0000
0100
0000
0001
0000
0100
0000
1000
0000
0001
0000
1000
0000
0010
0000
1000
0010
1000
0000
0010
1000
,
0010
0000
0100
0000
0001
0000
0000
0000
1000
0000
0010
0000
0100
0000
1000
0000
0100
0000
0001
0000
1000
0000
0001
0000
0010
0000
0001
0010
0001
0000
0010
0001
,
0010
0100
2000
0000
3010
0100
1000
0100
0001
0000
0011
0000
0010
0100
0001
0100
,
1000
0000
0000
0000
1010
0000
0000
0000
0110
0000
0000
0000
1000
0000
0010
0000
0000
0000
0001
0000
0010
0000
0000
0000
0100
0000
0000
0100
0000
0000
0100
0000
,
0001
0000
2000
0000
0000
0000
3000
0000
0100
0000
0001
0000
0100
0000
1000
0000
0010
0000
1000
0000
0001
0000
0000
0000
0100
0001
0100
0000
0010
1000
0010
0000
,
0100
0001
0100
0000
0010
0000
0000
0000
0100
0000
1000
0000
0100
0000
0001
0000
0010
0000
0001
0000
1000
0000
0000
0000
0110
0000
0000
0100
0000
0000
0010
0000
,
0002
2000
0000
3003
1000
0010
0001
1000
0100
0001
2000
3000
0001
0010
1000
0001
,
0100
0000
1000
0000
0002
0000
0003
0000
1000
0100
1000
0000
0100
0010
0100
0000
0010
0001
0010
0000
0001
1000
0001
0000
0100
0000
0010
0000
1000
0000
0001
0000
,
0010
2002
3003
0000
0000
0000
0000
0000
;

//--------------- dance-single - forcednature ----------------
#NOTEDATA:;
#STEPSTYPE:dance-single;
#DESCRIPTION:forcednature;
#DIFFICULTY:Hard;
#METER:18;
#RADARVALUES:0,0,0,0,0;
#CREDIT:forcednature;
#NOTES:
0000
0000
0000
0000
,
0000
0000
0000
0000
,
0000
0000
0000
0000
,
0000
0000
0000
0000
,
1000
0000
1000
0100
1000
0000
0001
0100
0001
0000
0001
0010
0001
0000
1000
0010
,
1000
0000
0000
0000
0000
0000
0100
0000
0000
0000
0000
0000
1000
0000
0000
0000
0000
0000
0100
0000
0000
0000
0000
0000
0010
0000
0000
0000
0100
0000
0000
0000
0010
0000
0000
0000
0100
0000
0000
0000
0010
0000
0000
0000
0001
0000
0000
0000
1000
0000
0000
0000
0000
0000
0001
0000
0000
0100
0000
0000
0001
0000
0000
0000
0000
0000
1000
0000
0000
0000
0000
0000
0001
0000
0000
0000
0000
0000
0010
0000
0000
0000
0000
0000
0100
0000
0000
0000
0000
0000
0000
0000
0000
0000
0000
0000
,
1001
0000
0020
0030
,
1001
0000
0000
0000
0000
0000
0000
0000
0000
1001
0000
0000
0000
0000
0000
0000
0000
0000
0000
0000
0000
0000
0000
0000
0200
0000
0000
0000
0300
0000
0000
0000
0000
0020
0000
0000
0000
0030
0000
0000
0000
0000
0000
0000
0000
0000
0000
0000
,
1000
0100
0010
0001
1000
0010
0100
0001
1000
0100
0010
0001
1000
0010
0100
0001
,
1000
0100
1000
0000
0001
0000
0010
0000
0001
0100
0001
0000
1000
0000
0010
0000
0100
0000
0100
0000
0100
0000
0100
0000
0100
0000
0000
0000
0010
0000
0000
0000
,
1001
0000
0000
0000
0001
0100
0001
0100
0001
0000
0100
0000
0010
1000
0010
1000
0010
0000
1000
0010
1000
0000
0001
0000
1000
0001
1000
0001
1000
0000
0000
0000
,
0100
0000
0010
0000
0100
0010
0100
0010
0001
0000
0010
0000
0001
0000
1000
0001
1000
0001
1000
0000
0001
0100
0010
0000
1000
0000
0100
0010
0001
0000
0000
0000
,
1000
0000
0000
0000
0000
0000
0000
0000
0000
0000
0000
0000
0100
0000
0000
0000
0010
0000
0000
0000
0001
0000
0000
0000
0010
0000
0000
0000
0100
0000
0000
0000
1000
0000
0000
0000
0001
0000
0000
0100
0000
0000
0001
0000
0000
0100
0000
0000
0001
0000
0000
0000
0000
0000
1000
0000
0000
0100
0000
0000
1000
0000
0000
0100
0000
0000
1000
0000
0000
0100
0000
0000
0010
0000
0000
0000
0000
0000
0000
0000
0000
0000
0000
0000
2002
0000
0000
0000
0000
0000
0000
0000
0000
0000
0000
0000
,
3003
0000
0000
0000
0000
0000
0000
0000
0000
0000
0000
0000
0001
0000
0000
0000
0100
0000
0000
0000
0001
0000
0000
0000
0100
0000
0000
0010
0000
0000
0100
0000
0000
0010
0000
0000
1000
0000
0000
0000
0000
0000
0001
0000
0000
0000
0000
0000
0010
0000
0000
0000
0000
0000
0100
0000
0000
1000
0000
0000
0100
0000
0000
1000
0000
0000
0001
0000
0000
0000
0000
0000
0200
0000
0000
0000
0000
0000
0000
0000
0000
0000
0000
0000
1000
0000
0000
0000
0000
0000
0300
0000
0000
0000
0000
0000
,
0110
0000
0000
0000
0000
0000
0000
0000
0000
0000
0000
0000
0010
0000
0000
0000
1000
0000
0000
0000
0100
0000
0000
0000
0010
0000
0000
0000
0001
0000
0000
0000
0100
0000
0000
0000
0001
0000
0000
1000
0000
0000
0001
0000
0000
1000
0000
0000
0100
0000
0000
0000
0000
0000
1000
0000
0000
0001
0000
0000
1000
0000
0000
0001
0000
0000
0100
0000
0000
0000
0000
0000
0010
0000
0000
1000
0000
0000
0010
0000
0000
1000
0000
0000
0001
0000
0000
0000
0000
0000
0000
0000
0000
0000
0000
0000
,
0011
0000
0000
0011
0000
0000
1100
0000
0001
1000
0001
1000
0010
0000
0010
0000
0010
0000
0010
0000
0010
1000
0001
0000
0010
0000
0100
0000
2000
0000
0000
0000
,
3010
0000
0000
0000
0100
0001
0000
0100
0000
0010
1000
0000
0001
1000
0001
1000
0100
0000
1000
0001
1000
0001
0100
0000
0020
0000
0000
0000
0030
0000
0000
0000
,
1000
0000
1010
0000
0000
0000
0001
0000
0011
0000
0000
0000
1000
0000
1100
0000
0000
0000
0001
0000
0101
0000
0000
0000
0010
0100
0020
0000
0000
0030
0000
0000
,
1001
0000
0020
0030
,
1001
0000
0000
0000
0000
0000
0000
0000
0000
1001
0000
0000
0000
0000
0000
0000
0000
0000
0000
0000
0000
0000
0000
0000
0200
0000
0000
0000
0300
0000
0000
0000
0000
0020
0000
0000
0000
0030
0000
0000
0000
0000
0000
0000
0000
0000
0000
0000
,
0001
0100
0010
1000
0001
0010
0100
1000
0001
0100
0010
1000
0001
0010
0100
1000
,
0001
0100
0001
0000
1000
0000
0010
0000
1000
0100
1000
0000
0001
0000
0010
0000
0100
0000
0100
0000
0100
0000
0100
0000
0100
0000
0000
0000
0010
0000
0000
0000
,
1001
0000
0000
0000
1000
0000
0100
0000
0001
0000
0100
0000
1000
0000
0000
0000
0001
0000
0100
0000
0001
0100
0001
0100
0010
1000
0010
0000
1000
0000
0000
0000
,
0001
0000
0020
0000
0030
0000
1000
0000
0020
0000
0030
0000
0001
0000
0020
0000
0030
0100
1000
0100
1000
0000
0001
0000
0100
0001
0100
0001
1000
0000
0000
0000
,
1100
0000
0000
0000
0100
0000
0010
0000
1000
0000
0010
0000
0001
0000
0000
0000
1000
0000
0001
0100
0001
0000
0100
0010
0100
0000
0010
0000
1000
0000
0000
0000
,
0001
0000
0000
0000
0000
0000
0020
0000
0000
0000
0000
0000
0030
0000
0000
0000
0000
0000
1000
0000
0000
0010
0000
0000
0100
0000
0000
0010
0000
0000
0001
0000
0000
0010
0000
0000
0002
0000
0000
0000
0000
0000
0003
0000
0000
0000
0000
0000
1000
0000
0000
0000
0001
0000
0000
0000
0100
0000
0000
0000
0001
0000
0000
0000
1000
0000
0000
0000
0100
0000
0000
0000
0010
0000
0000
0000
0000
0000
0010
0000
0000
0000
0000
0000
0002
0000
0000
0000
0000
0000
0003
0000
0000
0000
0000
0000
,
1001
0000
0000
0000
0001
0000
0100
0000
1000
0000
0100
0000
0010
0000
0000
0000
1000
0000
0100
1000
0100
0000
0010
0100
0010
0100
0010
0000
0001
0000
0000
0000
,
1000
0000
0020
0000
0030
0000
0001
0000
0020
0000
0030
0000
0100
0000
0020
0000
0030
0000
0100
0001
0100
0000
0001
0000
1000
0100
1000
0100
0010
0000
0000
0000
,
1001
0010
0100
1001
0100
0010
0101
1000
0010
1100
0001
0010
0110
1000
0001
0110
,
0001
0000
1000
0000
0011
0000
1000
0000
0100
0000
1010
0000
0001
0000
0100
0000
1001
0000
1000
0000
1100
0000
0100
0000
0110
0000
0010
0000
0001
0010
0001
0010
,
0002
0000
0000
0000
0000
0000
0000
0000
0000
0000
0203
0000
0000
0320
0000
0000
,
2030
0000
0000
0000
0100
0100
3010
1000
,
0001
0001
0100
0100
0010
0010
1000
1000
,
0001
0010
0001
0010
0100
0010
0100
0010
0100
1000
0001
1000
0010
0100
0001
0000
,
1000
0100
0001
0100
1100
0000
1010
0000
0001
0100
1000
0100
0101
0000
0011
0000
,
1000
0010
0001
0010
1010
0000
1100
0000
0001
0010
1000
0001
0100
1000
1001
0000
,
0001
0001
0100
0100
0010
0010
1000
1000
0001
0001
0010
0010
0100
0100
1000
1000
,
0001
0100
0001
0000
1000
0000
0010
0000
1000
0100
1000
0000
0001
0000
0010
0000
0100
0000
0100
0000
0100
0000
0100
0000
0100
0000
0100
0000
0100
0000
0100
0000
,
0020
0000
0000
0000
0000
0000
0000
0030
0001
0000
0010
0000
0100
0000
1000
0010
0100
0000
1000
0000
0100
0001
0010
0001
1000
0000
1000
0000
0100
0000
0100
0000
,
0010
0001
0010
0100
0000
0001
0100
1000
0001
0000
0100
0001
0100
0000
0010
1000
0001
1000
0100
1000
0001
1000
0010
1000
0001
0010
0001
0010
0100
1000
0100
1000
,
0001
0100
1000
0100
0020
0000
0000
0000
1030
0000
0100
0000
0010
0001
0100
0001
1000
0100
1000
0010
0100
0001
0010
0001
1000
0000
1000
0000
0010
0000
0010
0000
,
0100
0001
0010
0100
1000
0010
0100
0001
0010
0100
0010
0001
0100
0010
1000
0100
0010
0000
0010
0000
0001
0100
0010
1000
0100
0010
0100
0010
0100
0010
0001
0000
,
0100
0001
0100
0010
2000
0000
0000
0000
3001
0000
0010
0000
0100
0000
0010
0000
1000
0000
0010
0000
0100
0010
0100
0010
0001
0000
0100
0000
0010
0000
0100
0000
,
1000
0100
1000
0100
0010
0100
0010
0100
0001
0000
0001
0000
0010
0000
0010
0000
0100
0000
0100
0000
1000
0001
1000
0001
0100
0010
1000
0001
0010
0000
0010
0000
,
0100
2002
0000
0000
0000
3003
0000
0000
1000
0000
0001
0000
0100
0010
0100
0010
1000
0001
0010
0000
0100
1000
0100
1000
0001
0000
0100
0001
0100
0000
0010
0000
,
1000
0000
0000
0100
0000
0000
0010
0000
0000
0100
0000
0000
1000
0000
0000
0000
0000
0000
0000
0000
0000
0000
0000
0000
0001
0000
0000
0000
1000
0000
0000
0000
0010
0000
0000
0000
1000
0000
0000
0000
0001
0000
0000
0000
0010
0000
0000
0000
0100
0000
0000
0000
1000
0000
0000
0000
0001
0000
0000
0000
0100
0000
0000
0000
0001
0000
0000
0000
1000
0000
0000
0000
0020
0000
0000
0000
0000
0000
0000
0000
0000
0000
0000
0000
0000
0000
0000
0000
0000
0000
0000
0000
0000
0000
0000
0000
,
0000
0000
0000
0000
0030
0000
0000
0000
0100
0001
0100
0010
1000
0000
0001
0000
1000
0000
0100
0000
1000
0000
0010
0000
0100
0000
1000
0100
0010
0000
0100
0001
,
1000
0000
0001
0010
0001
0000
0000
0000
1000
0001
0010
0100
1000
0000
0010
0000
0100
0000
0001
0000
0010
0000
0001
0000
0100
0000
0010
0001
0010
0000
0100
0010
,
1000
0000
0001
1000
0100
0000
0000
0000
0010
0001
0010
0001
1000
0000
0010
0000
0100
0001
1000
0000
0100
1000
0001
0000
1000
0010
1000
0010
0100
0000
0001
0000
,
0010
0100
1000
0000
0010
0100
0001
0000
1001
0000
0000
0000
0100
0000
0110
0000
0000
0000
0010
0000
1001
0000
0000
0000
0110
0000
0000
0110
0000
0000
0110
0000
,
0010
0000
1001
0000
0000
0000
0000
0000
1000
0100
0010
0001
0010
0000
0100
0000
1000
0001
0100
0000
0010
1000
0001
0000
0010
0100
1000
0000
0010
0100
0001
0000
,
0010
0100
1000
0000
0020
0000
0000
0000
0130
0001
1000
0001
0010
0000
0100
0000
1000
0001
0010
0000
0001
1000
0010
0000
0110
0000
0000
0110
0000
0000
0110
0000
,
1000
0000
0002
0000
0000
0000
0003
0000
1000
0100
0010
0001
1000
0100
0010
0001
1000
0100
0010
0001
0200
0000
0300
0000
0001
0100
0010
1000
0001
0100
0010
1000
,
0001
0100
0010
1000
0200
0000
0300
0000
1000
0100
0010
0001
0100
0010
1000
0100
0010
0001
0100
0010
1000
0100
0010
0001
0200
0000
2300
0000
3200
0000
0302
0000
,
0023
0030
2002
0000
3003
0000
0000
0000
0000
0000
0000
0000
0000
0000
0000
0000
;

//--------------- dance-double - forcednature ----------------
#NOTEDATA:;
#STEPSTYPE:dance-double;
#DESCRIPTION:forcednature;
#DIFFICULTY:Easy;
#METER:11;
#RADARVALUES:0,0,0,0,0;
#CREDIT:forcednature;
#NOTES:
00000000
00000000
00000000
00000000
,
00000000
00000000
00000000
00000000
,
00000000
00000000
00000000
00000000
,
00000000
00000000
00000000
00000000
,
00001000
00000000
00001000
00000000
00010000
00100000
10000000
00000000
,
02000000
00000000
00100000
00000000
13000000
00010000
00100000
00000000
,
00011000
00000000
00000020
00000030
,
00011000
00000000
00000000
00000000
00000000
00000000
00000000
00000000
00000000
00011000
00000000
00000000
00000000
00000000
00000000
00000000
00000000
00000000
00000000
00000000
00000000
00000000
00000000
00000000
02000000
00000000
00000000
00000000
03000000
00000000
00000000
00000000
00000000
00200000
00000000
00000000
00000000
00300000
00000000
00000000
00000000
00000000
00000000
00000000
00000000
00000000
00000000
00000000
,
11000000
10010000
10100000
10010000
,
10000000
00000000
01000000
00000000
00010000
00000000
00001000
00000000
00000010
00000100
00000010
00000100
00000010
00000000
00000000
00000000
,
00001001
00000000
00000000
00000000
00001000
00000000
00000100
00000000
00000000
00000100
00010000
00000000
00001000
00000000
00000000
00000000
,
01000000
00000000
00000000
01000000
00010000
00000000
00100000
00000000
00000000
00100000
01000000
00000000
10000000
00000000
00010000
00000000
,
01000000
00000000
00001000
01000000
00001000
00000000
00010000
00000000
00000000
00010000
00000100
00000000
00001000
00000000
00000010
00000000
,
00000000
00000000
00000100
00000010
00000100
00000000
00000000
00000000
00000001
00000000
00000000
00000010
00000000
00000000
00001000
00000000
,
00010000
00000000
00001000
00010000
00001000
00000000
01000000
00000000
00000000
01000000
00010000
00000000
10000000
00000000
00000000
00000000
,
01000000
00000000
00000000
01000000
00000000
00000000
01000000
00000000
00100000
00000000
00000000
00000000
00001000
00000000
00000000
00000000
00000000
00000000
00001000
00000000
00010000
00000000
00000000
00000000
00000100
00000000
00000000
00000000
00000000
00000000
00000000
00000000
,
00001000
00000000
00000010
00001000
00000010
00000000
00000100
00000000
00000000
00000100
00000001
00000000
00000010
00000000
00000000
00000000
,
00000110
00000000
00000000
00001100
00000000
00000000
00010100
00000000
00000000
00011000
00000000
00000000
01000000
00100000
00000000
00000000
,
10010000
00000000
00200000
00300000
,
00011000
00000000
00000000
00000000
00000000
00000000
00000000
00000000
00000000
00000000
00000000
00000000
00000000
00000000
00000000
00000000
00000000
00000000
00011000
00000000
00000000
00000000
00000000
00000000
00000000
00000000
00000000
00000000
00000000
00000000
00000000
00000000
00000000
00000000
00000000
00000000
00000000
00000000
00000000
00000000
00000000
00000000
00000000
00000000
00000000
00000000
00000000
00000000
00000200
00000000
00000000
00000000
00000000
00000000
00000000
00000000
00000300
00000000
00000000
00000000
00000000
00000000
00000000
00000000
00000000
00000000
00000020
00000000
00000000
00000000
00000000
00000000
00000000
00000030
00000000
00000000
00000000
00000000
00000000
00000000
00000000
00000000
00000000
00000000
00000000
00000000
00000000
00000000
00000000
00000000
00000000
00000000
00000000
00000000
00000000
00000000
,
00001001
00010100
01001000
10010000
,
10000000
00000000
01000000
00000000
00100000
00000000
00010000
00000000
01000000
00100000
01000000
00100000
01000000
00000000
00000000
00000000
,
00011000
00000000
00000000
00010000
00000100
00000000
00001000
00000000
00000000
00000100
00010000
00000000
00001000
00000000
00000000
00000000
,
01000000
00010000
00000000
00010000
01000000
00000000
01000000
00010000
00000000
00000000
00100000
00000000
01000000
00000000
10000000
00000000
,
01000000
00000000
00000000
00010000
01000000
00000000
10000000
00000000
00000000
01000000
00010000
00000000
00001000
00000000
00000000
00000000
,
00000000
00011000
00000000
00000000
00000100
00000000
00001100
00000000
00000000
00000010
00000001
00000010
00000001
00000000
00000100
00000000
,
00001000
00000000
00000000
00001000
00010000
00000000
00100000
00000000
00000000
01000000
00100000
00000000
10000000
00000000
00010000
00000000
,
00100000
01000000
00000000
00100000
00010000
00000000
00100000
00001000
00000000
00000000
00011000
00000000
00011000
00000000
00000000
00000000
,
00000100
00000000
00000000
00011000
00000000
00000000
01000000
00000000
00000000
00011000
00000000
00000000
00010010
00000000
00000000
00011000
,
00000000
00000000
00101000
00000000
00000000
00011000
00000000
00000000
00000100
00000000
00010000
00000000
00001000
00000000
00100000
00000000
,
00020000
00000000
00000000
00000000
00000000
00000000
00000000
00000000
00000000
00000000
01000000
00000000
00000000
01000000
00000000
00000000
,
02030000
00000000
00000000
00000000
10000000
10000000
13000000
00000000
,
01000000
00010000
00100000
00000000
01000000
00010000
00001000
00000000
,
00000010
00000100
00000010
00000100
00001000
00000001
00000100
00000000
,
00001000
00001000
00010000
00100000
10000000
10000000
01000000
00010000
,
00001000
00001000
00000010
00000001
00000100
00000110
00001001
00000000
,
00000001
00000100
00001000
00010000
01000000
10000000
00100000
00010000
,
00001000
00000000
00001000
00000000
00010000
00000000
00010000
00000000
00001000
00010000
00001000
00010000
00001000
00010000
00001000
00000000
,
00000020
00000000
00000000
00000000
00000000
00000000
00000000
00000030
00000001
00000000
00000000
00000000
00000100
00000000
00000001
00000000
00000100
00000000
00000000
00000000
00001000
00000000
00000000
00000000
00010000
00000000
00001000
00000000
00010000
00000000
00000000
00000000
,
00100000
00000000
10000000
00100000
10000000
00000000
01000000
00000000
00100000
01000000
00100000
00000000
00001000
00000000
00010000
00001000
,
00010000
00000000
00000100
00000000
00000010
00000000
00000001
00000010
00000001
00000000
00000100
00000000
00001000
00000100
00001000
00000000
,
00010000
00001000
00010000
00000000
00100000
00010000
00100000
01000000
00000000
00100000
10000000
00000000
02000000
00000000
03020000
00000000
,
00032000
00000000
00003020
00000000
00000130
00000010
00000100
00000000
00000010
00000100
00000010
00000000
00000001
00000000
00000100
00000000
,
00001000
00000000
00011000
00000000
00010000
00001000
00010000
00000000
00001000
00010000
00001000
00000000
01000000
00000000
01000000
00010000
,
00200000
00000000
00300000
00000000
01000000
10000000
01000000
00000000
10000000
00100000
10000000
00000000
00100000
00010000
00100000
00000000
,
00010000
00000000
00000000
00001000
00000000
00000000
00010000
00000000
00000000
00000000
00000000
00000000
00000100
00000000
00000000
00000000
00000100
00000000
00000000
00000000
00000100
00000000
00000000
00000000
00000100
00000000
00000000
00000000
00000100
00000000
00000000
00000000
00000100
00000000
00000000
00000000
00000020
00000000
00000000
00000000
00000000
00000000
00000000
00000000
00000000
00000000
00000000
00000000
,
00000000
00000000
00000030
00000000
00000001
00000100
00001000
00000000
00000100
00000001
00001000
00000000
00000010
00000000
00010000
00000000
,
00001000
00000000
01000000
00000000
00010000
00100000
01000000
00000000
10000000
00100000
01000000
00000000
00001000
00000000
00011000
00000000
,
00010000
00000000
00000000
00000000
00000100
00001000
00000100
00000000
00000010
00000000
00000011
00000000
00000001
00000100
00000001
00000000
,
00001000
00000000
00000000
00000000
00001010
00000000
00000000
00000000
00010000
00000000
00000000
00000000
00010000
00000000
00001000
00000000
00000000
00000000
00001000
00000000
00100000
00000000
00000000
00000000
00010000
00000000
00000000
00010000
00000000
00000000
00010000
00000000
,
10000000
00100000
01100000
01000000
01100000
01000000
00001000
00010000
,
00000100
00000000
00000000
00000000
00000000
00000000
00000000
00000000
00000110
00000000
00000000
00000000
00000100
00000000
00000000
00000000
00000110
00000000
00000000
00000000
00000100
00000000
00000000
00000000
00010000
00000000
00000000
00001000
00000000
00000000
00010000
00000000
,
00002000
00000000
00003000
00000000
01000000
00010000
01000000
00000000
00001000
00000000
00010000
00000000
00000100
00001000
00000100
00000000
,
00010000
00000000
00001000
00000000
01000000
00010000
01000000
00010000
10000000
00100000
10000000
00100000
00010000
00000000
00002000
00000000
,
00003010
00000110
00000000
00000000
00000000
00000000
00000000
00000000
;

//--------------- dance-double - forcednature ----------------
#NOTEDATA:;
#STEPSTYPE:dance-double;
#DESCRIPTION:forcednature;
#DIFFICULTY:Medium;
#METER:15;
#RADARVALUES:0,0,0,0,0;
#CREDIT:forcednature;
#NOTES:
00000000
00000000
00000000
00000000
,
00000000
00000000
00000000
00000000
,
00000000
00000000
00000000
00000000
,
00000000
00000000
00000000
00000000
,
00010000
00001000
01000000
00001000
00100000
00001000
00000010
00001000
,
00020000
00000000
00030200
00000000
00002300
00000000
00003001
00000100
00000010
00000100
00001000
00000000
00010000
00001000
00010000
00000000
,
00011000
00000000
00200000
00300000
,
00011000
00000000
00000000
00011000
00000000
00000000
00000000
00000000
00000020
00000030
00000000
00000200
00000300
00000000
00000000
00000000
,
00000001
00000100
00000001
00000000
00000100
00001000
00000100
00000000
00001000
00010000
00001000
00000000
00010000
00100000
00010000
00000000
,
00100000
10000000
00010000
00000000
00100000
00010000
10000000
00000000
00100000
01000000
00100000
01000000
00200000
00000000
00300000
00000000
,
10010000
00000000
10000000
01000000
00010000
00000000
00011000
00000000
00000000
00001000
00000010
00000000
00000110
00000000
00000000
00000000
,
00001001
00000000
00001000
00000100
00010000
00000000
00011000
00000000
00001000
01000000
00010000
00000000
00010000
10000000
00100000
00000000
,
01100000
00000000
01000000
00010000
10000000
00000000
11000000
00000000
01000000
00010000
00001000
00000000
00011000
00000000
00020020
00000000
,
00030030
00000000
00000010
00000100
00001000
00000100
00000001
00000000
00000010
00000100
00001000
00000100
00010000
00001000
00010000
00000000
,
00010010
00000000
00000010
00001000
00000100
00000000
00000110
00000000
00000010
00000001
00000100
00000000
00001001
00000000
00001000
00000000
,
00000100
00000000
00000000
00000100
00000000
00000000
00000100
00000000
00010000
00000000
00000000
00000000
00001000
00000000
01000000
00000000
00010000
00000000
01000000
00000000
00100000
00000000
00000000
00000000
10000000
00000000
01000000
00000000
00010000
00000000
00000000
00000000
,
00011000
00000000
00001000
00100000
00010000
00000000
10010000
00000000
10000000
00100000
00010000
00000000
00022000
00000000
00033000
00000000
,
00000010
00000010
00000000
00001000
00001000
00000000
00100000
00100000
00000000
10000000
10000000
00000000
01000000
00100000
00000000
00000000
,
10010000
00000000
02000000
03000000
,
00011000
00000000
00000000
00000000
00000000
00000000
00000000
00000000
00000000
00000000
00000000
00000000
00000000
00000000
00000000
00000000
00000000
00000000
00011000
00000000
00000000
00000000
00000000
00000000
00000000
00000000
00000000
00000000
00000000
00000000
00000000
00000000
00000000
00000000
00000000
00000000
00000000
00000000
00000000
00000000
00000000
00000000
00000000
00000000
00000000
00000000
00000000
00000000
00000200
00000000
00000000
00000000
00000000
00000000
00000000
00000000
00000300
00000000
00000000
00000000
00000000
00000000
00000000
00000000
00000000
00000000
00000020
00000000
00000000
00000000
00000000
00000000
00000000
00000030
00000000
00000000
00000000
00000000
00000000
00000000
00000000
00000000
00000000
00000000
00000000
00000000
00000000
00000000
00000000
00000000
00000000
00000000
00000000
00000000
00000000
00000000
,
00000001
00000100
00001000
00000000
00000100
00001000
00010000
00000000
00001000
00010000
00100000
00000000
00010000
00100000
10000000
00000000
,
01000000
10000000
00010000
00000000
01000000
00010000
10000000
00000000
01000000
00100000
01000000
00100000
00002000
00000000
00013000
00000000
,
00011000
00000000
00000000
00001000
00000010
00000000
00000001
00000000
00000010
00000100
00001000
00000100
00010000
00000100
00001000
00000000
,
00000010
00020000
00030000
00001000
00020000
00030000
00000100
00020000
00030000
00001000
01000000
00010000
01000000
00001000
00010000
00000000
,
00011000
00000000
00001000
00010000
00100000
00000000
01000000
00000000
00100000
10000000
01000000
10000000
00010000
10000000
01000000
00000000
,
00010000
00002000
00003000
00000010
00000100
00000010
00000002
00000003
00000100
00000001
00001000
00000000
00000010
00010000
00001000
00000000
,
00011000
00000000
00010000
00100000
10000000
00000000
01000000
00000000
10000000
00100000
10000000
00010000
00100000
00010000
01000000
00000000
,
00001000
00010000
00000000
00001000
01000000
00000000
00001000
00100000
00000000
00010000
00001000
00000000
00000100
00000000
00000110
00000000
,
00001001
00000000
00000000
00010100
00000000
00000000
01001000
00000000
00000000
10010000
00000000
00000000
00101000
00000000
00000000
00010010
,
00000000
00000000
00001001
00000000
00000000
00000110
00000000
00000000
00001000
00000100
00010000
00001000
01000000
00010000
00100000
01000000
,
20000000
00000000
00000000
00000000
00000000
00000000
00000000
00000000
00000000
00000000
00100000
00000000
00000000
00100000
00000000
00000000
,
30020000
00000000
00000000
00000000
00100000
00100000
00100000
00000000
,
01030000
00001000
00001000
00010000
00000100
00010000
00010000
00001000
,
00000010
00000100
00000010
00000000
00000001
00000010
00000001
00000000
00000100
00000010
00001000
00000010
00010000
00001000
00010000
00000000
,
00100000
10000000
01000000
00000000
00010000
00000000
00011000
00000000
00001000
00000010
00000001
00000000
00000010
00001000
00010000
00000000
,
00001000
00000010
00000001
00000000
00000100
00000000
00001001
00000000
00001000
00000100
00010000
00001000
01000000
00010000
01000000
00000000
,
00100000
10000000
00010000
10000000
01000000
00100000
00010000
00100000
00001000
00010000
00000010
00010000
00001000
00000010
00000100
00000010
,
00000001
00001000
00000100
00001000
00000010
00010000
00001000
00010000
00100000
01000000
00100000
01000000
00100000
01000000
00100000
01000000
,
00020000
00000000
00000000
00000000
00000000
00000000
00000000
00030000
10000000
00000000
01000000
00000000
10000000
00000000
01000000
00000000
00010000
00000000
00001000
00000000
00100000
00000000
00010000
00000000
00100000
00000000
00001000
00000000
00010000
00000000
00000010
00000000
,
00001000
00000010
00000100
00001000
00000100
00000001
00001000
00000010
00001000
00000100
00010000
00001000
01000000
00010000
01000000
00010000
,
00100000
01000000
20000000
00000000
30100000
01000000
00100000
10000000
00010000
10000000
00010000
00100000
00001000
00010000
00000010
00010000
,
00001000
00000010
00000100
00001000
00000001
00000100
00000010
00000100
00001000
00010000
00001000
01000000
00020000
00000000
00100000
00000000
,
10030000
00010000
01000000
00000000
00100000
10000000
00100000
00010000
00001000
00010000
00002000
00000000
00013000
00000100
00001000
00000100
,
00000020
00000000
00000032
00000000
00000103
00000001
00000100
00000010
00000100
00001000
00020000
00000000
00130000
01000000
00100000
10000000
,
00020000
00000000
00030000
00000000
10000000
01000000
00100000
01000000
00010000
01000000
00100000
00000000
00001000
00010000
00001000
00000010
,
00000100
00000000
00000000
00001000
00000000
00000000
00000001
00000000
00000000
00000000
00000000
00000000
00000200
00000000
00000000
00000000
00000000
00000000
00000301
00000000
00000100
00000000
00000001
00000000
00000100
00000000
00000010
00000000
00000100
00000000
00000010
00000000
00001000
00000000
00000010
00000000
00002000
00000000
00000000
00000000
00000000
00000000
00000000
00000000
00000000
00000000
00000000
00000000
,
00000000
00000000
00000000
00000000
00003000
00000000
00000000
00000000
00000100
00000000
00001000
00000000
00000100
00000000
00010000
00000000
00001000
00000000
01000000
00000000
00010000
00000000
01000000
00000000
00010000
00000000
10000000
00010000
10000000
00000000
00010000
10000000
,
00010000
00000000
00100000
00000000
01000000
00000000
00000000
00000000
00010000
00000000
00001000
00000000
00100000
00000000
00001000
00000000
00000010
00000000
00000100
00000000
00001000
00000000
00000001
00000000
00000100
00000000
00000010
00000100
00000010
00000000
00000100
00000010
,
00000100
00001000
00020000
00000000
00130000
01000000
10000000
01000000
00010000
00000000
00110000
00000000
00100000
01000000
00010000
00001000
,
00000010
00000000
00000000
00000000
00000110
00000000
00000000
00000000
00010100
00000000
00000000
00000000
00010000
00000000
00001000
00000000
00000000
00000000
00010000
00000000
00000010
00000000
00000000
00000000
00100000
00000000
00000000
00100000
00000000
00000000
00100000
00000000
,
00010000
00000000
20000000
00000000
00000000
00000000
30000000
00000000
01000000
00000000
00010000
00000000
00001000
00000000
00010000
00000000
00001000
00000000
00000010
00000000
00000100
00000000
00000000
00000000
00001000
00000100
00001000
00000000
00000001
00000010
00000001
00000000
,
00001000
00000100
00001000
00000000
00000001
00000000
00000000
00000000
00000100
00000000
00001000
00000000
00010000
00000000
00001000
00000000
00010000
00000000
00100000
00000000
10000000
00000000
00000000
00000000
10100000
00000000
00000000
00100000
00000000
00000000
01000000
00000000
,
00020000
20000000
00000000
30030000
10000000
01000000
00010000
00001000
00000100
00000001
00000020
00000030
00000001
00000100
00001000
00010000
,
01000000
00000000
10000000
00000000
00200000
00000000
00300000
00000000
10000000
01000000
10000000
00000000
01000000
00100000
01000000
00000000
00100000
00010000
00100000
00000000
00010000
10000000
00010000
00000000
01000000
00000000
00100000
00000000
00010000
00000000
00001000
00000000
,
00000100
00000220
00000330
00000000
00000000
00000000
00000000
00000000
;

//--------------- dance-double - forcednature ----------------
#NOTEDATA:;
#STEPSTYPE:dance-double;
#DESCRIPTION:forcednature;
#DIFFICULTY:Hard;
#METER:18;
#RADARVALUES:0,0,0,0,0;
#CREDIT:forcednature;
#NOTES:
00000000
00000000
00000000
00000000
,
00000000
00000000
00000000
00000000
,
00000000
00000000
00000000
00000000
,
00000000
00000000
00000000
00000000
,
00001000
00000000
00010000
00001000
00010000
00000000
00000100
00001000
00000100
00000000
00010000
00001000
00010000
00000000
00100000
10000000
,
00010000
00000000
00000000
00000000
00000000
00000000
10000000
00000000
00000000
00000000
00000000
00000000
01000000
00000000
00000000
00000000
00000000
00000000
00100000
00000000
00000000
00000000
00000000
00000000
00010000
00000000
00000000
00000000
00100000
00000000
00000000
00000000
01000000
00000000
00000000
00000000
00100000
00000000
00000000
00000000
00010000
00000000
00000000
00000000
00100000
00000000
00000000
00000000
00001000
00000000
00000000
00000000
00000000
00000000
00010000
00000000
00000000
00001000
00000000
00000000
00010000
00000000
00000000
00000000
00000000
00000000
00000010
00000000
00000000
00000000
00000000
00000000
00001000
00000000
00000000
00000000
00000000
00000000
00000001
00000000
00000000
00000000
00000000
00000000
00000010
00000000
00000000
00000000
00000000
00000000
00000000
00000000
00000000
00000000
00000000
00000000
,
00000110
00000000
00020000
00030000
,
00011000
00000000
00000000
00000000
00000000
00000000
00000000
00000000
00000000
00011000
00000000
00000000
00000000
00000000
00000000
00000000
00000000
00000000
00000000
00000000
00000000
00000000
00000000
00000000
02000000
00000000
00000000
00000000
03000000
00000000
00000000
00000000
00000000
00200000
00000000
00000000
00000000
00300000
00000000
00000000
00000000
00000000
00000000
00000000
00000000
00000000
00000000
00000000
,
10000000
01000000
00100000
00010000
01000000
00100000
00010000
00001000
00100000
00010000
00001000
00000100
00010000
00001000
00000100
00000010
,
00001000
00000001
00001000
00000000
00000010
00000000
00000100
00000000
00000001
00001000
00000001
00000000
00000010
00000000
00000100
00000000
00010000
00000000
00010000
00000000
00010000
00000000
00010000
00000000
00010000
00000000
00000000
00000000
00001000
00000000
00000000
00000000
,
00011000
00000000
00000000
00000000
01000000
00010000
01000000
00010000
01000000
00000000
00100000
00000000
10000000
00100000
10000000
00100000
10000000
00000000
01000000
10000000
01000000
00000000
00100000
00000000
01000000
00100000
00010000
00100000
00010000
00000000
00000000
00000000
,
01000000
00000000
00001000
00000000
00010000
00001000
00010000
00000100
00001000
00000000
00000100
00000000
00000010
00000000
00000001
00001000
00000001
00001000
00000001
00000000
00000100
00000010
00001000
00000000
00000100
00000000
00010000
00001000
00010000
00000000
00000000
00000000
,
01000000
00000000
00000000
00000000
00000000
00000000
00000000
00000000
00000000
00000000
00000000
00000000
00100000
00000000
00000000
00000000
00010000
00000000
00000000
00000000
10000000
00000000
00000000
00000000
00100000
00000000
00000000
00000000
10000000
00000000
00000000
00000000
00010000
00000000
00000000
00000000
01000000
00000000
00000000
00100000
00000000
00000000
01000000
00000000
00000000
00100000
00000000
00000000
01000000
00000000
00000000
00000000
00000000
00000000
00010000
00000000
00000000
10000000
00000000
00000000
00010000
00000000
00000000
10000000
00000000
00000000
00010000
00000000
00000000
10000000
00000000
00000000
00010000
00000000
00000000
00000000
00000000
00000000
00000000
00000000
00000000
00000000
00000000
00000000
02002000
00000000
00000000
00000000
00000000
00000000
00000000
00000000
00000000
00000000
00000000
00000000
,
03003000
00000000
00000000
00000000
00000000
00000000
00000000
00000000
00000000
00000000
00000000
00000000
00001000
00000000
00000000
00000000
00010000
00000000
00000000
00000000
00001000
00000000
00000000
00000000
00010000
00000000
00000000
00000100
00000000
00000000
00001000
00000000
00000000
00000100
00000000
00000000
00000010
00000000
00000000
00000000
00000000
00000000
00000001
00000000
00000000
00000000
00000000
00000000
00000100
00000000
00000000
00000000
00000000
00000000
00000010
00000000
00000000
00001000
00000000
00000000
00000010
00000000
00000000
00010000
00000000
00000000
00001000
00000000
00000000
00000000
00000000
00000000
00200000
00000000
00000000
00000000
00000000
00000000
00000000
00000000
00000000
00000000
00000000
00000000
00010000
00000000
00000000
00000000
00000000
00000000
00300000
00000000
00000000
00000000
00000000
00000000
,
01100000
00000000
00000000
00000000
00000000
00000000
00000000
00000000
00000000
00000000
00000000
00000000
01000000
00000000
00000000
00000000
10000000
00000000
00000000
00000000
01000000
00000000
00000000
00000000
00100000
00000000
00000000
00000000
00010000
00000000
00000000
00000000
00100000
00000000
00000000
00000000
00001000
00000000
00000000
00010000
00000000
00000000
00001000
00000000
00000000
00010000
00000000
00000000
00000010
00000000
00000000
00000000
00000000
00000000
00010000
00000000
00000000
00001000
00000000
00000000
00010000
00000000
00000000
00001000
00000000
00000000
00100000
00000000
00000000
00000000
00000000
00000000
00001000
00000000
00000000
00010000
00000000
00000000
00001000
00000000
00000000
00010000
00000000
00000000
00000100
00000000
00000000
00000000
00000000
00000000
00000000
00000000
00000000
00000000
00000000
00000000
,
00000110
00000000
00000000
00000110
00000000
00000000
00001001
00000000
00001000
00000001
00001000
00000001
00000100
00000000
00000100
00000000
00000100
00000000
00000100
00000000
00000100
00001000
00010000
00000000
00001000
00000000
01000000
00000000
00020000
00000000
00000000
00000000
,
00130000
00000000
00000000
00000000
01000000
10000000
00000000
01000000
00000000
00100000
00001000
00000000
00010000
00000100
00001000
00000100
00010000
00000000
00001000
01000000
00010000
01000000
00001000
00000000
00020000
00000000
00000000
00000000
00030000
00000000
00000000
00000000
,
00000010
00000000
00001010
00000000
00000000
00000000
00010000
00000000
00011000
00000000
00000000
00000000
00100000
00000000
00110000
00000000
00000000
00000000
01000000
00000000
10010000
00000000
00000000
00000000
10000000
01000000
00200000
00000000
00000000
00300000
00000000
00000000
,
00011000
00000000
00000220
00000330
,
00011000
00000000
00000000
00000000
00000000
00000000
00000000
00000000
00000000
00011000
00000000
00000000
00000000
00000000
00000000
00000000
00000000
00000000
00000000
00000000
00000000
00000000
00000000
00000000
02200000
00000000
00000000
00000000
03300000
00000000
00000000
00000000
00000000
02200000
00000000
00000000
00000000
03300000
00000000
00000000
00000000
00000000
00000000
00000000
00000000
00000000
00000000
00000000
,
10000000
01000000
00100000
00010000
01000000
00100000
00010000
00001000
00100000
00010000
00001000
00000100
00010000
00001000
00000100
00000010
,
00001000
00000001
00001000
00000000
00000100
00000000
00000010
00000000
00000001
00001000
00000001
00000000
00000100
00000000
00000010
00000000
00010000
00000000
00010000
00000000
00010000
00000000
00010000
00000000
00010000
00000000
00000000
00000000
00100000
00000000
00000000
00000000
,
10010000
00000000
00000000
00000000
10000000
00000000
01000000
00000000
00010000
00000000
00001000
00000000
00000010
00000000
00000000
00000000
00000100
00000000
00001000
00000000
00000100
00000010
00000001
00000010
00000100
00001000
00000100
00000000
00010000
00000000
00000000
00000000
,
00001000
00000000
02000000
00000000
03000000
00000000
10000000
00000000
02000000
00000000
03000000
00000000
00010000
00000000
02000000
00000000
03000000
00100000
10000000
00100000
10000000
00000000
00010000
00000000
00100000
00010000
00100000
00010000
10000000
00000000
00000000
00000000
,
11000000
00000000
00000000
00000000
01000000
00000000
00010000
00000000
00001000
00000000
00100000
00000000
00001000
00000000
00000000
00000000
00010000
00000000
00000010
00001000
00000010
00000000
00000100
00000001
00000100
00000000
00000010
00000000
00001000
00000000
00000000
00000000
,
00000001
00000000
00000000
00000000
00000000
00000000
00000020
00000000
00000000
00000000
00000000
00000000
00000030
00000000
00000000
00000000
00000000
00000000
00001000
00000000
00000000
00010000
00000000
00000000
00001000
00000000
00000000
01000000
00000000
00000000
00010000
00000000
00000000
01000000
00000000
00000000
00002000
00000000
00000000
00000000
00000000
00000000
00003000
00000000
00000000
00000000
00000000
00000000
00010000
00000000
00000000
00000000
00000100
00000000
00000000
00000000
00001000
00000000
00000000
00000000
00000100
00000000
00000000
00000000
00010000
00000000
00000000
00000000
00001000
00000000
00000000
00000000
00100000
00000000
00000000
00000000
00000000
00000000
00100000
00000000
00000000
00000000
00000000
00000000
00020000
00000000
00000000
00000000
00000000
00000000
00030000
00000000
00000000
00000000
00000000
00000000
,
10010000
00000000
00000000
00000000
10000000
00000000
01000000
00000000
00010000
00000000
00001000
00000000
00000010
00000000
00000000
00000000
00000100
00000000
00001000
00000100
00010000
00000000
00001000
01000000
00010000
01000000
00001000
00000000
00010000
00000000
00000000
00000000
,
00000010
00000000
00000200
00000000
00000300
00000000
00010000
00000000
00000200
00000000
00000300
00000000
00000001
00000000
00000200
00000000
00000300
00000000
00000010
00001000
00000010
00000000
00010000
00000000
00001000
00100000
00010000
00100000
01000000
00000000
00000000
00000000
,
10000000
01000000
10000000
00000000
01000000
00000000
00010000
00001000
00010000
00000000
00001000
00000000
00000010
00000001
00000010
00000000
00000001
00000000
00000100
00000001
00000100
00000000
00000001
00000000
00001000
00000010
00001000
00000000
00000010
00000000
00010000
00001000
,
00010000
00000000
00001000
00000000
00100000
01000000
10000000
00000000
01000000
00000000
00100000
00010000
10000000
00000000
00100000
00000000
01000000
00000000
00001000
00000000
00010000
00000000
00001000
00000000
00000010
00000000
00000100
00000000
00001000
00000001
00000010
00000100
,
00002000
00000000
00000000
00000000
00000000
00000000
00000000
00000000
00000000
00000000
00003020
00000000
00000000
00020030
00000000
00000000
,
00230000
00000000
00000000
00000000
00000000
00000000
00000000
00000000
01000000
00000000
01000000
00000000
10300000
00100000
01000000
00010000
,
10000000
10000000
01000000
01000000
00010000
00010000
00001000
00001000
,
00000010
00000100
00000010
00000100
00001000
00000100
00001000
00000100
00010000
00001000
01000000
00010000
01000000
00001000
00010000
00000000
,
00100000
10000000
00010000
10000000
11000000
00000000
00110000
00000000
00100000
00001000
00010000
00000010
00001010
00000000
00001100
00000000
,
00000100
00000010
00000001
00000100
00000101
00000000
00000011
00000000
00000010
00000100
00010000
00001000
00100000
01000000
01100000
00000000
,
10000000
00100000
10000000
01000000
00010000
00001000
00100000
00001000
00000010
00000100
00001000
00000001
00000100
00001000
00000100
00000001
,
00001000
00000010
00001000
00000000
00000010
00000000
00010000
00000000
00001000
00100000
00001000
00000000
00100000
00000000
00010000
00000000
01000000
00000000
10000000
00000000
01000000
00000000
00010000
00000000
00001000
00000000
00000100
00000000
00000001
00000000
00000100
00000000
,
00000020
00000000
00000000
00000000
00000000
00000000
00000000
00000030
00000001
00000000
00000100
00000000
00001000
00000000
00000100
00000001
00001000
00000000
00000010
00000000
00010000
00001000
00100000
00001000
00010000
00000000
00100000
00000000
01000000
00000000
00100000
00000000
,
10000000
00010000
01000000
00100000
00000000
10000000
00010000
00100000
01000000
00000000
00100000
00001000
00010000
00000000
00000100
00001000
00000100
00010000
00001000
00010000
00000010
00001000
00000010
00000100
00000001
00001000
00000001
00001000
00000100
00000010
00000100
00001000
,
00000100
00010000
00001000
00100000
00002000
00000000
00000000
00000000
00013000
00000000
00100000
00000000
01000000
00010000
10000000
00010000
00100000
01000000
10000000
00010000
01000000
00001000
00010000
00001000
00100000
00000000
00010000
00000000
00001000
00000000
00000100
00000000
,
00010000
00001000
00100000
00010000
01000000
00001000
00010000
00000100
00001000
00000010
00000100
00000001
00000010
00000100
00001000
00000100
00010000
00000000
00010000
00000000
00001000
01000000
00010000
01000000
00100000
10000000
00010000
10000000
00100000
10000000
00010000
00000000
,
00100000
01000000
10000000
01000000
00200000
00000000
00000000
00000000
00301000
00000000
00000010
00000000
00000100
00000000
00010000
00000000
00001000
00000000
00010000
00000000
00000010
00001000
00000010
00000100
00000001
00000000
00001000
00000000
00000100
00000000
00001000
00000000
,
00010000
00100000
00010000
00100000
01000000
00100000
01000000
00100000
01000000
00000000
10000000
00000000
00100000
00000000
10000000
00000000
01000000
00000000
00010000
00000000
00001000
00010000
00001000
00010000
00000100
00001000
00000100
00000010
00000001
00000000
00000001
00000000
,
00000100
00002000
00000000
00000000
00000000
00003000
00000000
00000000
00010000
00000000
00001000
00000000
01000000
00010000
01000000
00010000
10000000
01000000
00100000
00000000
01000000
00100000
00010000
00100000
00001000
00000000
00010000
00000010
00010000
00000000
00001000
00000000
,
00000010
00000000
00000000
00000100
00000000
00000000
00001000
00000000
00000000
00000100
00000000
00000000
00000010
00000000
00000000
00000000
00000000
00000000
00000000
00000000
00000000
00000000
00000000
00000000
00000001
00000000
00000000
00000000
00000100
00000000
00000000
00000000
00000010
00000000
00000000
00000000
00001000
00000000
00000000
00000000
00000100
00000000
00000000
00000000
00000010
00000000
00000000
00000000
00001000
00000000
00000000
00000000
00010000
00000000
00000000
00000000
01000000
00000000
00000000
00000000
00100000
00000000
00000000
00000000
00010000
00000000
00000000
00000000
10000000
00000000
00000000
00000000
00200000
00000000
00000000
00000000
00000000
00000000
00000000
00000000
00000000
00000000
00000000
00000000
00000000
00000000
00000000
00000000
00000000
00000000
00000000
00000000
00000000
00000000
00000000
00000000
,
00000000
00000000
00000000
00000000
00300000
00000000
00000000
00000000
10000000
01000000
00100000
00010000
10000000
00000000
00100000
00000000
00010000
00000000
00100000
00000000
01000000
00000000
00001000
00000000
00010000
00000000
00000010
00001000
00000100
00000000
00000010
00000001
,
00000100
00000000
00000010
00001000
00000010
00000000
00000000
00000000
00010000
00001000
00100000
00010000
01000000
00000000
10000000
00000000
01000000
00000000
00010000
00000000
00100000
00000000
01000000
00000000
00010000
00000000
00001000
00100000
00001000
00000000
00010000
00000100
,
00001000
00000000
00000100
00000010
00000001
00000000
00000000
00000000
00000100
00000001
00001000
00000010
00000100
00000000
00001000
00000000
00010000
00001000
01000000
00000000
00010000
00100000
00001000
00000000
00100000
00010000
00100000
01000000
10000000
00000000
00010000
00000000
,
01000000
00001000
00010000
00000000
00000100
00010000
00001000
00000000
00011000
00000000
00000000
00000000
00001000
00000000
00001010
00000000
00000000
00000000
00000010
00000000
00001001
00000000
00000000
00000000
00000110
00000000
00000000
00000110
00000000
00000000
00000110
00000000
,
00001000
00000000
00020000
00000000
00000000
00000000
00030000
00000000
01000000
00010000
10000000
00100000
01000000
00000000
00010000
00000000
00100000
01000000
10000000
00000000
01000000
00100000
00010000
00000000
01000000
00001000
00010000
00000000
00000100
00010000
00001000
00000000
,
01000000
00001000
00010000
00000000
00000020
00000000
00000000
00000000
00001030
00000001
00000100
00000010
00001000
00000000
00000001
00000000
00000010
00000100
00001000
00000000
00000100
00010000
00001000
00000000
00011000
00000000
00000000
00011000
00000000
00000000
00011000
00000000
,
00001000
00000000
02000000
00000000
00000000
00000000
03000000
00000000
00010000
10000000
01000000
10000000
00010000
01000000
00010000
00100000
00001000
00010000
00000100
00001000
00000020
00000000
00000030
00000000
00001000
00000001
00000100
00000001
00001000
00000100
00001000
00000010
,
00010000
00001000
01000000
00010000
00200000
00000000
00300000
00000000
01000000
10000000
00010000
00100000
00010000
01000000
00001000
00010000
00000010
00010000
00001000
00100000
00010000
00100000
00001000
00010000
00000200
00000000
00000320
00000000
00002030
00000000
00003020
00000000
,
00000032
00000003
00002002
00000000
00003003
00000000
00000000
00000000
00000000
00000000
00000000
00000000
00000000
00000000
00000000
00000000
;
