#VERSION:0.83;
#TITLE:Voltage (feat. Hidemaru);
#SUBTITLE:;
#ARTIST:TaQ;
#TITLETRANSLIT:;
#SUBTITLETRANSLIT:;
#ARTISTTRANSLIT:;
#GENRE:BIG BEAT;
#CREDIT:;
#MUSIC:Voltage (feat. Hidemaru).ogg;
#BANNER:Voltage (feat. Hidemaru).png;
#BACKGROUND:Voltage (feat. Hidemaru)-bg.png;
#CDTITLE:./CDTitles/bm IIDX 4th style.png;
#SAMPLESTART:7.954;
#SAMPLELENGTH:15.000;
#SELECTABLE:YES;
#OFFSET:1.616;
#BPMS:0.000=124.998;
#STOPS:;
#TIMESIGNATURES:0.000=4=4,
56.000=5=4,
61.000=3=4,
67.000=5=4,
77.000=3=4,
80.000=5=4,
85.000=3=4,
88.000=5=4,
93.000=3=4,
96.000=4=4
;
#DISPLAYBPM:125.000;
#BGCHANGES:0.000=../BGAs/04te.mp4=1.000=0=0=0=StretchNoLoop====,
99999.000=-nosongbg-=1.000=0=0=0=StretchNoLoop====
;
#FGCHANGES:;

//--------------- dance-single - ----------------
#NOTEDATA:;
#STEPSTYPE:dance-single;
#DESCRIPTION:;
#DIFFICULTY:Beginner;
#METER:2;
#RADARVALUES:0,0,0,0,0;
#CREDIT:forcednature;
#NOTES:
0000
0000
0000
0000
,
0000
0000
0000
0000
,
0000
0000
0000
0000
,
0000
0000
0000
0000
,
0000
0000
0000
0000
,
0100
0000
0000
0000
,
0010
0000
0000
0000
,
1000
0000
0000
0000
,
0001
0000
0000
0000
,
1001
0000
0000
0000
,
0010
0000
0000
0000
,
0100
0000
0000
0000
,
0010
0000
0000
0000
0000
0000
0000
0100
,
0000
0000
0000
0000
,
0000
0000
0000
0000
0000
0000
0000
1001
,
0000
0000
0000
0000
,
0000
0000
0000
0000
0000
0000
0000
0110
,
0000
0000
0000
0010
,
0000
0000
0000
0000
0000
0000
0000
1001
,
0000
0000
0000
0100
,
0000
0000
0000
0000
0000
0000
0000
0110
,
0000
0000
0000
0001
,
0000
0000
0000
0000
0000
0000
0000
1001
,
0000
0000
0000
1000
,
0000
0000
0000
0000
,
1001
0000
0000
0000
,
0010
0000
0000
0000
,
1001
0000
0000
0000
,
0100
0000
0000
0000
,
0110
0000
0000
0000
,
1000
0000
0000
0000
,
0110
0000
0000
0000
,
0001
0000
0000
0000
,
1001
0000
0000
0000
,
0100
0000
0100
0000
,
1001
0000
0000
0000
,
0010
0000
0010
0000
,
0110
0000
0000
0000
,
1000
0000
1000
0000
,
0110
0000
0000
0000
,
0001
0000
0001
0000
,
1001
0000
0000
0000
,
0100
0000
0100
0000
,
1001
0000
0000
0000
,
0010
0000
0010
0000
,
0110
0000
0000
0000
,
1000
0000
1000
0000
,
0110
0000
0000
0000
,
0001
0000
0001
0000
;

//--------------- dance-single - ----------------
#NOTEDATA:;
#STEPSTYPE:dance-single;
#DESCRIPTION:;
#DIFFICULTY:Easy;
#METER:7;
#RADARVALUES:0,0,0,0,0;
#CREDIT:forcednature;
#NOTES:
0000
0000
0000
0000
,
0000
0000
0000
0000
,
0000
0000
0000
0000
,
0000
0000
0000
0000
,
0000
0000
0000
0000
,
1001
0001
0100
0100
,
0010
1000
0100
0100
,
1001
0010
0001
1000
,
0001
0000
0001
0000
0100
0000
0000
0010
,
1000
0001
1000
0100
,
0010
1001
0001
0100
,
1001
1000
0010
1000
,
0100
0000
1001
0000
0010
0000
0000
0110
,
0000
1000
0000
1000
,
0000
0000
0001
0000
0000
0000
0000
1001
,
0000
0010
0000
0010
,
0000
0000
0100
0000
0000
0000
0000
1001
,
0000
0000
0000
0000
1000
0000
0000
0010
0000
0000
0010
0000
0000
0000
0000
0000
,
0100
0000
0000
0000
0001
0000
0000
0010
0000
0000
0010
0000
0000
0000
1001
0000
,
0000
0000
0000
0000
0001
0000
0000
1000
0000
0000
1000
0000
0000
0000
0000
0000
,
0010
0000
0000
0000
0100
0000
0000
0001
0000
0000
0001
0000
0000
0000
1001
0000
,
0000
0000
0000
0000
1000
0000
0000
0100
0000
0000
0100
0000
0000
0000
0000
0000
,
0010
0000
0000
0000
0001
0000
0000
0100
0000
0000
0100
0000
0000
0000
0110
0000
,
0000
0000
0000
0000
0001
0000
0000
1000
0000
0000
1000
0000
0000
0000
0000
0000
,
0010
0000
0000
0000
1000
0000
0000
0100
0000
0000
0100
0000
0000
0000
0000
0000
,
1001
0000
0010
0010
,
0010
0010
0010
0010
,
1001
0000
0100
0100
,
0100
0100
0100
0100
,
0110
0000
1000
1000
,
1000
1000
1000
1000
,
0110
0000
0001
0001
,
0001
0001
0001
0001
,
1001
0000
1000
0000
0100
1000
0100
0000
,
0010
0000
0001
0000
0100
0001
0100
0000
,
0110
0000
0001
0000
1000
0010
1000
0000
,
0100
0000
0010
0000
0001
0010
0001
0000
,
1001
0000
0001
0000
1000
0010
1000
0000
,
0100
0000
0010
0000
0001
0100
0001
0000
,
1001
0000
1000
0000
0100
0010
0100
0000
,
1000
0000
0001
0000
0100
0010
0100
0000
,
1001
0001
0100
0001
,
1000
0100
1000
0000
0100
1000
0100
0000
,
1001
0001
0100
0010
,
0100
0001
0100
0000
0001
0100
0000
0000
,
1001
0000
1000
0000
0010
1000
0010
0000
,
0100
0000
0001
0000
0010
0001
0010
0000
,
1001
0000
0100
0000
1000
0010
0100
0000
,
1001
0000
0001
0000
0100
0100
0100
0000
;

//--------------- dance-single - ----------------
#NOTEDATA:;
#STEPSTYPE:dance-single;
#DESCRIPTION:;
#DIFFICULTY:Medium;
#METER:11;
#RADARVALUES:0,0,0,0,0;
#CREDIT:forcednature;
#NOTES:
0000
0000
0000
0000
,
0000
0000
0000
0000
,
0000
0000
0000
0000
,
0000
0000
0000
0000
,
0000
0000
0000
0000
,
1001
0000
0000
0000
0101
0000
0000
0100
0000
0000
0010
0000
1000
0000
0000
0000
,
1001
0000
0000
0000
1100
0000
0000
0010
0000
0000
0001
0000
0100
0000
0000
0000
,
0110
0000
0000
0000
1001
0000
0000
1000
0000
0000
0100
0000
1000
0000
0000
0000
,
0110
0000
0000
0000
0101
0000
0000
0001
0000
0000
0010
0000
0000
0000
0100
0000
,
1100
0000
0000
0000
1010
0000
0000
0001
0000
0000
0100
0000
0001
0000
0000
0000
,
0011
0000
0000
0000
1001
0000
0000
0001
0000
0000
0100
0000
1000
0000
0000
0000
,
0110
0000
0000
0000
0011
0000
0000
1000
0000
0000
0010
0000
0100
0000
0000
0000
,
0110
0000
0000
0000
1100
0000
0000
0001
0000
0000
1000
0000
0000
0000
0110
0000
,
0000
0000
0001
0000
0001
0000
0000
0100
0000
0000
1000
0000
0000
0000
0100
0000
,
0000
0000
0010
0000
0010
0000
0000
0100
0000
0000
0001
0000
0000
0000
1001
0000
,
0000
0000
1000
0000
1000
0000
0000
0100
0000
0000
0001
0000
0000
0000
0100
0000
,
0000
0000
0010
0000
0010
0000
0000
0001
0000
0000
1000
0000
0000
0000
1001
0000
,
0000
0000
0001
0000
0100
0000
0000
1010
0000
0000
0101
0000
0000
0000
0001
0000
,
0010
0000
0100
0000
1000
0000
0000
1100
0000
0000
0011
0000
0000
0000
1001
0000
,
0000
0000
0001
0000
0100
0000
0000
1100
0000
0000
0101
0000
0000
0000
0010
0000
,
1000
0000
0001
0000
0010
0000
0000
0110
0000
0000
1001
0000
0000
0000
1010
0000
,
0000
0000
0001
0000
0100
0000
0000
0101
0000
0000
0011
0000
0000
0000
1000
0000
,
0100
0000
1000
0000
0010
0000
0000
1001
0000
0000
0110
0000
0000
0000
1100
0000
,
0000
0000
0001
0000
0100
0000
0000
1100
0000
0000
0101
0000
0000
0000
0010
0000
,
0100
0000
1000
0000
0001
0000
0000
1010
0000
0000
0011
0000
0000
0000
1000
0000
,
1001
0001
0100
0010
,
1000
1000
1000
1000
1000
1000
1000
1000
,
1001
1000
0100
0010
,
0100
0100
0100
0100
0100
0100
0100
0100
,
1001
0001
1000
0100
,
0010
0010
0010
0010
0010
0010
0010
0010
,
1001
1000
0100
0010
,
0001
0000
0001
0000
0001
0000
0001
0000
0001
0000
0001
0000
0001
0100
0001
0000
,
1001
0000
1000
0100
1000
0010
0100
0001
,
0100
1000
0100
0001
0100
0010
1000
0000
,
1001
0000
1000
0100
0001
0100
0010
1000
,
0010
0001
1000
0001
0100
0010
1000
0000
,
1001
0000
0001
0100
0001
0010
0100
0001
,
0100
0010
0001
1000
0010
0100
0001
0000
,
1001
0000
1000
0010
1000
0100
0001
0100
,
1000
0000
0010
0000
0100
0000
0001
0000
1000
0000
0001
1000
0001
0000
0000
0000
,
1000
0100
0000
1000
0100
0000
0000
0010
0000
0000
0001
0000
0100
0000
0000
0000
,
0010
1000
0000
0010
1000
0000
0000
0001
0000
0000
0100
0000
0001
0000
0000
0000
,
1000
0001
0000
1000
0001
0000
0000
0010
0000
0000
0100
0000
0010
0000
0000
0000
,
0001
0100
0000
0001
0100
0000
0000
0010
0000
1000
0001
1000
0000
0000
0000
0000
,
1001
0000
0000
1000
0100
0000
0010
0001
0000
0000
0100
0000
0010
0000
1000
0000
,
0001
0000
0000
0010
0001
0000
1000
0010
0000
0000
0100
0000
0001
0000
1000
0000
,
1001
0000
0000
1000
0100
0000
1000
0001
0000
0000
0100
0000
0010
0000
1000
0000
,
0001
0000
0010
0000
0100
0000
1000
0000
0001
0100
0001
0000
1000
0100
0000
0000
;

//--------------- dance-single - ----------------
#NOTEDATA:;
#STEPSTYPE:dance-single;
#DESCRIPTION:;
#DIFFICULTY:Hard;
#METER:15;
#RADARVALUES:0,0,0,0,0;
#CREDIT:forcednature;
#NOTES:
0000
0000
0000
0000
,
0000
0000
0000
0000
,
0000
0000
0000
0000
,
0000
0000
0000
0000
,
0000
0000
0000
0000
,
1001
0000
0000
1000
0001
0000
0000
0100
0000
0100
0001
0000
1000
0010
0000
1000
,
0001
0000
0000
0010
0001
0000
0000
1000
0000
1000
0010
0000
0100
0001
0000
0010
,
0100
0000
0000
1000
0001
0000
0000
1000
0000
1000
0010
0000
1000
0100
0000
0010
,
0100
0000
0000
1000
0001
0000
0000
0100
0000
0100
0010
0000
0000
0000
0100
0000
,
1001
0000
0000
0001
0100
0000
0000
0100
0000
0010
1000
0000
0001
0010
0000
0100
,
1000
0000
0000
0010
0100
0000
0000
0100
0000
0001
1000
0000
0100
1000
0000
0010
,
0100
0000
0000
0001
0010
0000
0000
0010
0000
0001
1000
0000
0010
0100
0000
0001
,
1000
0000
0000
0100
0010
0000
0000
0010
0000
0100
1000
0000
0010
0000
1001
0000
,
0000
0000
0100
0000
0100
0000
0000
0001
0000
0000
0010
0000
0010
0000
0100
1000
,
0000
0000
0010
0000
0010
0000
0000
0100
0000
0000
0001
1000
0000
0000
1001
0000
,
0000
0000
1000
0000
1000
0000
0000
0100
0000
0000
0010
0000
0010
0000
0001
1000
,
0000
0000
0010
0000
0010
0000
0000
0100
0000
0000
0001
1000
0000
0000
1001
0000
,
0000
0000
1000
0000
0100
1000
0000
1010
0000
0000
0101
0000
0001
0000
0010
0000
,
0001
0000
0100
0000
0010
1000
0000
0101
0000
0000
1100
0000
0000
0000
1001
0000
,
0000
0000
1000
0000
0010
0100
0000
0011
0000
0000
1100
0000
0001
0000
0100
0000
,
0010
0000
1000
0000
0001
0010
0000
0101
0000
0000
1100
0000
0000
0000
1001
0000
,
0000
0000
1000
0000
0010
0100
0000
0101
0000
0000
0110
0000
1000
0001
1000
0000
,
0100
0000
0010
0000
0100
1000
0000
1001
0000
0001
0100
0000
0010
1000
0001
0000
,
0000
0000
1000
0000
0100
0010
0000
0101
0000
0000
1001
0000
1000
0010
0100
0001
,
1000
0000
0100
1000
0001
0010
0001
1000
0000
1000
0010
0100
0001
1000
0100
0010
,
0001
0000
0001
1000
0010
0000
0100
0100
,
0001
0100
0001
0100
0001
0100
0001
0100
0001
0100
0001
0100
0001
0100
0001
0100
,
0001
0000
0010
0100
0100
0000
1000
0010
,
1000
0100
1000
0010
0000
0100
0001
0010
0000
0100
0000
1000
0001
1000
0001
0000
,
0101
0000
0000
0001
0010
0000
0000
0100
0000
0100
1000
0000
0001
1000
0001
0000
,
1000
0100
1000
0100
1000
0100
1000
0100
1000
0100
1000
0100
1000
0100
1000
0100
,
0010
0000
0000
0010
0001
0000
0000
0100
0000
0100
0010
0000
1000
0001
1000
0000
,
0001
1000
0001
1000
0001
1000
0001
1000
0001
0100
0010
1000
0100
0010
0001
0000
,
1001
0000
1000
0100
0010
0000
0100
0010
0000
0010
0001
0000
1000
0010
0100
0000
,
0001
0100
0001
0100
0010
0100
0010
0100
1000
0100
1000
0100
0010
0100
0010
0100
,
0001
0000
0010
0001
0100
0000
0001
0100
0000
0100
0010
0000
1000
0001
1000
0000
,
0001
0010
0001
0010
1000
0010
1000
0010
0001
1000
0010
0100
0001
1000
0000
0000
,
1001
0000
1000
0001
0010
0000
0010
0100
0000
0100
1000
0000
0001
1000
0001
0000
,
1000
0100
0010
0100
0001
0100
0010
0100
1000
0001
1000
0010
0100
0001
0010
0100
,
1000
0000
0100
0010
0001
0000
0001
0100
0000
0100
1000
0000
0100
0001
0100
0000
,
0010
0001
0010
0100
0010
1000
0010
0100
0001
1000
0100
0010
0001
1000
0000
0001
,
1000
0001
0000
1000
0010
0000
0100
0001
0100
0010
1000
0000
0001
0010
0000
0100
,
0010
0100
0000
1000
0001
0000
1000
0010
0100
0001
1000
0000
0100
1000
0000
0001
,
0100
0001
0000
1000
0010
0000
1000
0100
0010
0100
1000
0000
0001
0100
0000
0010
,
1000
0001
0000
0010
0001
0000
0100
0010
0100
0001
1000
0001
0000
0000
0000
0000
,
1000
0100
0000
0001
0100
0000
0010
0001
0100
0010
1000
0000
0001
0100
0010
0100
,
0001
1000
0000
0010
0100
0000
1000
0100
0010
0100
0001
0000
1000
0001
1000
0100
,
0010
0001
0000
1000
0010
0000
0100
1000
0100
0001
0100
0000
0010
1000
0001
0010
,
0100
1000
0100
0001
0100
1000
0100
0001
0100
0010
0001
1000
0010
0100
0000
0000
;

//--------------- dance-single - ----------------
#NOTEDATA:;
#STEPSTYPE:dance-single;
#DESCRIPTION:;
#DIFFICULTY:Challenge;
#METER:16;
#RADARVALUES:0,0,0,0,0;
#OFFSET:1.616;
#BPMS:0.000=124.998
,51.500=31.250
,51.750=124.998
,58.750=31.249
,59.000=124.998
,66.000=31.250
,66.250=124.998
,73.250=31.249
,73.500=124.998
,80.500=31.250
,80.750=124.998
,87.750=31.249
,88.000=124.998
;
#TIMESIGNATURES:0.000=4=4;
#CREDIT:forcednature;
#NOTES:
0000
0000
0000
0000
,
0000
0000
0000
0000
,
0000
0000
0000
0000
,
0000
0000
0000
0000
,
0000
0000
0000
0000
,
1001
0000
0001
0100
1000
0000
0100
0010
0000
0010
1000
0000
0001
0000
1000
0100
,
0001
0000
0100
0010
0001
0000
1000
0010
0000
0010
0100
0000
0001
0000
0010
0100
,
1000
0000
0001
0010
1000
0000
0010
0100
0000
0100
1000
0000
0001
0000
0100
1000
,
0100
0000
0010
1000
0001
0000
0010
0001
0000
0001
0100
0000
0000
0000
1001
0000
,
0110
0000
1000
0100
0010
0000
0001
0100
0010
0000
1000
0100
0001
0100
0010
0001
,
1000
0000
0010
0100
0001
0000
0010
0100
1000
0000
0010
1000
0001
0100
1000
0100
,
0010
0000
1000
0001
0010
0000
0001
1000
0010
0000
0100
0001
0010
0001
1000
0010
,
0100
0000
0001
1000
0100
0000
1000
0001
0100
0001
0020
0000
0130
0000
1001
0001
,
0100
0010
1000
0000
0001
0000
0000
0100
0010
1000
0010
0000
0010
0100
0001
0010
,
0001
0100
0010
0000
1000
0000
0000
0001
0010
0000
0000
1001
1000
0100
0010
0001
,
0000
0100
0000
0000
0010
1000
0001
0010
0001
0100
0010
1000
0001
0010
0100
1000
,
0000
0010
0000
0000
0100
0001
0000
0000
0110
0101
0000
1000
0000
0000
0110
0000
,
0000
1001
0000
0001
0000
0100
0010
1000
0000
0100
0001
0100
0000
0010
0001
0000
,
0001
1000
0000
0010
0100
0110
1001
0000
0100
0001
0000
0110
0000
0000
1001
0000
,
0001
1000
0100
0010
0001
0000
0100
0010
1000
0000
0001
0100
0000
1000
0100
0000
,
0001
1000
1001
0001
0100
0010
1000
0001
1000
0000
0000
0100
0010
0100
1000
0010
,
0100
1000
0100
0010
1000
0100
0010
0001
0100
0000
0010
0100
0000
0001
1000
1100
,
0001
0000
0100
0000
0010
0000
0001
0000
0010
0000
0100
0000
0000
0000
0001
0000
0010
0000
0100
0000
1000
0000
0001
0000
0100
0001
0100
0001
0100
0000
0000
0000
,
0010
1000
0001
1000
0100
0010
0000
0001
0010
1000
0010
0001
0100
0000
1001
0000
,
0000
0000
0000
0000
0000
0000
0001
0001
,
0000
0000
0000
0000
0000
0000
0000
0000
0000
0000
0000
0000
0000
0000
0000
0000
0000
0000
0000
0000
1000
0100
0010
0000
0001
0000
0000
0000
1001
0000
0000
0000
,
0000
0000
0000
0000
0000
0000
0000
0000
0000
0000
0000
0000
1000
0000
1000
0001
,
0000
0000
0100
0000
0000
0000
0010
0000
1000
0000
0001
0000
0000
0000
0010
0000
0000
0000
0100
0000
1000
0000
0001
0100
0001
0000
0000
0000
1001
0000
0000
0000
,
1000
0100
1000
0010
1000
0100
1000
1001
,
0001
0100
0001
0010
0001
0100
0001
1001
,
1000
0010
1000
0100
1000
0010
1000
1001
,
0001
0000
0000
0000
0010
0000
0000
0000
0010
0000
0000
0000
0100
0000
1000
0000
0001
0000
0100
0000
0010
1000
0010
1000
0010
0000
0000
0000
1001
0000
0000
0000
,
0001
0100
0010
0000
1000
0001
0000
0000
1000
0100
0010
0000
0100
1000
0010
0000
,
0100
0001
0010
0000
0001
1000
0000
0000
0010
0100
0001
0000
0010
0100
0110
0000
,
1000
0010
0100
0000
0001
1000
0000
0000
0100
0001
0100
0000
0010
0001
1000
0000
,
0010
0100
1000
0000
0100
0010
0000
0000
1000
0100
0001
0100
1000
0100
0110
0000
,
0001
1000
0010
0000
1000
0100
0010
0000
0100
1000
0001
0000
0100
0010
1000
0000
,
0001
0010
0100
0000
1000
0001
0100
0010
1000
0000
0001
0000
0010
0100
1100
0000
,
0001
1000
0010
0000
0100
0001
0010
0000
0100
0001
0100
0010
0100
1000
0001
0000
,
0100
0010
1000
0000
0100
0010
0001
0000
0100
0010
0100
0010
0000
0000
1000
0001
,
1000
0010
1000
0100
0010
0100
0000
1000
0001
0000
0100
0010
0000
0000
1000
0001
,
0010
0001
0100
0010
1000
0001
0000
0010
1000
0000
0010
0001
0000
0000
1000
0001
,
0100
0010
0100
1000
0100
0001
0000
0010
0100
0000
1000
0001
0000
0000
1000
0010
,
1000
0001
1000
0100
0001
0100
0000
0010
0001
0001
0000
0000
0000
0000
0110
0000
,
0001
0100
1000
0000
0100
0010
1000
0100
0010
1000
0010
0001
1000
0001
0100
0000
,
0010
1000
0001
0000
0100
1000
0100
0010
1000
0001
0010
0100
0001
0100
0010
0000
,
0001
0000
1000
0000
0010
0000
0000
0000
0100
0000
0001
0000
1000
0000
0010
0000
0100
0000
1000
0000
0100
0000
0010
0000
0100
0000
0001
0000
1000
0000
0100
0010
,
0001
0100
0001
0010
1000
0010
0001
0100
1000
0100
0010
0110
0000
0000
0000
0000
;

//--------------- dance-double - ----------------
#NOTEDATA:;
#STEPSTYPE:dance-double;
#DESCRIPTION:;
#DIFFICULTY:Easy;
#METER:7;
#RADARVALUES:0,0,0,0,0;
#CREDIT:forcednature;
#NOTES:
00000000
00000000
00000000
00000000
,
00000000
00000000
00000000
00000000
,
00000000
00000000
00000000
00000000
,
00000000
00000000
00000000
00000000
,
00000000
00000000
00000000
00000000
,
01001000
00001000
00010000
00000010
,
00001000
00000100
00000010
00000001
,
00000110
00001000
00010000
01000000
,
10000000
00000000
00100000
00000000
10000000
00010000
00000000
00000000
,
10010000
00010000
01000000
00001000
,
00010000
00000100
00000010
00000001
,
00000110
00001000
00010000
01000000
,
00010000
00000000
00001000
00000000
00000100
00000000
00000000
00011000
,
00000000
00100000
00000000
00100000
,
00000000
00000000
00010000
00000000
00000000
00000000
00000000
00011000
,
00000000
00000010
00000000
00000010
,
00000000
00000000
00001000
00000000
00000000
00000000
00000000
00011000
,
00000000
00000000
00000000
00000000
01000000
00000000
00000000
00010000
00000000
00000000
10000000
00000000
00000000
00000000
00000000
00000000
,
01000000
00000000
00000000
00000000
10000000
00000000
00000000
00010000
00000000
00000000
01000000
00000000
00000000
00000000
00011000
00000000
,
00000000
00000000
00000000
00000000
00000100
00000000
00000000
00001000
00000000
00000000
00000001
00000000
00000000
00000000
00000000
00000000
,
00000001
00000000
00000000
00000000
00001000
00000000
00000000
00000010
00000000
00000000
00000100
00000000
00000000
00000000
00001001
00000000
,
00000000
00000000
00000000
00000000
00000001
00000000
00000000
00000010
00000000
00000000
00000100
00000000
00000000
00000000
00000000
00000000
,
00001000
00000000
00000000
00000000
00010000
00000000
00000000
00100000
00000000
00000000
01000000
00000000
00000000
00000000
10010000
00000000
,
00000000
00000000
00000000
00000000
10000000
00000000
00000000
00100000
00000000
00000000
01000000
00000000
00000000
00000000
00000000
00000000
,
00010000
00000000
00000000
00000000
00001000
00000000
00000000
00000010
00000000
00000000
00000100
00000000
00000000
00000000
00000000
00000000
,
00001001
00000000
00001000
00001000
,
00001000
00001000
00001000
00001000
,
10010000
00000000
00010000
00010000
,
00010000
00010000
00010000
00010000
,
00001100
00000000
00000010
00000010
,
00000010
00000010
00000010
00000010
,
01010000
00000000
00100000
00100000
,
00100000
00100000
00100000
00100000
,
10010000
00000000
10000000
01000000
,
00100000
00010000
00001000
00000100
,
00001001
00000000
00000001
00000100
,
00000010
00001000
00010000
01000000
,
10010000
00000000
10000000
01000000
,
00010000
00001000
00000100
00000001
,
00001001
00000000
00000001
00000100
,
00001000
00010000
01000000
10000000
,
10010000
00000000
10000000
00000000
00100000
01000000
00100000
00000000
,
10000000
01000000
00010000
00001000
,
00000110
00000000
00000001
00000000
00001000
00000010
00001000
00000000
,
00000100
00000000
00000010
00000000
00000001
00001000
00000000
00000000
,
00001001
00000000
00000001
00000000
00000100
00001000
00000100
00000000
,
00001000
00000000
00010000
00000000
01000000
00010000
01000000
00000000
,
10010000
00000000
10000000
00000000
01000000
00010000
01000000
00000000
,
00010000
00000000
00001000
00000000
00000100
00000001
00000100
00000000
;

//--------------- dance-double - ----------------
#NOTEDATA:;
#STEPSTYPE:dance-double;
#DESCRIPTION:;
#DIFFICULTY:Medium;
#METER:11;
#RADARVALUES:0,0,0,0,0;
#CREDIT:forcednature;
#NOTES:
00000000
00000000
00000000
00000000
,
00000000
00000000
00000000
00000000
,
00000000
00000000
00000000
00000000
,
00000000
00000000
00000000
00000000
,
00000000
00000000
00000000
00000000
,
00011000
00000000
00000000
00000000
01000000
00000000
00000000
00010000
00000000
00000000
10000000
00000000
00100000
00000000
00000000
00000000
,
11000000
00000000
00000000
00000000
00100000
00000000
00000000
00001000
00000000
00000000
00010000
00000000
00000100
00000000
00000000
00000000
,
00001001
00000000
00000000
00000000
00000001
00000000
00000000
00000100
00000000
00000000
00000010
00000000
00001000
00000000
00000000
00000000
,
00011000
00000000
00000000
00000000
01000000
00000000
00000000
00001000
00000000
00000000
00100000
00000000
00000000
00000000
01000000
00000000
,
10010000
00000000
00000000
00000000
00100000
00000000
00000000
00010000
00000000
00000000
00001000
00000000
00000100
00000000
00000000
00000000
,
00000010
00000000
00000000
00000000
00000101
00000000
00000000
00000010
00000000
00000000
00001000
00000000
00010000
00000000
00000000
00000000
,
00100000
00000000
00000000
00000000
10010000
00000000
00000000
00010000
00000000
00000000
01000000
00000000
00001000
00000000
00000000
00000000
,
00010000
00000000
00000000
00000000
00001100
00000000
00000000
00000001
00000000
00000000
00000010
00000000
00000000
00000000
00001001
00000000
,
00000000
00000000
00000001
00000000
00000001
00000000
00000000
00000100
00000000
00000000
00001000
00000000
00001000
00000000
00000000
00000000
,
00010000
00000000
00100000
00000000
00100000
00000000
00000000
10000000
00000000
00000000
00010000
00000000
00000000
00000000
10010000
00000000
,
00000000
00000000
10000000
00000000
10000000
00000000
00000000
01000000
00000000
00000000
00010000
00000000
00010000
00000000
00000000
00000000
,
00001000
00000000
00000010
00000000
00000010
00000000
00000000
00000001
00000000
00000000
00000001
00000000
00000000
00000000
00001001
00000000
,
00000000
00000000
00000001
00000000
00000100
00000000
00000000
00000010
00000000
00000000
00001001
00000000
00000000
00000000
00001000
00000000
,
00000100
00000000
00010000
00000000
00001000
00000000
00000000
01000000
00000000
00000000
10010000
00000000
00000000
00000000
01100000
00000000
,
00000000
00000000
00010000
00000000
10000000
00000000
00000000
01010000
00000000
00000000
11000000
00000000
00000000
00000000
00100000
00000000
,
00010000
00000000
00001000
00000000
00000010
00000000
00000000
00001100
00000000
00000000
00000101
00000000
00000000
00000000
00001001
00000000
,
00000000
00000000
00000001
00000000
00000010
00000000
00000000
00001100
00000000
00000000
00010100
00000000
00000000
00000000
00010000
00000000
,
00001000
00000000
01000000
00000000
00010000
00000000
00000000
10010000
00000000
00000000
10100000
00000000
00000000
00000000
01010000
00000000
,
00000000
00000000
10000000
00000000
01000000
00000000
00000000
01100000
00000000
00000000
00101000
00000000
00000000
00000000
00010000
00000000
,
00000100
00000000
00000010
00000000
00000001
00000000
00000000
00000110
00000000
00000000
00000101
00000000
00000000
00000000
00001000
00000001
,
00001000
00000010
00000100
00000100
,
00000001
00001000
00000001
00001000
00000001
00001000
00000001
00000000
,
00011000
01000000
00010000
00100000
,
00010000
10000000
00010000
10000000
00010000
10000000
00010000
00000000
,
10010000
00010000
01000000
00001000
,
00010000
00000010
00010000
00000010
00000100
00000001
00000100
00000001
,
00000110
00000001
00000010
00000100
,
00010000
00000000
00000100
00000000
00010000
00000000
00000100
00000000
00010000
00000000
00001000
00000000
00010000
00001000
00010000
00000000
,
00011000
00000000
00000100
00010000
00001000
00100000
00001000
00000000
,
00010000
00100000
01000000
00010000
10000000
01000000
00100000
00000000
,
01100000
00000000
01000000
10000000
00010000
01000000
00001000
00000000
,
00010000
00000010
00001000
00000001
00000010
00000100
00001000
00000000
,
00000101
00000000
00001000
00000100
00000010
00001000
00010000
00000000
,
00100000
00010000
00001000
00000010
00001000
00010000
01000000
00000000
,
10010000
00000000
00010000
01000000
00001000
00010000
00000100
00000000
,
00000010
00000000
00000001
00000000
00000100
00000000
00000010
00000000
00000100
00000000
00001000
00000000
00010000
00001000
00010000
00000000
,
00100000
00000000
00000000
10000000
00010000
00000000
00000000
00100000
00000000
00000000
01000000
00000000
00010000
00000000
00000000
00000000
,
00001000
00000000
00000000
00000010
00000001
00000000
00000000
00001000
00000000
00000000
00000001
00000000
00000100
00000000
00000000
00000000
,
00000010
00000000
00000000
00000100
00001000
00000000
00000000
00010000
00000000
00000000
00100000
00000000
01000000
00000000
00000000
00000000
,
00010000
00000000
00000000
10000000
01000000
00000000
00000000
00100000
00000000
00000000
00001000
00010000
00000000
00000000
00000000
00000000
,
00001100
00000000
00000000
00001000
00000001
00000000
00000000
00000100
00000010
00000000
00000100
00000000
00001000
00000000
00000000
00000000
,
00010000
00000000
00000000
00100000
10000000
00000000
00000000
00100000
01000000
00000000
00010000
00000000
10000000
00000000
00000000
00000000
,
10010000
00000000
00000000
10000000
01000000
00000000
00000000
00100000
00001000
00000000
00010000
00000000
00000010
00000000
00000000
00000000
,
00000100
00000000
00000001
00000000
00000100
00000010
00000100
00000000
00001000
00000000
00010000
00000000
00100000
10000000
00000000
00000000
;

//--------------- dance-double - ----------------
#NOTEDATA:;
#STEPSTYPE:dance-double;
#DESCRIPTION:;
#DIFFICULTY:Hard;
#METER:16;
#RADARVALUES:0,0,0,0,0;
#CREDIT:forcednature;
#NOTES:
00000000
00000000
00000000
00000000
,
00000000
00000000
00000000
00000000
,
00000000
00000000
00000000
00000000
,
00000000
00000000
00000000
00000000
,
00000000
00000000
00000000
00000000
,
00011000
00000000
00000000
00001000
01000000
00000000
00000000
01000000
00000000
00100000
10000000
00000000
00010000
00000000
00000000
10000000
,
01000000
00000000
00000000
00100000
00010000
00000000
00000000
00010000
00000000
00000010
00001000
00000000
00010000
00000000
00000000
00000010
,
00001000
00000000
00000000
00000001
00000010
00000000
00000000
00000100
00000000
00000100
00010000
00000000
01000000
00000000
00000000
00100000
,
00010000
00000000
00000000
10000000
00100000
00000000
00000000
01000000
00000000
01000000
00001000
00000000
00000000
00000000
00011000
00000000
,
00010100
00000000
00000000
00000100
00001000
00000000
00000000
00000001
00000000
00000001
00001000
00000000
00000010
00000000
00000000
00000100
,
00001000
00000000
00000000
00001000
00010000
00000000
00000000
00100000
00000000
00100000
10000000
00000000
00010000
00000000
00000000
00100000
,
01000000
00000000
00000000
01000000
00010000
00000000
00000000
00001000
00000000
00001000
00000010
00000000
00000001
00000000
00000000
00001000
,
00000010
00000000
00000000
00010000
00001000
00000000
00000000
00010000
00000000
00010000
01000000
00000000
00000000
00000000
10010000
00000000
,
00000000
00000000
10000000
00000000
00100000
00000000
00000000
10000000
00000000
00000000
01000000
00000000
00010000
00000000
00010000
00001000
,
00000000
00000000
00000010
00000000
00000001
00000000
00000000
00000100
00000000
00000000
00001000
00000000
00000000
00000000
00011000
00000000
,
00000000
00000000
00100000
00000000
00001000
00000000
00000000
00010000
00000000
00000000
00000010
00000000
00010000
00000000
00010000
00001000
,
00000000
00000000
00000010
00000000
00000100
00000000
00000000
00001000
00000000
00000000
00000001
00000000
00000000
00000000
00000110
00000000
,
00000000
00000000
00000001
00000000
00000100
00001000
00000000
00001100
00000000
00000000
00011000
00000000
00000000
00000000
00010000
00000000
,
01000000
00000000
10000000
00000000
00010000
10000000
00000000
10100000
00000000
00000000
00110000
00000000
00000000
00000000
10010000
00000000
,
00000000
00000000
10000000
00000000
01000000
00010000
00000000
00011000
00000000
00000000
00001010
00000000
00000000
00000000
00000001
00000000
,
00001000
00000000
00000001
00000000
00000100
00001000
00000000
00011000
00000000
00000000
00110000
00000000
00000000
00000000
10010000
00000000
,
00000000
00000000
10000000
00000000
01000000
10000000
00000000
00100000
00000000
01000000
00010000
00000000
00100000
01000000
00000000
01000000
,
00010000
00000000
00001000
00000000
00000010
00000001
00000000
00000100
00000000
00000010
00001000
00000000
00010000
01000000
00010000
00000000
,
00000000
00000000
10000000
00000000
01000000
00100000
00000000
01000000
00000000
10000000
00010000
00000000
01000000
00100000
00000000
00010000
,
00001000
00010000
00000000
00000100
00001000
00000000
00000001
00000100
00000000
00000010
00001000
00000000
00000100
00000010
00000100
00000000
,
00001001
00000001
00001000
00010000
,
10000000
01000000
10000000
01000000
10000000
01000000
10000000
01000000
10000000
01000000
10000000
01000000
10000000
01000000
10000000
01000000
,
10000000
00010000
00001000
00000001
,
00000001
00000100
00000001
00000100
00000010
00001000
00000010
00001000
00000000
00000100
00000000
00000010
00001000
00010000
00001000
00000000
,
00011000
00000000
00000000
00001000
00100000
00000000
00000000
00010000
00000000
10000000
00100000
00000000
01000000
00000000
00000000
00000000
,
00001000
00010000
00001000
00010000
01000000
00010000
01000000
00010000
00001000
00010000
00001000
00010000
00001000
00000100
00001000
00000100
,
00001000
00000000
00000000
00010000
00000100
00000000
00000000
00001000
00000000
00001000
00000001
00000000
00000100
00000010
00000100
00000000
,
00001000
00010000
00001000
00010000
00100000
00010000
00100000
00010000
00100000
10000000
00100000
10000000
01000000
10000000
01000000
10000000
,
01000000
00000000
00100000
00010000
01000000
00000000
00001000
00010000
00000000
00010000
00001000
00000000
00000010
00000100
00000010
00000000
,
00000001
00000100
00000001
00000100
00001000
00000100
00001000
00000100
00001000
00010000
00001000
00010000
00100000
00010000
00100000
00010000
,
00100000
10000000
00000000
10000000
01000000
00000000
00100000
01000000
00000000
10000000
00010000
00000000
01000000
00010000
01000000
00000000
,
00001000
00010000
00001000
00010000
00001000
00000100
00001000
00000100
00000001
00000010
00000001
00000010
00000100
00001000
00000010
00000000
,
00001001
00000000
00000000
00000001
00000100
00000000
00000100
00000010
00000000
00000100
00001000
00000000
00010000
00100000
00010000
00000000
,
00001000
00000010
00001000
00000010
00001000
00010000
00001000
00010000
00001000
00100000
00001000
00100000
00001000
00010000
00001000
00010000
,
00001000
00000100
00000000
00001000
00000100
00000000
00000100
00000001
00000000
00000001
00000010
00000000
00000100
00001000
00000100
00000000
,
00010000
00001000
00010000
00001000
00010000
00100000
00010000
00100000
10000000
00010000
10000000
01000000
00100000
00010000
00000000
00000000
,
01000000
00001000
00000000
00001000
00010000
00000000
00010000
00000010
00000000
00010000
00000100
00001000
00000001
00000100
00000000
00000100
,
00000010
00001000
00000000
00000001
00000010
00000000
00000100
00001000
00000000
00000010
00010000
00001000
01000000
00010000
00000000
10000000
,
01000000
00100000
00000000
01000000
10000000
00000000
00010000
01000000
00000000
00001000
00010000
00000100
00010000
00001000
00000000
00100000
,
00001000
00010000
00000000
00000010
00001000
00000000
00000001
00000010
00000100
00001000
00000010
00010000
00000000
00000000
00000000
00000000
,
00001000
00010000
00000000
00010000
00100000
00000000
10000000
01000000
00100000
01000000
10000000
00000000
00010000
01000000
00000000
00001000
,
00010000
00000100
00000000
00010000
00001000
00000000
00000100
00000001
00000010
00000100
00001000
00000000
00000001
00001000
00000000
00000010
,
00001000
00000100
00000000
00000010
00001000
00000000
00010000
00100000
00010000
00001000
00010000
00000000
01000000
10000000
00000000
00010000
,
01000000
00001000
01000000
00001000
00010000
00001000
00010000
00001000
00000010
00001000
00000010
00000100
00000010
00000001
00000000
00000000
;

//--------------- dance-double - ----------------
#NOTEDATA:;
#STEPSTYPE:dance-double;
#DESCRIPTION:;
#DIFFICULTY:Challenge;
#METER:16;
#RADARVALUES:0,0,0,0,0;
#OFFSET:1.616;
#BPMS:0.000=124.998
,51.500=31.250
,51.750=124.998
,58.750=31.249
,59.000=124.998
,66.000=31.250
,66.250=124.998
,73.250=31.249
,73.500=124.998
,80.500=31.250
,80.750=124.998
,87.750=31.249
,88.000=124.998
;
#TIMESIGNATURES:0.000=4=4,
56.000=5=4,
61.000=3=4,
67.000=5=4,
77.000=3=4,
80.000=5=4,
85.000=3=4,
88.000=5=4,
93.000=3=4,
96.000=4=4
;
#DISPLAYBPM:125.000;
#CREDIT:forcednature;
#NOTES:
00000000
00000000
00000000
00000000
,
00000000
00000000
00000000
00000000
,
00000000
00000000
00000000
00000000
,
00000000
00000000
00000000
00000000
,
00000000
00000000
00000000
00000000
,
00011000
00000000
00000000
00010000
00100000
00000000
10000000
00100000
00000000
01000000
00010000
00000000
00100000
00000000
00000000
01000000
,
00010000
00000000
00000000
00001000
00010000
00000000
00000010
00001000
00000000
00000001
00000010
00000000
00000100
00000000
00000000
00001000
,
00000001
00000000
00000000
00000100
00001000
00000000
00010000
00001000
00000000
00100000
00001000
00000000
00010000
00000000
00000000
00100000
,
01000000
00000000
00000000
00010000
01000000
00000000
10000000
01000000
00100000
10000000
00010000
00000000
00000000
00000000
01100000
00000000
,
10010000
00000000
10000000
01000000
00010000
00000000
01000000
00100000
00000000
00010000
00100000
00000000
00001000
00000000
00010000
00000010
,
00001000
00000000
00000100
00001000
00000010
00000000
00000100
00000001
00000000
00000010
00000100
00000000
00000010
00000000
00000001
00000100
,
00001000
00000000
00000100
00000010
00001000
00000000
00000100
00010000
00000000
00001000
01000000
00000000
00010000
00000000
10000000
01000000
,
00010000
00000000
01000000
00100000
00010000
00000000
01000000
00001000
00010000
00001000
00000020
00000000
00000130
00000000
00001001
00000001
,
00000000
00000100
00000000
00000000
00001000
00000000
00000000
00010000
00000000
01000000
00000000
10000000
00100000
00000000
00000000
10000000
,
00000000
01000000
00000000
00000000
00010000
00000000
00000000
00001000
00000000
00000000
00000000
00000110
00000001
00000000
00001000
00000000
,
00000000
00010000
00000000
00000000
10000000
00000000
00100000
00000000
10000000
01000000
00000000
00000000
00100000
00000000
00010000
00000000
,
00000000
01000000
00000000
00000000
00001000
00000000
00000000
00000000
00011000
00000100
00000000
00001000
00000010
00000000
00001010
00000000
,
00000000
00000101
00000000
00000001
00000000
00000010
00000100
00001000
00000000
00000010
00010000
00001000
00000000
00100000
00010000
00000000
,
00010000
01000000
00000000
00100000
10000000
10010000
10000000
01000000
00100000
00010000
00000000
00101000
00000000
00000000
00010100
00000000
,
00000100
00001000
00000001
00001000
00000010
00000000
00000100
00000001
00000010
00000100
00000010
00000001
00000000
00000100
00000001
00000000
,
00000010
00001000
00011000
00100000
00010000
01000000
00010000
00100000
01000000
00000000
01000000
00100000
00000000
00010000
10000000
00100000
,
01000000
00010000
00100000
01000000
00010000
00001000
00000000
00010000
00000100
00000000
00000001
00000100
00000000
00000010
00000001
00001001
,
00001000
00000000
00000010
00000000
00000100
00000000
00001000
00000000
00010000
00000000
00001000
00000000
00000000
00000000
00001000
00000000
00010000
00000000
00000000
00000000
00100000
00000000
10000000
00000000
00010000
01000000
00010000
00000000
10000000
00000000
00000000
00000000
,
01000000
00100000
00010000
00001000
00000100
00000010
00000000
00000010
00000001
00000000
00001000
00000001
00000100
00000000
00000110
00000000
,
00000000
00000000
00000000
00000000
00000000
00000000
00001000
00010000
,
00000000
00000000
00000000
00000000
00000000
00000000
00000000
00000000
00000000
00000000
00000000
00000000
00000000
00000000
00000000
00000000
00000000
00000000
00000000
00000000
01000000
00100000
01000000
00000000
00000000
00000000
00000000
00000000
10010000
00000000
00000000
00000000
,
00000000
00000000
00000000
00000000
00000000
00000000
00000000
00000000
00000000
00000000
00000000
00000000
10000000
00000000
10000000
00010000
,
00000000
00000000
00010000
00000000
00000000
00000000
01000000
00000000
00001000
00000000
01000000
00000000
00000000
00000000
00010000
00000000
00000000
00000000
00100000
00000000
00000000
00000000
00001000
00010000
00001000
00000000
00000000
00000000
00000100
00000000
00000000
00000000
,
00001000
01000000
00001000
00000100
00001000
01000000
01001000
00010100
,
00010000
00000000
01000000
00000000
00010000
00000000
00000100
00000000
00010000
00000000
00001000
00100000
00001000
00010000
00000010
00000000
,
00001000
00100000
00001000
00000010
00001000
00100000
01100000
10010000
,
10000000
00000000
00000000
00000000
00010000
00000000
00000000
00000000
00001000
00000000
00000000
00000000
00000000
00000000
00001000
00000000
00000010
00000000
00000000
00000000
00000100
00000001
00000100
00000000
00000000
00000000
00000000
00000000
00000110
00000000
00000000
00000000
,
00000001
00000100
00001000
00000000
00000100
00000010
00000000
00000000
00000010
00001000
00000100
00000000
00010000
00001000
01000000
00000000
,
00001000
00010000
00100000
00000000
10000000
00010000
00000000
00000000
10000000
01000000
00100000
00000000
01000000
10000000
10010000
00000000
,
00010000
00100000
01000000
00000000
00100000
00001000
00000000
00000000
00010000
00000010
00001000
00000000
00000100
00000010
00000001
00000000
,
00000100
00000010
00001000
00000000
00000001
00000010
00000000
00000000
00000100
00010000
00000100
00001000
00000100
00000010
00000110
00000000
,
00000100
00001000
00000001
00000000
00000100
00000001
00000000
00000000
00001000
00000010
00000100
00000000
00001000
00010000
00100000
00000000
,
01000000
00010000
10000000
00000000
01000000
00100000
00000000
00000000
01000000
10000000
00010000
00000000
01000000
00100000
01100000
00000000
,
01000000
00010000
00100000
00000000
01000000
00010000
00000000
00000000
00001000
00010000
00000010
00000000
00001000
00000100
00000010
00000000
,
00000100
00001000
00000001
00000000
00000100
00000010
00000000
00000000
00001000
00000100
00000010
00000001
00000000
00000000
00000100
00000001
,
00000100
00000010
00000100
00001000
00010000
00100000
00000000
01000000
00010000
00000000
00010000
10000000
00000000
00000000
01000000
10000000
,
01000000
00100000
01000000
00010000
00001000
00000010
00000000
00000100
00001000
00000000
00001000
00000001
00000000
00000000
00000100
00000001
,
00000100
00000010
00000100
00001000
00010000
00100000
00000000
01000000
00010000
00000000
00010000
10000000
00000000
00000000
01000000
10000000
,
01000000
00100000
01000000
00010000
00001000
00000010
00000000
00000100
00001000
00001000
00000000
00000000
00000000
00000000
00000110
00000000
,
00000001
00000100
00001000
00000000
00010000
01000000
10000000
00000000
00100000
10000000
00010000
00100000
01000000
10000000
00100000
00000000
,
10000000
01000000
00010000
00000000
00001000
00000100
00000001
00000000
00000010
00000001
00001000
00000010
00000100
00000001
00000010
00000000
,
00000001
00000100
00001000
00000000
00010000
01000000
10000000
00000000
00100000
10000000
00010000
00100000
01000000
10000000
01000000
00010000
,
00001000
00010000
00000010
00010000
00001000
00010000
00000100
00001000
00000010
00000100
00001000
00001000
00000000
00000000
00000000
00000000
;
