#VERSION:0.83;
#TITLE:Vinculum stellarum;
#SUBTITLE:;
#ARTIST:iconoclasm;
#TITLETRANSLIT:;
#SUBTITLETRANSLIT:;
#ARTISTTRANSLIT:;
#GENRE:ANTHEM TRANCE;
#CREDIT:;
#MUSIC:Vinculum stellarum.ogg;
#BANNER:Vinculum stellarum.png;
#BACKGROUND:Vinculum stellarum-bg.png;
#CDTITLE:./CDTitles/pnm peace.png;
#SAMPLESTART:94.986;
#SAMPLELENGTH:15.000;
#SELECTABLE:YES;
#OFFSET:0.991;
#BPMS:0.000=160.000;
#STOPS:;
#TIMESIGNATURES:0.000=4=4;
#BGCHANGES:0.000=../BGAs/22wh.mp4=1.000=0=0=0=StretchNoLoop====,
99999.000=-nosongbg-=1.000=0=0=0=StretchNoLoop====
;
#FGCHANGES:;

//--------------- dance-single - Pandemonium X ----------------
#NOTEDATA:;
#STEPSTYPE:dance-single;
#DESCRIPTION:Pandemonium X;
#CREDIT:Pandemonium X;
#DIFFICULTY:Beginner;
#METER:7;
#RADARVALUES:0.215369,0.456987,0.309593,0,0,224,178,46,0,0,0,0,0,0,0.215369,0.456987,0.309593,0,0,224,178,46,0,0,0,0,0,0;
#NOTES:
0000
0000
0000
0000
,
0000
0000
0000
0000
,
0000
0000
0000
0000
,
0000
0000
0000
0000
,
0000
0000
0000
0000
,
0000
0000
0000
0000
,
0000
0000
0000
0000
,
0000
0000
0000
0000
,
0000
0000
0000
0000
,
0001
0000
0000
0000
,
1000
0000
0000
0000
,
0010
0000
0000
0000
,
0100
0000
0000
0000
,
0010
0000
1000
0000
,
0001
0000
0100
0000
,
1001
0000
0010
0000
,
0000
0000
0000
0100
,
0001
0000
0010
0000
,
0100
0000
1000
0001
,
0110
0000
0100
0000
,
0000
0000
0000
0010
,
1000
0000
0001
0000
,
1000
0000
0001
1000
,
0110
0000
0100
0001
,
0010
0000
0100
0100
,
1000
0000
0100
1000
,
0010
0000
0100
0100
,
0001
0000
1000
0001
,
0010
0000
0100
1000
,
0001
0000
1000
0000
,
0001
1000
0000
0000
,
0010
0000
1000
0000
,
0100
0000
0010
0001
,
0100
0000
0001
0000
,
1000
1000
0001
0001
,
0110
0000
0010
0010
,
1001
0000
0100
0100
,
1001
0000
0110
0000
,
1001
0110
1001
0110
,
1001
0000
0000
0000
,
0001
0000
1000
0000
,
0010
0000
0000
0000
,
1000
0000
0100
0000
,
1000
0000
0100
0000
,
0010
0000
0001
0000
,
0100
0000
0010
0000
,
1000
0000
0001
1000
,
0110
0000
1001
1001
,
0110
0000
0110
1001
,
0110
0000
0110
0110
,
1001
0000
0110
0000
,
1001
0000
1001
0110
,
1001
0000
0110
0110
,
1001
0000
0110
0000
,
1001
0110
1001
0110
,
1001
0000
0000
0000
,
0000
0000
0000
0000
,
0000
0000
0000
0000
,
0000
0000
0000
0000
,
1000
0000
0100
0000
,
0010
0000
0001
0000
,
0010
0001
0100
0010
,
1000
0000
0001
0000
,
0110
0000
0000
0000
,
1001
0000
0000
0000
,
0001
0000
0010
0000
,
0001
0000
1000
0000
,
0100
0100
1000
1000
,
0010
0000
0100
0000
,
0001
0001
0010
0100
,
1000
0000
0100
0000
,
1000
0000
0000
0000
,
0001
0000
0100
0000
,
0010
0000
1000
0000
,
0100
0000
0010
0000
,
0001
0000
0010
0000
,
0110
0000
0000
0000
,
1001
0000
0000
0000
,
0110
0000
1001
0000
,
0100
0000
0010
0000
,
1001
0000
0000
0000
,
1000
0000
0001
0000
,
0000
0000
0000
0100
,
0010
0000
0000
0100
,
0001
0000
0000
0010
,
1001
0000
0110
0000
,
0010
0000
0000
1000
,
0100
0000
1000
0000
,
0001
0001
1000
1000
,
0110
0000
0100
0000
,
0000
0000
0000
0000
,
0010
0000
0000
0000
,
1000
0000
0000
0000
,
0001
0000
0000
0000
,
0010
0000
0000
0000
,
0100
0000
0000
0000
,
1000
0000
0000
0000
,
0001
0000
0000
0000
;

//--------------- dance-single - forcednature ----------------
#NOTEDATA:;
#STEPSTYPE:dance-single;
#DESCRIPTION:forcednature;
#CREDIT:forcednature;
#DIFFICULTY:Easy;
#METER:10;
#RADARVALUES:0.339399,0.566354,0.282672,0.269212,0.043747,353,311,42,40,0,0,0,0,0,0.339399,0.566354,0.282672,0.269212,0.043747,353,311,42,40,0,0,0,0,0;
#NOTES:
0000
0000
0000
0000
,
0000
0000
0000
0000
,
0000
0000
0000
0000
,
0000
0000
0000
0000
,
0000
0000
0000
0000
,
0000
0000
0000
0000
,
0000
0000
0000
0000
,
0000
0000
0000
0000
,
0000
0000
0000
0000
,
2000
0000
0100
3000
,
0002
0000
0100
0003
,
2000
0000
3020
0000
,
0230
0000
0302
0000
,
0023
0000
0130
1000
,
0020
0000
0130
0001
,
2002
0000
0000
0000
,
3003
0000
0000
0000
1000
0001
1000
0010
,
0100
0000
0001
0000
,
1000
0001
0010
0100
,
1001
0000
1000
0000
,
0010
0000
0100
0001
,
1000
0100
0010
0000
,
0001
0000
0100
0000
0010
1000
0010
0000
,
1001
1000
0100
1000
,
0010
0100
0010
0000
0000
0000
0000
0000
,
1000
0001
0010
0100
,
1000
0001
1000
0000
0000
0000
0000
0000
,
0010
0100
0001
0010
,
0100
1000
0100
0000
0000
0000
0000
0000
,
0010
0001
1000
0010
,
0100
0001
1000
0000
0100
0000
0000
0000
,
0110
0010
0001
1000
,
0010
0000
0100
0001
1000
0000
0100
0000
,
0010
0010
0100
0100
,
1000
0000
0000
0001
0000
0000
0000
0000
0100
0000
0010
0000
0100
0000
0000
0000
,
1001
0001
0100
1000
,
0110
1000
0100
0001
,
0110
0010
1001
0100
,
0002
2003
3020
0230
,
0301
0000
0010
0100
1000
0000
0001
0000
,
0100
0000
0010
1000
0001
0000
0010
0000
,
0100
0000
1000
0001
0100
0000
0010
0000
,
1000
0000
0100
0010
0001
0000
0100
0000
,
0110
0010
1000
0001
,
1000
0100
0001
0100
,
0010
0001
0010
0000
0100
0000
1000
0000
,
0010
0000
0110
0000
0100
0001
1000
0000
,
1001
0000
1100
0010
,
1001
0000
0101
1010
,
1001
0000
0110
0000
,
1100
0101
1010
0011
,
1001
0000
0000
0001
0000
0001
0100
0000
0000
0110
0000
0000
,
1001
0000
0000
1000
0000
1000
0100
0000
0000
0110
0000
0000
,
1001
0000
0000
0001
0000
0001
0010
0000
0000
0100
0000
0000
,
1001
0000
0000
1000
0010
0100
0001
0000
0000
0010
0000
0000
,
2002
0000
0000
0000
,
0000
0000
0000
0000
,
0000
0000
0000
0000
,
0000
0000
3003
0000
,
2000
0000
3020
0000
,
0230
0000
0302
0000
,
0023
0000
0000
0000
,
0130
0000
1000
0000
,
2002
0000
0000
3003
,
0110
0000
0001
0000
1000
0010
0100
0000
,
0001
1000
1100
0010
,
0011
0000
1000
0010
0100
0000
0001
0000
,
2000
3200
0320
0032
,
1003
0000
0001
0100
0010
0000
1000
0000
,
0200
0000
0320
0000
0031
1000
0001
1000
,
0010
0100
0001
1000
,
0100
0010
0001
0000
1000
0000
0010
0000
,
0101
0000
1000
0100
0010
0000
0001
0000
,
1000
0000
0010
0100
0001
0000
0010
0000
,
0100
0000
1000
0001
0100
0000
0010
1000
,
0001
0000
1000
0100
0010
0000
0001
0000
,
0011
0000
0001
0100
0010
0000
1000
0000
,
1010
0000
1000
0100
0010
0000
0001
0000
,
0101
1000
1100
0001
,
0100
0100
0010
0010
1000
0001
1000
0001
,
0020
0000
0230
0300
,
1001
0000
1000
0000
0100
0010
0001
0000
,
0100
0000
0000
0001
0000
0000
1000
0000
0000
0000
0000
0000
0100
0000
0010
0000
,
0001
0000
0000
1000
0000
0000
0010
0000
0000
0100
0000
0000
0001
0000
0000
0000
,
1000
0000
0000
0100
0000
0000
0010
0000
0000
0001
0000
0000
1000
0000
0000
0000
,
0110
0001
1000
0010
,
0100
0000
0000
0001
0000
0000
1000
0000
0000
0000
0100
0000
0010
0000
0000
0000
,
0001
0000
0000
0100
0000
0000
0010
0000
0000
0000
1000
0000
0001
0000
0000
0000
,
1100
0000
0101
0000
0010
0010
0010
0000
,
2002
0000
0000
0000
,
0000
0000
3003
0000
,
0200
0000
0000
0000
,
0302
0000
0000
0000
,
2003
0000
0000
0000
,
3200
0000
0000
0000
,
0320
0000
0000
0000
,
0032
0000
0000
0000
,
0203
0000
0000
0000
,
0000
0000
0000
0000
,
0300
0000
0000
0000
;

//--------------- dance-single - Pandemonium X ----------------
#NOTEDATA:;
#STEPSTYPE:dance-single;
#DESCRIPTION:Pandemonium X;
#CREDIT:Pandemonium X;
#DIFFICULTY:Medium;
#METER:12;
#RADARVALUES:0.454775,0.632984,0.551884,0.383627,0.171622,473,391,82,57,0,0,0,0,0,0.454775,0.632984,0.551884,0.383627,0.171622,473,391,82,57,0,0,0,0,0;
#NOTES:
0000
0000
0000
0000
,
0000
0000
0000
0000
,
0000
0000
0000
0000
,
0000
0000
0000
0000
,
0000
0000
0000
0000
,
0000
0000
0000
0000
,
0000
0000
0000
0000
,
0000
0000
0000
0000
,
0000
0000
0000
0000
,
0002
0000
0023
0000
,
0032
0000
2003
0000
,
3020
0000
0230
0000
,
0302
0000
0023
0000
,
0230
0000
1300
0100
0020
0000
0000
0000
,
0130
0000
0010
0001
0200
0000
0301
0000
,
1001
0000
0110
0000
,
0000
0000
0000
0000
0001
0100
0010
0100
,
0001
0000
1000
0000
,
0100
0000
0000
0000
0000
0000
0000
0000
0110
0000
0000
0010
0100
0010
0000
0000
,
1001
0000
0101
0000
,
0011
0000
0000
0000
0110
0000
0001
1000
,
0001
0000
0011
0000
,
0001
0010
0000
0100
1000
0000
0001
0000
1001
0000
0000
0000
0110
0000
0000
0000
,
0201
0000
0000
0001
0301
0000
1000
0000
,
0001
0010
0000
0000
0000
0000
0000
0000
0100
0000
0000
0000
0010
0000
0000
0000
,
1002
0000
0000
0010
0013
0000
0001
0000
,
0100
0010
0000
0000
0000
0000
0000
0000
0100
0000
0000
0000
0001
0000
0000
0000
,
2001
0000
0000
0100
3100
0000
0010
0000
,
0001
0100
0000
0000
0000
0000
0000
0000
0010
0000
0000
0000
0100
0000
0000
0000
,
1020
0000
0000
1000
1030
0000
0010
0000
,
0100
0010
1000
0000
0001
0000
1000
0000
,
0001
0000
0011
0000
0010
0100
1100
0000
,
0100
0000
0110
0000
0100
1000
1010
0000
,
0010
0000
0010
0100
0001
0000
0001
0010
,
0100
0000
0000
0010
0001
0000
0000
0001
0010
0000
0000
0010
0100
0000
0000
0100
,
0010
0000
0001
0100
0010
1000
0001
0010
,
0110
0000
0100
0010
0001
1000
0010
0100
,
0101
0011
0101
0011
,
1001
0110
1010
0101
,
1001
0000
1010
0000
0010
1000
0001
0000
,
0011
0000
0001
0100
0101
0000
0100
0010
,
0110
0000
0010
1000
0010
0000
0100
0000
,
0101
0000
0001
0010
0110
0000
0100
0000
,
2100
3010
0201
0310
,
2001
3100
1002
0013
,
0210
2300
3020
0230
,
0302
0000
0013
0100
1000
0000
0100
0000
,
1001
0000
0000
1000
0100
1000
0001
0000
0000
0001
0000
0000
,
0101
0000
0000
0001
1000
0010
1000
0000
0000
1100
0000
0000
,
1001
0000
0000
0001
1000
0010
0100
0000
0000
0100
0000
0000
,
0110
1001
0101
1010
,
1001
0000
0000
1000
0100
0010
0001
0000
0000
0011
0000
0000
,
1100
0000
0000
0001
0010
0100
1000
0000
0000
1100
0000
0000
,
0011
0000
0000
0001
0100
0010
1000
0000
0000
1001
0000
0000
,
0011
0000
0001
0010
0100
1000
0001
0000
0000
1010
0000
0000
,
0101
0000
0001
0000
,
0010
0000
0100
0000
,
0010
0000
0001
0000
,
1000
0000
0010
0000
,
0200
0000
0302
0000
,
0023
0000
0230
0000
,
2300
3200
0320
0032
,
2003
0000
0002
3003
,
0110
0000
0000
0000
0000
0000
0000
0000
0001
0000
0100
0000
0010
1000
0010
1000
,
0001
0000
0010
0000
0001
0100
0010
0000
,
0110
0000
0010
1000
1100
0000
0100
0010
,
0110
0000
0010
0001
0011
0000
0001
0000
,
0101
0000
1100
0000
0001
0001
1000
1000
,
1010
0010
0110
0100
,
1010
0000
0101
0000
0001
0001
1000
1000
,
1100
0000
0100
0000
0110
0000
0100
1000
,
0010
0100
0001
0000
0010
0000
0100
0000
,
2100
0000
3001
0000
0100
0010
1010
0000
,
0210
0000
0301
0000
0010
0100
1100
0000
,
1001
0000
0010
0100
0101
0000
0010
0100
,
1100
0100
0010
0001
,
1001
0000
0000
1000
0000
0001
0100
0000
0100
0010
0000
0010
,
1000
0000
0000
1000
0000
1000
0100
0000
0100
0010
0000
0010
,
0001
0000
0000
1000
0001
0010
0001
0000
0000
0001
1000
0100
,
0020
0230
2300
3020
,
0130
0000
0000
0000
0000
0000
0001
0001
0001
2000
0000
0000
,
3010
0000
0000
0000
0101
0000
0001
0010
,
0100
0000
0000
1000
0000
0000
1001
0000
0000
0000
1000
0000
0100
0000
0010
0000
,
0001
0000
0000
0100
0000
0000
0001
0000
0000
0010
0000
0000
0100
0000
1000
0000
,
0010
0000
0000
0100
0000
0000
0001
0000
0000
0010
0000
0000
0100
0000
1000
0000
,
1001
0000
1000
0000
0101
0000
0001
0100
,
0010
0000
0000
1000
0000
0000
0001
0000
0000
0000
0010
0000
0100
0000
1000
0000
,
0001
0000
0000
1000
0000
0000
0010
0000
0000
0000
0100
0000
0010
0000
1000
0000
,
1001
0000
0000
0001
0100
0000
0000
0100
0010
0000
0000
0010
1000
0000
0000
1000
,
0200
0000
0320
0000
,
0031
0000
0200
0000
,
0320
0000
2030
0000
,
3002
0000
0023
0000
,
0230
0000
0320
0000
,
0032
0000
2003
0000
,
3020
0000
2030
0000
,
3002
0000
0023
0000
,
0200
0000
0000
0000
,
0000
0000
0000
0000
,
0330
0000
0000
0000
;

//--------------- dance-single - X+F ----------------
#NOTEDATA:;
#STEPSTYPE:dance-single;
#DESCRIPTION:X+F;
#CREDIT:X+F;
#DIFFICULTY:Hard;
#METER:15;
#RADARVALUES:0.617264,0.899503,0.450929,0.22883,0.605726,642,575,67,34,0,0,0,0,0,0.617264,0.899503,0.450929,0.22883,0.605726,642,575,67,34,0,0,0,0,0;
#NOTES:
0000
0000
0000
0000
,
0000
0000
0000
0000
,
0000
0000
0000
0000
,
0000
0000
0000
0000
,
0000
0000
0000
0000
,
0000
0000
0000
0000
,
0000
0000
0000
0000
,
0000
0000
0000
0000
,
0000
0000
0000
0000
,
0001
0100
0010
0000
0000
0000
0100
0010
1000
0000
0000
0000
,
0100
1000
0001
0000
0000
0000
0100
0001
0010
0000
0000
0000
,
0100
0010
0001
0000
0000
0000
0010
0100
1000
0000
0000
0000
,
0100
0000
1000
0000
0010
0000
0000
0000
0000
0000
0000
0000
0100
0000
0001
0000
0010
0000
0100
0000
0000
1000
0000
0000
,
1001
0000
0001
0100
1010
0000
1000
0000
,
0001
0100
0010
1000
0101
0000
0011
0000
,
1001
0000
1010
0000
,
0000
0000
0000
0000
1000
0010
0100
0001
,
0010
0000
0000
0100
1000
0000
0000
0100
0010
0000
0000
0000
0000
0000
0001
0010
,
0100
0000
0000
0000
0010
0000
0000
0001
1000
0000
0000
0010
0100
0001
0000
0000
,
1100
0000
0101
0000
,
0001
0000
0000
0000
0000
0000
0000
0000
1000
0000
0010
0000
1000
0001
1000
0001
,
0020
0000
0000
0000
0000
0000
0000
0130
2000
0000
0000
0000
0000
0000
0000
3100
,
0010
0001
0000
0100
0010
0000
1000
0000
0001
0010
0000
0100
1000
0000
0010
0000
,
1001
0000
1000
0020
0100
0000
1030
0000
,
0001
0010
0100
0000
0000
0000
0000
0000
0110
0000
0000
0000
1100
0000
0000
0000
,
1001
0000
1000
0002
0010
0000
0103
0000
,
0010
1000
0100
0000
0000
0000
0000
0000
0110
0000
0000
0000
1100
0000
0000
0000
,
0100
0000
1000
0200
0010
0000
1300
0000
,
0010
0100
0001
0000
0000
0000
0000
0000
1001
0000
0000
0000
0110
0000
0000
0000
,
0101
0000
0000
0000
0100
0000
0010
0000
1000
0000
0000
0000
0010
0000
0100
0010
,
1000
0001
1000
0001
0010
0000
0000
0000
0100
0000
0000
0000
0010
0000
0000
0000
,
0001
0000
0101
0000
0001
0100
0110
0000
,
0010
0000
1010
0000
1000
0100
0110
0000
,
1100
0000
0100
0010
1001
0000
0011
0000
,
0101
0000
0000
0100
0010
0000
0000
0000
0110
0000
0000
0000
1001
0000
0000
0000
,
1100
0000
0000
0000
1000
0100
1000
0000
0001
0100
0001
0000
1000
0100
1000
0000
,
1001
0000
0000
0000
0001
0010
0001
0000
1000
0010
1000
0000
0001
0010
0001
0000
,
2000
3100
2000
3010
,
1000
0100
0000
0010
0001
0000
0100
0000
0010
0100
0000
0001
1000
0000
0001
0000
,
1001
0000
0001
0100
0010
0100
0001
0010
,
0110
0000
0100
0010
0011
0000
0001
0010
,
0110
0000
0100
1000
0010
0100
0001
0010
,
0011
0000
0001
0100
0110
0000
0010
0000
,
1000
0010
0000
0100
0001
0000
0010
0000
0100
0010
0000
0100
1000
0000
0001
0000
,
1000
0100
0000
0010
0001
0000
0010
0000
0001
0100
0000
0001
0010
0000
0100
0000
,
0010
0000
0100
1000
0010
0000
0100
0000
,
0101
0000
0000
0000
0000
0001
1000
0100
0010
0000
0000
0000
0011
0000
0000
0000
,
1100
0000
0000
1000
0100
0010
0110
0000
0000
1000
0000
0000
,
1001
0000
0000
1000
0100
0010
0011
0000
0000
0101
0000
0000
,
1010
0000
0000
1000
0010
0100
0110
0000
0000
0101
0000
0000
,
1000
0001
0010
0001
1000
0010
1000
0001
0100
0001
1000
0100
,
0010
0000
0000
0010
0100
1000
1100
0000
0000
1010
0000
0000
,
1100
0000
0000
1000
0100
0010
0110
0000
0000
0011
0000
0000
,
0110
0000
0000
0001
0010
0100
1100
0000
0000
1010
0000
0000
,
0101
0000
0000
1000
0010
0100
0101
0000
0000
0110
0000
0000
,
1001
0000
1000
0000
,
0010
0000
0100
0000
,
0001
0000
1000
0000
,
0100
0000
0010
0000
,
0002
0000
0203
0000
,
0320
0000
2030
0000
,
3200
0001
0010
1000
,
0310
0000
0001
0000
,
2002
0000
0000
3003
,
0110
0000
0000
1000
0001
0000
0100
0000
0010
0000
1000
0100
0010
0000
0100
0000
,
1000
0000
0000
0001
0010
0000
0001
0000
1000
0000
0010
0100
0001
0000
1000
0100
,
0010
0000
0001
0000
0100
0000
0000
0000
1010
0000
0000
0001
0010
0100
1000
0000
,
0001
0100
0010
0000
1000
0100
0010
0000
0100
1000
0001
0100
0010
1000
0001
0010
,
0100
0000
0000
0000
0010
0000
0001
0000
0100
0000
0010
1000
0001
0000
0000
0000
,
0010
0100
1000
0000
0100
0010
0001
0000
1000
0010
0100
0001
0100
0010
1000
0001
,
0010
0000
0100
0000
0001
0000
0100
0000
1000
0000
0010
0000
0100
0001
1000
0000
,
0001
0010
0001
0010
0100
1000
0100
0000
1000
0000
1000
0000
0010
0100
0001
1000
,
0010
0000
0000
0000
0101
0000
0000
1000
0100
0000
0000
0000
0011
0000
1000
0001
,
0100
0000
0000
0100
0010
0000
0000
0010
1000
0100
0010
0001
1000
0010
1000
0010
,
0100
0000
0000
0000
0001
0010
0100
1000
0100
0010
0001
1000
0010
0000
0100
0001
,
1000
0000
0000
0000
0100
0000
0000
0000
0001
0000
0000
0000
0100
0000
0000
0000
1000
0000
0000
0000
0010
0000
0000
0000
0100
0000
0000
0000
0000
0000
0000
0000
0000
0000
0000
0000
0010
0000
0000
1000
0000
0000
0010
0000
0000
1000
0000
0000
,
0001
0000
0010
0100
1000
0001
0100
1000
0100
0001
1000
0010
,
0100
0000
0001
1000
0100
0001
0100
0010
0001
1000
0010
0100
,
0001
0000
0000
0001
1000
0000
0100
0010
0001
0000
0001
0100
0010
1000
0001
0000
,
1000
0000
1100
0000
0001
0000
0101
0000
1000
0100
0010
0001
0100
0010
1000
0001
,
0020
0000
0000
0000
0000
0000
0000
0000
0000
0000
0000
0000
0000
0000
0000
0000
0000
0000
0000
0000
0000
0000
0000
0000
0130
0000
0000
0000
0100
0000
0000
0000
0100
0000
0000
0000
1000
0000
0000
0001
0000
0000
0100
0000
0000
0010
0000
0000
,
1000
0000
0000
1000
0100
0000
0010
0001
1000
0000
0000
1000
0010
0000
0100
0001
,
0010
0000
0000
0110
0000
0000
1001
0000
0000
0000
0001
0100
0010
1000
0010
0100
,
0002
0000
0000
0010
0000
0000
0100
0000
0000
1003
0000
0000
0001
0010
0100
1000
,
0020
0000
0000
0001
0000
0000
0100
0000
0000
1030
0000
0000
0010
0000
0010
0000
,
0100
0001
1000
0001
0010
0000
0100
0000
1100
0000
0000
1000
0001
0010
0100
0010
,
0002
0000
0000
0100
0000
0000
1000
0000
0000
0000
0013
0000
0001
0100
0010
1000
,
0200
0000
0000
0001
0000
0000
1000
0000
0000
0000
0310
0100
1000
0001
1000
0010
,
0100
0000
0001
1000
0100
0000
0010
0001
1000
0000
1000
0000
0010
0100
0001
1000
,
0200
0000
0000
0000
,
0000
0000
0320
0000
,
0032
0000
2003
0000
,
3020
0000
0230
0000
,
0302
0000
2003
0000
,
3200
0000
0320
0000
,
0032
0000
0203
0000
,
0320
0000
2030
0000
,
3200
0000
0000
0000
,
0000
0000
0000
0000
,
0300
0000
0000
0000
;

//--------------- dance-single - F+X ----------------
#NOTEDATA:;
#STEPSTYPE:dance-single;
#DESCRIPTION:F+X;
#CREDIT:F+X;
#DIFFICULTY:Challenge;
#METER:17;
#RADARVALUES:0.792251,1.032763,0.397087,0.363436,1.05329,824,765,59,54,0,0,0,0,0,0.792251,1.032763,0.397087,0.363436,1.05329,824,765,59,54,0,0,0,0,0;
#NOTES:
0000
0000
0000
0000
,
0000
0000
0000
0000
,
0000
0000
0000
0000
,
0000
0000
0000
0000
,
0000
0000
0000
0000
,
0000
0000
0000
0000
,
0000
0000
0000
0000
,
0000
0000
0000
0000
,
0000
0000
0000
0000
,
0001
0010
0100
1000
0100
0010
0001
0100
0010
1000
0010
0100
,
0001
0010
1000
0010
0001
1000
0001
0100
1000
0100
0001
1000
,
0100
0010
0001
0100
0010
1000
0100
0010
0001
1000
0010
0100
,
0001
0000
0000
0000
0010
0000
0000
0000
0001
0000
0000
0000
0100
0000
0000
0000
0010
0000
0000
0000
1000
0000
0000
0000
0100
0000
0000
0000
0010
0000
0000
0000
0001
0000
0000
0000
1000
0000
0000
0010
0000
0000
0100
0000
0000
0001
0000
0000
,
2000
0000
0000
0000
0000
0000
3001
0010
0100
1000
0100
0010
0002
0000
0000
0000
0000
0000
0203
0000
0000
0000
0000
0000
,
0302
0000
0000
0000
0000
0000
1003
0010
0100
0001
0100
0010
2000
0000
0000
0000
0000
0000
3200
0000
0000
0000
0000
0000
,
0320
0000
0002
0000
,
0000
0000
0000
0000
0033
0000
0000
0000
1000
0100
0010
0001
1000
0001
0100
0010
,
1000
0000
0000
1000
0200
0000
0000
0010
0020
0000
0000
0000
0330
0000
0100
0010
,
0002
0000
0000
0000
0203
0000
0000
0010
0310
0000
0000
0100
0001
1000
0100
0000
,
0120
0000
0032
0000
,
2003
0000
0000
0000
0000
0000
0000
0000
3010
0100
0001
1000
0100
0010
0001
1000
,
0020
0000
0000
0000
0000
0000
0000
0100
0230
0000
0000
0000
0000
0000
0000
0001
,
0301
0100
0000
0010
1000
0000
0001
1000
0100
0010
0001
1000
0001
0100
0010
1000
,
0001
0000
0000
0000
0000
0000
0000
0000
0000
0001
0000
0000
0010
0000
0000
0000
0000
0000
0100
0000
0000
1000
0000
0000
0001
0000
0000
0000
0000
0000
0000
0000
0000
0001
0000
0000
0100
0000
0010
0000
1000
0000
0010
0000
0000
0000
0000
0000
,
0100
0000
0001
0000
1000
0000
0001
0000
0000
0000
0000
0000
0000
0000
0000
0000
0000
0000
0000
0000
0000
0000
0000
0000
0010
0000
0000
0000
0000
0000
0100
0000
0000
1000
0000
0000
0001
0000
0000
0000
0000
0000
0100
0000
0000
0010
0000
0000
,
2000
0000
0100
0001
3020
0000
0031
0010
,
0100
0000
0001
0000
1000
0000
0010
0000
0000
0000
0000
0000
0000
0000
0000
0000
0000
0000
1000
0000
0000
0000
0000
0000
0001
0000
0000
0010
0000
0000
0100
0000
0000
1000
0000
0000
0100
0000
0000
0010
0000
0000
0001
0000
0000
1000
0000
0000
,
0010
0000
0000
0000
0100
0000
0001
1000
0100
0000
0000
0100
0010
0001
0010
0000
,
0100
0000
1000
0000
0001
0000
0100
0000
0000
0000
0000
0000
0000
0000
0000
0000
0000
0000
0010
0000
0000
0000
0000
0000
1000
0000
0000
0100
0000
0000
0010
0000
0000
0001
0000
0000
1000
0000
0000
0010
0000
0000
0100
0000
0000
0001
0000
0000
,
0010
0000
0100
0000
1000
0000
0001
0100
0010
0000
1000
0000
0001
0010
0100
1000
,
0001
0100
1000
0100
0010
0000
0000
0010
1000
0000
1000
0000
1000
0100
0010
0001
,
0100
0000
0000
0000
0101
0000
1000
0000
0010
0000
0000
0000
1000
0100
0010
0001
,
0100
0000
0000
0000
1010
0000
0001
0000
0100
0000
1000
0000
0100
0001
1000
0001
,
0020
0000
0000
0000
0130
1000
0001
1000
0010
0000
0000
0010
0100
0000
0000
0100
,
0001
0000
0000
0001
0010
0000
0000
0000
0001
0100
0010
1000
0001
0010
0001
0100
,
0020
0000
0000
0000
1030
0100
0010
0001
0100
0000
1000
0100
0001
0000
0100
0001
,
0020
0000
0000
1000
0000
0000
0031
0010
0100
0010
0001
0000
1000
0001
0100
0010
,
1000
0000
0100
0010
0001
0000
0100
0000
0010
0000
0010
0001
0010
0000
0010
1000
,
0001
0010
0000
0010
0100
0000
0100
1000
0001
1000
0010
0000
0100
0001
1000
0010
,
0100
0000
0001
1000
0100
0010
0001
0000
0100
0000
0010
1000
0001
1000
0100
0000
,
0010
0000
0001
1000
0010
0100
0001
0000
0010
0000
1000
0010
0001
0000
0000
0000
,
0100
0000
0010
1000
0001
0100
0010
1000
0001
0000
1000
0100
0010
0001
1000
0100
,
0010
0000
0001
1000
0010
0100
0001
1000
0100
0000
0001
0100
1000
0000
0010
1000
,
0001
0010
0001
0100
0010
0000
0000
1000
0100
0000
0000
0100
0010
0001
1000
0001
,
0100
0010
1000
0001
1000
0000
0100
0010
0002
0000
0100
0000
1003
0001
0100
0000
,
0010
1000
0001
1000
0100
0010
0001
1000
0010
0000
0100
0001
0100
0000
0000
0010
,
2000
0000
0000
0000
0100
0000
3001
1000
0100
0010
0001
0000
0101
0000
0001
0000
,
1001
0000
0000
1000
0100
0010
0011
0000
0000
0100
0000
0000
,
1001
0000
0000
0001
0100
0010
1010
0000
0000
1100
0000
0000
,
1001
0000
0000
1000
0100
0001
0110
0000
0000
1000
0000
0000
,
0001
0100
0010
0000
1000
0100
0010
0000
0001
1000
0010
0000
1000
0001
0010
0000
,
0110
0000
0000
0000
0000
0000
0001
0010
0100
1000
0100
0010
0001
0000
0000
0000
0000
0000
0110
0000
0000
0000
0000
0000
,
1001
0000
0000
0000
0000
0000
1000
0010
0100
0001
0100
0010
1000
0000
0000
0000
0000
0000
0110
0000
0000
0000
0000
0000
,
1001
0000
0000
0000
0000
0000
0001
0010
0100
1000
0010
0100
0001
0000
0000
0000
0001
0000
0010
0000
0100
0000
1000
0000
,
1010
0000
0000
0000
0000
0000
0001
0100
0010
1000
0100
0010
0001
0000
0000
0000
0000
0000
0110
0000
0000
0000
0000
0000
,
1001
0000
0011
0000
,
1100
0000
1001
0000
,
0110
0000
0101
0000
,
1010
0000
1001
0000
,
2100
0000
3200
0000
,
0320
0000
0230
0000
,
2300
3200
0302
0023
,
2030
0000
0000
0000
0020
0000
0000
3030
,
0202
0000
0000
0000
0000
0000
0000
0000
0000
0000
0000
0000
0000
0000
0000
0000
0000
0000
0303
0000
0000
0000
0000
0000
0001
0000
0000
0010
0000
0000
0100
0000
0000
1000
0000
0000
0001
0000
0100
0000
0001
0000
0100
0000
0010
0000
1000
0000
,
0010
1000
0010
0000
0100
0010
0100
0000
0001
0100
0001
0000
0010
0100
0010
0000
,
1100
0000
0000
1000
0100
0000
0010
0000
0110
0000
0000
0100
1000
0000
0001
0000
,
0101
0000
0000
0001
1000
0000
0001
0000
1100
0000
0000
0000
0100
0000
0000
0000
,
1000
0000
0001
0000
0100
0000
0001
0000
0000
0000
0000
0000
0100
0000
0001
0000
1000
0000
0001
0000
0000
0000
0000
0000
0001
0000
0000
0010
0000
0000
0001
0000
0000
0100
0000
0000
0001
0000
0000
1000
0000
0000
0001
0000
0000
0010
0000
0000
,
0100
0010
0001
0100
0110
0100
0001
0010
,
0100
0000
1000
0000
0001
0000
1000
0000
0000
0000
0000
0000
0001
0000
1000
0000
0100
0000
1000
0000
0000
0000
0000
0000
1000
0000
0000
0100
0000
0000
1000
0000
0000
0010
0000
0000
1000
0000
0000
0001
0000
0000
1000
0000
0000
0100
0000
0000
,
1000
0000
0000
0001
0000
0000
0010
0000
0000
0100
0000
0000
1100
0000
0000
1000
0000
0000
0100
0010
0100
0010
0000
0000
,
0001
0010
0100
0010
0001
0000
0000
1000
0001
0100
0010
1000
0001
0010
0100
1000
,
0001
0000
1000
0010
0100
0000
0001
0000
0021
0000
0000
0000
0130
0000
0000
0000
,
1001
0000
0001
0100
0010
0000
0100
0000
0010
0100
0001
0100
0010
0100
0001
1000
,
0001
1000
0001
1000
0100
1000
0010
1000
0001
0010
0100
0010
0001
1000
0010
1000
,
0100
0001
0100
1000
0010
0001
0010
1000
0001
0100
0010
1000
,
1100
0000
0000
0010
0100
0001
1000
0100
0010
0100
1000
0001
,
1001
0000
0000
1000
0010
0100
0001
0010
0100
0010
0001
1000
,
1001
0000
0000
0001
0100
0010
1001
0000
0000
1000
0100
0010
,
0100
0000
0000
0000
0100
0000
0000
0000
1000
0000
0000
0000
0010
0000
0000
0000
0010
0000
0000
0000
0100
0000
0000
0000
0001
0000
0000
1000
0000
0000
0001
0000
0000
0100
0000
0000
0010
0000
1000
0000
0010
0000
0100
0000
0001
0000
1000
0000
,
0020
0000
0000
0000
0000
0000
0000
0000
0000
0000
0030
0000
1001
0000
1001
0000
1001
0000
1000
0010
0100
0001
1000
0010
,
0100
0000
0001
0000
0100
0000
0001
0000
0011
0000
0000
0000
0010
0100
1000
0001
,
1000
0000
0000
1100
0000
0000
1001
0000
0000
0000
1000
0010
1000
0010
0100
0001
,
1000
0000
0000
0100
0100
0000
0110
0000
0000
0011
0000
0000
0001
0100
0010
1000
,
0001
0000
0000
1100
0000
0000
0101
0000
0000
1001
0000
0000
1000
0000
0100
0000
,
1000
0000
0001
0000
1000
0000
0100
0000
0000
0000
0000
0000
1000
0000
0000
0000
0000
0000
0100
0000
0000
0000
0000
0000
0110
0000
0000
0000
0000
0000
0000
0000
0000
0000
0000
0000
0100
0000
0000
1000
0000
0000
0010
0000
0000
0100
0000
0000
,
0010
0000
0000
0101
0000
0000
1001
0000
0000
0000
0001
0000
0010
0100
1000
0001
,
0100
0000
0000
1010
0000
0000
0101
0000
0000
0000
0001
0010
0001
1000
0100
0010
,
0001
0000
0000
0000
0000
0000
0001
0000
0000
1000
0000
0000
1001
0000
0000
0000
0000
0000
0010
0000
0000
0100
0000
0000
0110
0000
0000
0000
0000
0000
1001
0000
0000
0000
0000
0000
0001
0000
0010
0000
0001
0000
0100
0000
0010
0000
1000
0000
,
0002
0000
0203
0000
,
0000
0000
0320
0000
,
2030
0000
3002
0000
,
0023
0000
0230
0000
,
0320
0000
0032
0000
,
2003
0000
3020
0000
,
2030
0000
3002
0000
,
2003
0000
3020
0000
,
0200
0000
0000
0000
,
0000
0000
0000
0000
,
0330
0000
0000
0000
;

//--------------- dance-double - forcednature ----------------
#NOTEDATA:;
#STEPSTYPE:dance-double;
#DESCRIPTION:forcednature;
#CREDIT:forcednature;
#DIFFICULTY:Easy;
#METER:10;
#RADARVALUES:0,0,0,0,0;
#NOTES:
00000000
00000000
00000000
00000000
,
00000000
00000000
00000000
00000000
,
00000000
00000000
00000000
00000000
,
00000000
00000000
00000000
00000000
,
00000000
00000000
00000000
00000000
,
00000000
00000000
00000000
00000000
,
00000000
00000000
00000000
00000000
,
00000000
00000000
00000000
00000000
,
00000000
00000000
00000000
00000000
,
00020000
00000000
00000100
00030000
,
00002000
00000000
01000000
00003000
,
00020000
00000000
00030020
00000000
,
00002030
00000000
00003002
00000000
,
00000023
00000000
00000130
00010000
,
00002000
00000000
01003000
00010000
,
20020000
00000000
00000000
00000000
,
30030000
00000000
00000000
00000000
10000000
01000000
00100000
00010000
,
01000000
00000000
00001000
00000000
,
00010000
00000100
00001000
00000010
,
00000110
00000000
00000100
00000000
,
00000001
00000000
00000010
00000100
,
00010000
00001000
01000000
00000000
,
00100000
00000000
10000000
00000000
00010000
00100000
00010000
00000000
,
10010000
10000000
00100000
01000000
,
00001000
00010000
00001000
00000000
00000000
00000000
00000000
00000000
,
00000010
00000100
00001000
00000100
,
00000010
00000001
00000010
00000000
00000000
00000000
00000000
00000000
,
00000100
00010000
00001000
01000000
,
00010000
00100000
00010000
00000000
00000000
00000000
00000000
00000000
,
01000000
00100000
10000000
00010000
,
00100000
00001000
00010000
00000000
00000010
00000000
00000000
00000000
,
00000110
00000100
00000001
00001000
,
00000100
00000000
00010000
00001000
00100000
00000000
00010000
00000000
,
01000000
01000000
00100000
00100000
,
10000000
00000000
00000000
01000000
00000000
00000000
00000000
00000000
00100000
00000000
00010000
00000000
00100000
00000000
00000000
00000000
,
00011000
00001000
00010000
00000010
,
00000110
00000100
00000001
00000010
,
00000110
00000100
00011000
01000000
,
00020000
20030000
32000000
03200000
,
00310000
00000000
01000000
00001000
00010000
00000000
00000100
00000000
,
00001000
00000000
00000010
00000100
00000001
00000000
00000010
00000000
,
00000100
00000000
00010000
00001000
00100000
00000000
00010000
00000000
,
01000000
00000000
00100000
10000000
00010000
00000000
00100000
00000000
,
01100000
01000000
00010000
00001000
,
00000100
00000010
00001000
00000001
,
00000010
00000100
00000010
00000000
00001000
00000000
00010000
00000000
,
00100000
00000000
01100000
00000000
01000000
00010000
10000000
00000000
,
11000000
00000000
00110000
00001000
,
00011000
00000000
00010010
00000101
,
00001001
00000000
00000011
00000000
,
00001100
00010100
01001000
01010000
,
10100000
00000000
00000000
00010000
00000000
00010000
00100000
00000000
00000000
11000000
00000000
00000000
,
00110000
00000000
00000000
00001000
00000000
00001000
00010000
00000000
00000000
00001010
00000000
00000000
,
00000101
00000000
00000000
00000001
00000000
00000001
00000010
00000000
00000000
00000100
00000000
00000000
,
00011000
00000000
00000000
01000000
00010000
00100000
01000000
00000000
00000000
10000000
00000000
00000000
,
20020000
00000000
00000000
00000000
,
00000000
00000000
00000000
00000000
,
00000000
00000000
00000000
00000000
,
00000000
00000000
30030000
00000000
,
00020000
00000000
02030000
00000000
,
03002000
00000000
00023000
00000000
,
00030200
00000000
00000000
00000000
,
00001300
00000000
00000001
00000000
,
00002002
00000000
00000000
00003003
,
00000110
00000000
00001000
00000000
00000100
00010000
00001000
00000000
,
01000000
00010000
00110000
01000000
,
11000000
00000000
10000000
00010000
01000000
00000000
00001000
00000000
,
00020000
00030200
00002300
00003020
,
00000130
00000000
00000001
00000010
00000100
00000000
00010000
00000000
,
00002000
00000000
02003000
00000000
03010000
10000000
00010000
10000000
,
01000000
00100000
00001000
00010000
,
00000010
00000100
00000001
00000000
00000010
00000000
00000100
00000000
,
00010100
00000000
00010000
00001000
01000000
00000000
00010000
00000000
,
00100000
00000000
01000000
10000000
00010000
00000000
01000000
00000000
,
00001000
00000000
00010000
00000100
00001000
00000000
00000010
00010000
,
00001000
00000000
00000010
00000100
00001000
00000000
00000001
00000000
,
00000101
00000000
00000100
00000010
00010000
00000000
00001000
00000000
,
00101000
00000000
00100000
00010000
01000000
00000000
00100000
00000000
,
01100000
10000000
10010000
00010000
,
01000000
01000000
00001000
00001000
00010000
00000100
00010000
00000100
,
00000020
00000000
00000032
00000003
,
00001001
00000000
00001000
00000000
00000100
00010000
00001000
00000000
,
01000000
00000000
00000000
00010000
00000000
00000000
00100000
00000000
00000000
00000000
00000000
00000000
01000000
00000000
10000000
00000000
,
00100000
00000000
00000000
01000000
00000000
00000000
00010000
00000000
00000000
01000000
00000000
00000000
00001000
00000000
00000000
00000000
,
00010000
00000000
00000000
00000100
00000000
00000000
00001000
00000000
00000000
00000100
00000000
00000000
00000010
00000000
00000000
00000000
,
00000110
00000100
00001000
00000001
,
00000100
00000000
00000000
00000010
00000000
00000000
00000100
00000000
00000000
00000000
00001000
00000000
00010000
00000000
00000000
00000000
,
01000000
00000000
00000000
00100000
00000000
00000000
01000000
00000000
00000000
00000000
10000000
00000000
00010000
00000000
00000000
00000000
,
11000000
00000000
00110000
00000000
00001000
00001000
00001000
00000000
,
00022000
00000000
00000000
00000000
,
00000000
00000000
00033000
00000000
,
00000200
00000000
00000000
00000000
,
00002300
00000000
00000000
00000000
,
00003002
00000000
00000000
00000000
,
00000203
00000000
00000000
00000000
,
00000320
00000000
00000000
00000000
,
00020030
00000000
00000000
00000000
,
00032000
00000000
00000000
00000000
,
00000000
00000000
00000000
00000000
,
00003000
00000000
00000000
00000000
;

//--------------- dance-double - forcednature ----------------
#NOTEDATA:;
#STEPSTYPE:dance-double;
#DESCRIPTION:forcednature;
#CREDIT:forcednature;
#DIFFICULTY:Medium;
#METER:13;
#RADARVALUES:0,0,0,0,0;
#NOTES:
00000000
00000000
00000000
00000000
,
00000000
00000000
00000000
00000000
,
00000000
00000000
00000000
00000000
,
00000000
00000000
00000000
00000000
,
00000000
00000000
00000000
00000000
,
00000000
00000000
00000000
00000000
,
00000000
00000000
00000000
00000000
,
00000000
00000000
00000000
00000000
,
00000000
00000000
00000000
00000000
,
00020000
00000000
00032000
00000000
,
02003000
00000000
03020000
00000000
,
20030000
00000000
32000000
00000000
,
03200000
00000000
00302000
00000000
,
00023000
00000000
00030010
00001000
00000002
00000000
00000000
00000000
,
00000013
00000000
00000100
00010000
00002000
00000000
01003000
00000000
,
01100000
00000000
10010000
00000000
,
00000000
00000000
00000000
00000000
10000000
01000000
00100000
01000000
,
00010000
00000000
00001000
00000000
,
00000100
00000000
00000000
00000000
00000000
00000000
00000000
00000000
00000110
00000000
00000000
00000010
00000100
00000010
00000000
00000000
,
00001001
00000000
00001100
00000000
,
00010100
00000000
00000000
00000000
01001000
00000000
01000000
00010000
,
10000000
00000000
11000000
00000000
,
00100000
00010000
00000000
00100000
00001000
00000000
00010000
00000000
00010100
00000000
00000000
00000000
00001010
00000000
00000000
00000000
,
00000102
00000000
00000000
00000010
00000013
00000000
00000001
00000000
,
00000100
00000010
00000000
00000000
00000000
00000000
00000000
00000000
00001000
00000000
00000000
00000000
00000100
00000000
00000000
00000000
,
00021000
00000000
00000000
00000010
00030010
00000000
00010000
00000000
,
00001000
00100000
00000000
00000000
00000000
00000000
00000000
00000000
00010000
00000000
00000000
00000000
01000000
00000000
00000000
00000000
,
20010000
00000000
00000000
00100000
30100000
00000000
10000000
00000000
,
01000000
00100000
00000000
00000000
00000000
00000000
00000000
00000000
00001000
00000000
00000000
00000000
00010000
00000000
00000000
00000000
,
00010020
00000000
00000000
00000100
00000130
00000000
00000001
00000000
,
00000010
00000100
00010000
00000000
00001000
00000000
01000000
00000000
,
00100000
00000000
10010000
00000000
10000000
01000000
00010000
00000000
,
00001000
00000000
00110000
00000000
00001000
00010000
00000010
00000000
,
00000100
00000000
00000001
00000010
00000100
00000000
00001000
00000010
,
00010000
00000000
00000000
00010000
00001000
00000000
00000000
00001000
00100000
00000000
00000000
00100000
00010000
00000000
00000000
00010000
,
10000000
00000000
00100000
01000000
00010000
01000000
00001000
00010000
,
00000100
00000000
00000010
00000100
00001000
00000100
00010000
00001000
,
01000000
01100000
01010000
00101000
,
00010010
00001100
00000011
00000101
,
00001001
00000000
00001100
00000000
00000100
00010000
00001000
00000000
,
01001000
00000000
01000000
00010000
00110000
00000000
00100000
01000000
,
11000000
00000000
10000000
00010000
01000000
00000000
00001000
00000000
,
00011000
00000000
00010000
00000100
00000110
00000000
00000010
00000000
,
00001002
00000103
00002010
00003100
,
00021000
00030010
00012000
00103000
,
02010000
03200000
20300000
30020000
,
00230000
00000000
00301000
00010000
00000010
00000000
00001000
00000000
,
00001001
00000000
00000000
00000001
00000010
00000001
00000100
00000000
00000000
00000100
00000000
00000000
,
00001010
00000000
00000000
00000010
00001000
00000010
00010000
00000000
00000000
00011000
00000000
00000000
,
00101000
00000000
00000000
00100000
00010000
10000000
00100000
00000000
00000000
01000000
00000000
00000000
,
01100000
01001000
00010100
00001100
,
00001001
00000000
00000000
00000001
00000100
00000010
00001000
00000000
00000000
00001100
00000000
00000000
,
00010100
00000000
00000000
00010000
00001000
01000000
00010000
00000000
00000000
00110000
00000000
00000000
,
11000000
00000000
00000000
10000000
00010000
01000000
00001000
00000000
00000000
00011000
00000000
00000000
,
00010100
00000000
00000100
00001000
00000100
00000010
00000001
00000000
00000000
00000101
00000000
00000000
,
00001010
00000000
00010000
00000000
,
00001000
00000000
00100000
00000000
,
00010000
00000000
01000000
00000000
,
00100000
00000000
10000000
00000000
,
02000000
00000000
03020000
00000000
,
00032000
00000000
00003200
00000000
,
00000302
00000023
00000230
00020300
,
00032000
00000000
02000000
03003000
,
01100000
00000000
00000000
00000000
00000000
00000000
00000000
00000000
10000000
00000000
01000000
00000000
00100000
00010000
00100000
00010000
,
10000000
00000000
01000000
00000000
00010000
00001000
00010000
00000000
,
00001100
00000000
00000001
00000100
00000110
00000000
00000010
00010000
,
00011000
00000000
00001000
00100000
00110000
00000000
01000000
00000000
,
11000000
00000000
10100000
00000000
00010000
00010000
01000000
01000000
,
01001000
00001000
00010100
00000100
,
00000011
00000000
00001100
00000000
00010000
00010000
00001000
00001000
,
01001000
00000000
00100000
00000000
01100000
00000000
10000000
00010000
,
01000000
00001000
00010000
00000000
00000100
00000000
00001000
00000000
,
00000012
00000000
00000103
00000000
00000001
00000100
00001100
00000000
,
00021000
00000000
00130000
00000000
00010000
00100000
01100000
00000000
,
10010000
00000000
10000000
01000000
01100000
00000000
00100000
00001000
,
00011000
00000010
00001000
00000001
,
00000011
00000000
00000000
00000010
00000000
00000100
00010000
00000000
00010000
00001000
00000000
00001000
,
01000000
00000000
00000000
00100000
00000000
00100000
10000000
00000000
10000000
01000000
00000000
01000000
,
00010000
00000000
00000000
00001000
00010000
00000010
00010000
00000000
00000000
00010000
00001000
00100000
,
00002000
00023000
00230000
02300000
,
03010000
00000000
00000000
00000000
00000000
00000000
10000000
10000000
10000000
02000000
00000000
00000000
,
03010000
00000000
00000000
00000000
00011000
00000000
00010000
00000100
,
00001000
00000000
00000000
00000010
00000000
00000000
00000101
00000000
00000000
00000000
00000001
00000000
00000010
00000000
00000100
00000000
,
00010000
00000000
00000000
00001000
00000000
00000000
01000000
00000000
00000000
00010000
00000000
00000000
01000000
00000000
10000000
00000000
,
01000000
00000000
00000000
00010000
00000000
00000000
00001000
00000000
00000000
00010000
00000000
00000000
00000010
00000000
00001000
00000000
,
00001001
00000000
00000010
00000000
00001100
00000000
00010000
00001000
,
01000000
00000000
00000000
00010000
00000000
00000000
00100000
00000000
00000000
00000000
01000000
00000000
10000000
00000000
01000000
00000000
,
00010000
00000000
00000000
00001000
00000000
00000000
00010000
00000000
00000000
00000000
00000010
00000000
00001000
00000000
00000001
00000000
,
00000011
00000000
00000000
00000010
00000100
00000000
00000000
00000100
00010000
00000000
00000000
00010000
00001000
00000000
00000000
00001000
,
02000000
00000000
03200000
00000000
,
10300000
00000000
02000000
00000000
,
03200000
00000000
00302000
00000000
,
00023000
00000000
00030020
00000000
,
00002030
00000000
00003002
00000000
,
00000023
00000000
00000230
00000000
,
00020300
00000000
00032000
00000000
,
02003000
00000000
03020000
00000000
,
20000000
00000000
00000000
00000000
,
00000000
00000000
00000000
00000000
,
30030000
00000000
00000000
00000000
;

//--------------- dance-double - forcednature ----------------
#NOTEDATA:;
#STEPSTYPE:dance-double;
#DESCRIPTION:forcednature;
#CREDIT:forcednature;
#DIFFICULTY:Hard;
#METER:16;
#RADARVALUES:0,0,0,0,0;
#NOTES:
00000000
00000000
00000000
00000000
,
00000000
00000000
00000000
00000000
,
00000000
00000000
00000000
00000000
,
00000000
00000000
00000000
00000000
,
00000000
00000000
00000000
00000000
,
00000000
00000000
00000000
00000000
,
00000000
00000000
00000000
00000000
,
00000000
00000000
00000000
00000000
,
00000000
00000000
00000000
00000000
,
00010000
00000100
00001000
00000000
00000000
00000000
00000010
00010000
00001000
00000000
00000000
00000000
,
00100000
00010000
01000000
00000000
00000000
00000000
00001000
00010000
00000100
00000000
00000000
00000000
,
00001000
00000010
00010000
00000000
00000000
00000000
00001000
00100000
00010000
00000000
00000000
00000000
,
01000000
00000000
00100000
00000000
10000000
00000000
00000000
00000000
00000000
00000000
00000000
00000000
01000000
00000000
00100000
00000000
00010000
00000000
01000000
00000000
00000000
01000000
00000000
00000000
,
01001000
00000000
00001000
00010000
00001100
00000000
00000001
00000000
,
00000100
00000010
00000100
00001000
00011000
00000000
00101000
00000000
,
01010000
00000000
10100000
00000000
,
00000000
00000000
00000000
00000000
10000000
01000000
00010000
00001000
,
00100000
00000000
00000000
01000000
00010000
00000000
00000000
00001000
00010000
00000000
00000000
00000000
00000000
00000000
00000010
00001000
,
00000001
00000000
00000000
00000000
00000010
00000000
00000000
00000100
00001000
00000000
00000000
00000010
00010000
00001000
00000000
00000000
,
00011000
00000000
01001000
00000000
,
01000000
00000000
00000000
00000000
00000000
00000000
00000000
00000000
00010000
00000000
10000000
00000000
01000000
00100000
01000000
00100000
,
00020000
00000000
00000000
00000000
00000000
00000000
00000000
01030000
00002000
00000000
00000000
00000000
00000000
00000000
00000000
00013000
,
00000100
00001000
00000000
00000001
00000010
00000000
00000100
00000000
00010000
00001000
00000000
01000000
00010000
00000000
00100000
00000000
,
01100000
00000000
01000000
20000000
00100000
00000000
30010000
00000000
,
01000000
00001000
00010000
00000000
00000000
00000000
00000000
00000000
00001100
00000000
00000000
00000000
00000011
00000000
00000000
00000000
,
00001001
00000000
00000001
00000200
00000010
00000000
00001300
00000000
,
00000010
00010000
00001000
00000000
00000000
00000000
00000000
00000000
00101000
00000000
00000000
00000000
01010000
00000000
00000000
00000000
,
00010000
00000000
10000000
02000000
00100000
00000000
03010000
00000000
,
00100000
00001000
00010000
00000000
00000000
00000000
00000000
00000000
00010100
00000000
00000000
00000000
00001010
00000000
00000000
00000000
,
00010100
00000000
00000000
00000000
00010000
00000000
00001000
00000000
01000000
00000000
00000000
00000000
00010000
00000000
00100000
01000000
,
10000000
00010000
10000000
00010000
01000000
00000000
00000000
00000000
00001000
00000000
00000000
00000000
00010000
00000000
00000000
00000000
,
00000100
00000000
00001100
00000000
00001000
00000010
00000110
00000000
,
00000100
00000000
00000101
00000000
00000001
00000010
00000110
00000000
,
00010100
00000000
00010000
00001000
01001000
00000000
00110000
00000000
,
10010000
00000000
00000000
10000000
01000000
00000000
00000000
00000000
01100000
00000000
00000000
00000000
00110000
00000000
00000000
00000000
,
00101000
00000000
00000000
00000000
00001000
00010000
00001000
00000000
00010000
00000010
00010000
00000000
00000010
00001000
00000010
00000000
,
00000101
00000000
00000000
00000000
00000001
00000010
00000001
00000000
00001000
00000100
00001000
00000000
00000100
00010000
00000100
00000000
,
00002000
00003010
00020000
00130000
,
01000000
00010000
00000000
10000000
01000000
00000000
00100000
00000000
00001000
00010000
00000000
00000010
00001000
00000000
00000100
00000000
,
00000110
00000000
00000010
00000001
00000100
00000001
00000010
00001000
,
00011000
00000000
00010000
00100000
01100000
00000000
10000000
00100000
,
01100000
00000000
01000000
00001000
00010000
00000100
00001000
00000010
,
00000110
00000000
00000100
00000001
00000011
00000000
00000100
00000000
,
00001000
00000010
00000000
00010000
00001000
00000000
00100000
00000000
00010000
01000000
00000000
00100000
01000000
00000000
00010000
00000000
,
10000000
01000000
00000000
00100000
00010000
00000000
01000000
00000000
00001000
00010000
00000000
00000100
00001000
00000000
00000010
00000000
,
00000001
00000000
00000010
00001000
00000100
00000000
00010000
00000000
,
00011000
00000000
00000000
00000000
00000000
01000000
00010000
10000000
00100000
00000000
00000000
00000000
11000000
00000000
00000000
00000000
,
00110000
00000000
00000000
00100000
00001000
00010000
00010100
00000000
00000000
00001000
00000000
00000000
,
01001000
00000000
00000000
01000000
00001000
00010000
00010010
00000000
00000000
00001100
00000000
00000000
,
00011000
00000000
00000000
00000010
00000100
00001000
00011000
00000000
00000000
01001000
00000000
00000000
,
01000000
00010000
00100000
01000000
10000000
00100000
01000000
00001000
00010000
00000100
00010000
00001000
,
00000100
00000000
00000000
00000001
00000010
00000100
00001100
00000000
00000000
00011000
00000000
00000000
,
00110000
00000000
00000000
01000000
00001000
00010000
00010010
00000000
00000000
00010100
00000000
00000000
,
00001100
00000000
00000000
00000100
00000010
00000001
00001001
00000000
00000000
00010010
00000000
00000000
,
00101000
00000000
00000000
00100000
00010000
01000000
01100000
00000000
00000000
01010000
00000000
00000000
,
10100000
00000000
10000000
00000000
,
01000000
00000000
00010000
00000000
,
00001000
00000000
00000100
00000000
,
00000001
00000000
00000010
00000000
,
00000200
00000000
00020300
00000000
,
00032000
00000000
02003000
00000000
,
03020000
00100000
10000000
01000000
,
00130000
00000000
00001000
00000000
,
00022000
00000000
00000000
00033000
,
00001100
00000000
00000000
00001000
00000001
00000000
00000100
00000000
00000010
00000000
00001000
00000100
00010000
00000000
00001000
00000000
,
01000000
00000000
00000000
01000000
00010000
00000000
00100000
00000000
01000000
00000000
10000000
00010000
01000000
00000000
00001000
01000000
,
00010000
00000000
00100000
00000000
00001000
00000000
00000000
00000000
00011000
00000000
00000000
00010000
00000010
00001000
00000010
00000000
,
00000100
00000001
00001000
00000000
00000010
00001000
00000001
00000000
00000010
00000100
00001000
00000100
00010000
00001000
01000000
00010000
,
01000000
00000000
00000000
00000000
00100000
00000000
10000000
00000000
01000000
00000000
00100000
00001000
00010000
00000000
00000000
00000000
,
00000010
00001000
00000001
00000000
00000100
00000001
00001000
00000000
00000100
00001000
00000100
00010000
00001000
00100000
00010000
00100000
,
01000000
00000000
10000000
00000000
01000000
00000000
00010000
00000000
00001000
00000000
00100000
00000000
00010000
01000000
00001000
00000000
,
00010000
00000100
00010000
00000100
00001000
00000001
00001000
00000000
00000010
00000000
00000010
00000000
00000100
00001000
00010000
00001000
,
00100000
00000000
00000000
00000000
01100000
00000000
01000000
00000000
10000000
00000000
00000000
00000000
00110000
00000000
00100000
00001000
,
00010000
00000000
00000000
00010000
00000010
00000000
00000000
00000010
00001000
00000001
00000010
00000100
00001000
00000010
00001000
00000010
,
00010000
00000000
00000000
00000000
00001000
00100000
00010000
00100000
01000000
10000000
00010000
10000000
00100000
00000000
01000000
00010000
,
00100000
00000000
00000000
00000000
01000000
00000000
00000000
00000000
00010000
00000000
00000000
00000000
00001000
00000000
00000000
00000000
00010000
00000000
00000000
00000000
00000010
00000000
00000000
00000000
00001000
00000000
00000000
00000000
00000000
00000000
00000000
00000000
00000000
00000000
00000000
00000000
00000001
00000000
00000000
00000010
00000000
00000000
00000001
00000000
00000000
00000010
00000000
00000000
,
00000100
00000000
00001000
00000010
00010000
00001000
00100000
00010000
01000000
10000000
01000000
00010000
,
00100000
00000000
01000000
00010000
00001000
00010000
00000100
00001000
00000100
00000010
00000001
00000100
,
00000001
00000000
00000000
00000001
00000010
00000000
00000100
00001000
00000010
00000000
00000010
00010000
00001000
01000000
00010000
00000000
,
00100000
00000000
01100000
00000000
10000000
00000000
10010000
00000000
00010000
01000000
00001000
00010000
00000100
00001000
00000001
00000100
,
00000020
00000000
00000000
00000000
00000000
00000000
00000000
00000000
00000000
00000000
00000000
00000000
00000000
00000000
00000000
00000000
00000000
00000000
00000000
00000000
00000000
00000000
00000000
00000000
00000130
00000000
00000000
00000000
00000100
00000000
00000000
00000000
00000100
00000000
00000000
00000000
00001000
00000000
00000000
00010000
00000000
00000000
00001000
00000000
00000000
01000000
00000000
00000000
,
00010000
00000000
00000000
00010000
00100000
00000000
01000000
10000000
00010000
00000000
00000000
00010000
01000000
00000000
00001000
00010000
,
00000100
00000000
00000000
00001100
00000000
00000000
00000011
00000000
00000000
00000000
00000001
00000100
00000001
00000010
00000100
00001000
,
00000200
00000000
00000000
00000001
00000000
00000000
00000010
00000000
00000000
00001300
00000000
00000000
00010000
00001000
01000000
00010000
,
00200000
00000000
00000000
10000000
00000000
00000000
01000000
00000000
00000000
00310000
00000000
00000000
00100000
00000000
00100000
00000000
,
00001000
00010000
00100000
01000000
00100000
00000000
10000000
00000000
11000000
00000000
00000000
01000000
00010000
00001000
00010000
00000010
,
00002000
00000000
00000000
00000100
00000000
00000000
00000001
00000000
00000000
00000000
00003010
00000000
00001000
00000100
00010000
00001000
,
02000000
00000000
00000000
00010000
00000000
00000000
00100000
00000000
00000000
00000000
13000000
01000000
00100000
01000000
00010000
01000000
,
00001000
00000000
00010000
00000100
00001000
00000000
00000010
00001000
00000001
00000000
00000001
00000000
00000010
00000100
00001000
00000100
,
00020000
00000000
00000000
00000000
,
00000000
00000000
00032000
00000000
,
02003000
00000000
03020000
00000000
,
20030000
00000000
32000000
00000000
,
03020000
00000000
00032000
00000000
,
00003200
00000000
00000302
00000000
,
00000023
00000000
00000230
00000000
,
00020300
00000000
00032000
00000000
,
02003000
00000000
00000000
00000000
,
00000000
00000000
00000000
00000000
,
03000000
00000000
00000000
00000000
;

//--------------- dance-double - forcednature ----------------
#NOTEDATA:;
#STEPSTYPE:dance-double;
#DESCRIPTION:forcednature;
#CREDIT:forcednature;
#DIFFICULTY:Challenge;
#METER:17;
#RADARVALUES:0,0,0,0,0;
#NOTES:
00000000
00000000
00000000
00000000
,
00000000
00000000
00000000
00000000
,
00000000
00000000
00000000
00000000
,
00000000
00000000
00000000
00000000
,
00000000
00000000
00000000
00000000
,
00000000
00000000
00000000
00000000
,
00000000
00000000
00000000
00000000
,
00000000
00000000
00000000
00000000
,
00000000
00000000
00000000
00000000
,
00010000
00001000
00100000
00001000
00010000
00000010
00010000
00001000
01000000
00001000
00010000
00000100
,
00001000
00000010
00000100
00001000
00010000
00100000
01000000
00010000
00100000
01000000
00010000
00001000
,
00000010
00000100
00001000
00000001
00000100
00000010
00001000
00000100
00010000
00001000
01000000
00010000
,
00100000
00000000
00000000
00000000
01000000
00000000
00000000
00000000
10000000
00000000
00000000
00000000
01000000
00000000
00000000
00000000
00010000
00000000
00000000
00000000
00001000
00000000
00000000
00000000
01000000
00000000
00000000
00000000
00010000
00000000
00000000
00000000
00100000
00000000
00000000
00000000
00001000
00000000
00000000
00010000
00000000
00000000
00000010
00000000
00000000
00001000
00000000
00000000
,
00000020
00000000
00000000
00000130
00001000
00010000
00200000
00000000
00000000
02300000
00000000
00000000
,
03020000
00000000
00000000
00130000
01000000
00010000
00002000
00000000
00000000
00003010
00000000
00000000
,
00000220
00000000
00000000
00000030
00020000
00000000
00000000
00000000
,
00000000
00000000
00000000
00000000
00030300
00000000
00000000
00000000
00010000
00001000
01000000
00010000
01000000
00100000
10000000
00010000
,
00100000
00000000
00000000
00100000
02000000
00000000
00000000
10000000
20000000
00000000
00000000
00000000
33000000
00000000
10000000
00010000
,
00200000
00000000
00000000
00000000
00302000
00000000
00000000
00010000
00013000
00000000
00000000
00001000
00010000
00000010
00001000
00000000
,
00002020
00000000
00000000
00003000
00000200
00000000
00000000
00000030
,
00000002
00000000
00000000
00000000
00000000
00000000
00000300
00000000
00001003
00000001
00000010
00000100
00001000
00000100
00010000
00001000
,
00200000
00000000
00000000
00000000
00000000
00000000
00000000
01000000
02300000
00000000
00000000
00000000
00000000
00000000
00000000
10000000
,
13000000
01000000
00000000
00100000
00010000
00000000
01000000
00001000
00010000
00001000
00100000
00010000
00100000
00001000
00010000
00000010
,
00010000
00000000
00000000
00000000
00000000
00000000
00000000
00000000
00000000
00010000
00000000
00000000
00001000
00000000
00000000
00000000
00000000
00000000
00000010
00000000
00000000
00000100
00000000
00000000
00001000
00000000
00000000
00000000
00000000
00000000
00000000
00000000
00000000
00000000
00000000
00000000
00000001
00000000
00000100
00000000
00000001
00000000
00000100
00000000
00000000
00000000
00000000
00000000
,
00000010
00000000
00001000
00000000
00000010
00000000
00001000
00000000
00000000
00000000
00000000
00000000
00000000
00000000
00000000
00000000
00000000
00000000
00000000
00000000
00000000
00000000
00000000
00000000
00000100
00000000
00000000
00000000
00000000
00000000
00010000
00000000
00000000
00001000
00000000
00000000
01000000
00000000
00000000
00000000
00000000
00000000
00010000
00000000
00000000
00100000
00000000
00000000
,
02000000
00000000
10000000
00100000
03020000
00000000
00031000
00010000
,
00000010
00000000
00001000
00000000
00000010
00000000
00001000
00000000
00000000
00000000
00000000
00000000
00000000
00000000
00000000
00000000
00000000
00000000
00000001
00000000
00000000
00000000
00000000
00000000
00000010
00000000
00000000
00000100
00000000
00000000
00001000
00000000
00000000
00000100
00000000
00000000
00010000
00000000
00000000
00001000
00000000
00000000
01000000
00000000
00000000
00010000
00000000
00000000
,
01000000
00000000
00000000
00000000
00100000
00000000
10000000
00010000
00100000
00000000
00000000
00100000
01000000
10000000
01000000
00000000
,
00010000
00000000
00001000
00000000
00010000
00000000
00001000
00000000
00000000
00000000
00000000
00000000
00000000
00000000
00000000
00000000
00000000
00000000
00000010
00000000
00000000
00000000
00000000
00000000
00000100
00000000
00000000
00001000
00000000
00000000
00000100
00000000
00000000
00010000
00000000
00000000
00001000
00000000
00000000
01000000
00000000
00000000
00010000
00000000
00000000
00100000
00000000
00000000
,
01000000
00000000
10000000
00000000
01000000
00000000
00010000
00001000
00010000
00000000
00000010
00000000
00000100
00000001
00000100
00000010
,
00001000
00000100
00000010
00000100
00010000
00000000
00000000
00010000
00001000
00000000
00001000
00000000
00001000
01000000
00010000
01000000
,
00100000
00000000
00000000
00000000
01100000
00000000
10000000
00000000
00010000
00000000
00000000
00000000
00100000
00001000
00010000
00000100
,
00001000
00000000
00000000
00000000
00001001
00000000
00000001
00000000
00000100
00000000
00001000
00000000
01000000
00010000
10000000
00010000
,
00200000
00000000
00000000
00000000
01300000
10000000
01000000
00010000
00001000
00000000
00000000
00001000
00100000
00000000
00000000
00100000
,
00010000
00000000
00000000
00010000
00001000
00000000
00000000
00001000
00000100
00000010
00000001
00001000
00000001
00000100
00000010
00001000
,
00000200
00000000
00000000
00000000
00010300
00000100
00010000
00001000
00100000
00000000
00010000
01000000
10000000
00000000
01000000
00010000
,
00200000
00000000
00000000
01000000
00000000
00000000
10300000
00100000
01000000
00100000
00010000
00000000
01000000
00001000
00010000
00000100
,
00010000
00000000
00001000
00000100
00000010
00000000
00001000
00000000
00000001
00000000
00000001
00000010
00000001
00000000
00000001
00000100
,
00001000
00010000
00000000
00010000
00100000
00000000
00100000
01000000
00010000
10000000
01000000
00000000
00100000
00010000
00100000
00001000
,
00010000
00000000
00010000
00000010
00001000
00000010
00000100
00000000
00000001
00000000
00000010
00000100
00001000
00000100
00010000
00000000
,
00001000
00000000
01000000
00010000
01000000
00100000
10000000
00000000
00010000
00000000
00100000
01000000
00010000
00000000
00000000
00000000
,
00001000
00000000
00010000
00000100
00001000
00000100
00000010
00000001
00001000
00000000
00000010
00000100
00000010
00010000
00001000
00100000
,
00001000
00000000
00010000
00100000
01000000
00100000
10000000
00010000
00100000
00000000
01000000
00010000
00001000
00000000
00100000
00010000
,
00100000
00001000
00010000
00000100
00001000
00000000
00000000
00001000
00000010
00000000
00000000
00000010
00000001
00000010
00000100
00000001
,
00001000
00000001
00000010
00000100
00001000
00000000
00000010
00010000
00002000
00000000
00100000
00000000
00013000
00001000
01000000
00000000
,
00100000
10000000
00010000
10000000
01000000
00010000
00001000
00010000
00000100
00000000
00001000
00000010
00001000
00000000
00000000
00001000
,
00000200
00000000
00000000
00000000
00000001
00000000
00000310
00000100
00001000
00000001
00000100
00000000
00000110
00000000
00000110
00000000
,
00000010
00001000
00010000
01000000
00010000
00100000
01100000
00000000
00000000
10000000
00000000
00000000
,
00110000
00000000
00000000
00100000
00001000
00010000
00000100
00000000
00000000
00001100
00000000
00000000
,
00000011
00000000
00000000
00000001
00000100
00001000
00010000
00000000
00000000
00100000
01000000
00010000
,
00100000
01000000
10000000
00000000
10000000
00100000
01000000
00000000
01000000
00001000
00010000
00000000
00010000
00000100
00001000
00000000
,
00000011
00000000
00000000
00000000
00000000
00000000
00000001
00000010
00000100
00001000
00000100
00010000
00001000
00000000
00000000
00000000
00000000
00000000
00101000
00000000
00000000
00000000
00000000
00000000
,
01001000
00000000
00000000
00000000
00000000
00000000
10000000
00100000
01000000
00010000
01000000
00001000
00010000
00000000
00000000
00000000
00000000
00000000
00010010
00000000
00000000
00000000
00000000
00000000
,
00010100
00000000
00000000
00000000
00000000
00000000
00010000
00000100
00010000
00001000
00100000
00001000
00010000
00000000
00000000
00000000
00010000
00000000
00100000
00000000
10000000
00000000
00010000
00000000
,
00110000
00000000
00000000
00000000
00000000
00000000
00010000
01000000
00001000
00010000
00000010
00001000
00000010
00000000
00000000
00000000
00000000
00000000
00000110
00000000
00000000
00000000
00000000
00000000
,
00001002
00000003
00000200
00000300
,
00002000
00003000
00020000
00030000
,
00200000
00300000
20000000
30000000
,
02000000
03000000
00020000
00030000
,
00002000
00000000
00000000
00000000
00200000
00000000
00000000
00003000
,
00020000
00000000
00000000
00300000
02000000
00000000
00000000
00030000
,
00002000
03000000
00020000
00003000
00000200
00030000
00002000
00000300
,
00003002
00000003
00000200
00000300
,
00022000
00000000
00000000
00000000
00000000
00000000
00000000
00000000
00000000
00000000
00000000
00000000
00000000
00000000
00000000
00000000
00000000
00000000
00033000
00000000
00000000
00000000
00000000
00000000
00001000
00000000
00000000
00010000
00000000
00000000
00100000
00000000
00000000
01000000
00000000
00000000
00010000
00000000
10000000
00000000
01000000
00000000
00100000
00000000
00010000
00000000
10000000
00000000
,
00010000
01000000
00010000
00000000
01000000
00001000
01000000
00000000
00001000
00010000
00001000
00000000
00010000
00000100
00010000
00000000
,
00001100
00000000
00000000
00001000
00000010
00000000
00000100
00000000
00000101
00000000
00000000
00000001
00000010
00000000
00000100
00000000
,
00000110
00000000
00000000
00000010
00001000
00000000
00010000
00000000
00011000
00000000
00000000
00000000
01000000
00000000
00000000
00000000
,
00010000
00000000
00100000
00000000
00001000
00000000
00010000
00000000
00000000
00000000
00000000
00000000
00000010
00000000
00001000
00000000
00000010
00000000
00000100
00000000
00000000
00000000
00000000
00000000
00000001
00000000
00000000
00000010
00000000
00000000
00000001
00000000
00000000
00000100
00000000
00000000
00000010
00000000
00000000
00000100
00000000
00000000
00001000
00000000
00000000
00010000
00000000
00000000
,
00001000
01000000
00010000
00100000
01100000
01000000
10000000
01000000
,
00010000
00000000
00001000
00000000
00100000
00000000
00001000
00000000
00000000
00000000
00000000
00000000
00010000
00000000
00000010
00000000
00001000
00000000
00000010
00000000
00000000
00000000
00000000
00000000
00000100
00000000
00000000
00000001
00000000
00000000
00000010
00000000
00000000
00000001
00000000
00000000
00000100
00000000
00000000
00000010
00000000
00000000
00001000
00000000
00000000
00000100
00000000
00000000
,
00010000
00000000
00000000
00001000
00000000
00000000
00010000
00000000
00000000
00100000
00000000
00000000
01100000
00000000
00000000
01000000
00000000
00000000
00010000
10000000
00010000
10000000
00000000
00000000
,
01000000
00100000
00010000
00100000
00001000
00000000
00010000
00000010
00001000
00000010
00000100
00000001
00001000
00000001
00000010
00000100
,
00001000
00000000
00000010
00000100
00001000
00000000
00010000
00000000
00012000
00000000
00000000
00000000
01003000
00000000
00000000
00000000
,
10100000
00000000
00100000
01000000
00010000
00000000
00100000
00000000
00001000
00010000
00000010
00010000
00001000
00000010
00000100
00000010
,
00000001
00000100
00000001
00000100
00000010
00001000
00000100
00001000
00000010
00010000
00001000
00100000
00010000
00100000
01000000
10000000
,
01000000
00000000
00000000
00000000
00010000
00000000
00000000
00000000
00001000
00000000
00000000
00000000
00000100
00000000
00000000
00000000
00001000
00000000
00000000
00000000
00010000
00000000
00000000
00000000
00100000
00000000
00000000
00000000
00010000
00000000
00000000
00000000
00001000
00000000
00000000
00000000
00000010
00000000
00000000
00000100
00000000
00000000
00001000
00000000
00000000
00000100
00000000
00000000
,
00000010
00000000
00000000
00000001
00000100
00001000
00010000
00100000
10000000
01000000
00010000
00001000
,
00011000
00000000
00000000
00010000
00100000
10000000
01000000
00010000
00001000
00000010
00000001
00001000
,
00001001
00000000
00000000
00000000
00000000
00000000
00000100
00000000
00010000
00000000
00001000
00000000
00101000
00000000
00000000
00100000
00000000
00000000
01000000
00000000
10000000
00000000
01000000
00000000
,
00010000
00000000
00000000
00000000
00000000
00000000
00000000
00000000
00010000
00000000
00000000
00000000
00000000
00000000
00000000
00000000
00001000
00000000
00000000
00000000
00000000
00000000
00000000
00000000
00000010
00000000
00000000
00000000
00000000
00000000
00000000
00000000
00000010
00000000
00000000
00000000
00000000
00000000
00000000
00000000
00000100
00000000
00000000
00000000
00000000
00000000
00000000
00000000
00001000
00000000
00000000
00000000
00000000
00000000
00000001
00000000
00000000
00000000
00000000
00000000
00000100
00000000
00000000
00000000
00000000
00000000
00000001
00000000
00000000
00000000
00000000
00000000
00000010
00000000
00000000
00000001
00000000
00000000
00000010
00000000
00000000
00000000
00000000
00000000
00000100
00000000
00000000
00001000
00000000
00000000
00000100
00000000
00000000
00000000
00000000
00000000
,
00020000
00000000
00000000
00000000
00000000
00000000
00030000
00000000
00000000
00000000
00000000
00000000
00011000
00000000
00011000
00000000
00011000
00000000
00001000
01000000
00010000
01000000
00100000
10000000
,
00010000
00000000
00100000
01000000
10000000
00000000
00100000
00000000
01100000
00000000
00000000
00000000
01000000
00010000
01000000
00001000
,
00010000
00000000
00000000
00001100
00000000
00000000
00010010
00000000
00000000
00000000
00000001
00000010
00000100
00000010
00001000
00010000
,
00001000
00000000
00000000
01000000
01000000
00000000
01010000
00000000
00000000
10100000
00000000
00000000
10000000
01000000
00100000
00010000
,
01000000
00000000
00000000
01001000
00000000
00000000
00010100
00000000
00000000
00001010
00000000
00000000
00000001
00000000
00000001
00000000
,
00001000
00000000
00000100
00000000
00000010
00000000
00000001
00000000
00000000
00000000
00000000
00000000
00000100
00000000
00000000
00000000
00000000
00000000
00001000
00000000
00000000
00000000
00000000
00000000
00011000
00000000
00000000
00000000
00000000
00000000
00000000
00000000
00000000
00000000
00000000
00000000
01000000
00000000
00000000
00010000
00000000
00000000
00100000
00000000
00000000
01000000
00000000
00000000
,
10000000
00000000
00000000
10100000
00000000
00000000
01001000
00000000
00000000
00000000
00001000
00000000
00010000
00000100
00001000
00000100
,
00000010
00000000
00000000
00000110
00000000
00000000
00001001
00000000
00000000
00000000
00001000
00000010
00000100
00001000
00010000
00001000
,
00100000
00000000
00000000
00000000
00000000
00000000
00100000
00000000
00000000
01000000
00000000
00000000
11000000
00000000
00000000
00000000
00000000
00000000
01000000
00000000
00000000
00100000
00000000
00000000
00110000
00000000
00000000
00000000
00000000
00000000
00001000
00000000
00000000
00000000
00000000
00000000
00010000
00000000
00000010
00000000
00001000
00000000
00000010
00000000
00000100
00000000
00000001
00000000
,
00002000
00000000
00003200
00000000
,
00000000
00000000
00020300
00000000
,
00032000
00000000
02003000
00000000
,
03020000
00000000
00230000
00000000
,
02300000
00000000
23000000
00000000
,
30020000
00000000
02030000
00000000
,
03002000
00000000
00023000
00000000
,
00030200
00000000
00002300
00000000
,
00000002
00000000
00000000
00000000
,
00000000
00000000
00000000
00000000
,
00003003
00000000
00000000
00000000
;
