#VERSION:0.83;
#TITLE:ばらんが!!!!;
#SUBTITLE:;
#ARTIST:かめりあ feat. ななひら;
#TITLETRANSLIT:Valanga!!!!;
#SUBTITLETRANSLIT:;
#ARTISTTRANSLIT:Camellia feat. Nanahira;
#GENRE:;
#CREDIT:;
#MUSIC:Valanga!!!!.ogg;
#BANNER:Valanga!!!!.png;
#BACKGROUND:Valanga!!!!-bg.png;
#CDTITLE:./CDTitles/SDVX EXCEED GEAR.png;
#SAMPLESTART:61.246;
#SAMPLELENGTH:15.000;
#SELECTABLE:YES;
#OFFSET:0.000;
#BPMS:0.000=142.500;
#STOPS:;
#BGCHANGES:0.000=../BGAs/19po.mp4=1.000=0=0=0=StretchNoLoop====,
99999.000=-nosongbg-=1.000=0=0=0=StretchNoLoop====
;
#FGCHANGES:;

//--------------- dance-single - forcednature!!!! ----------------
#NOTEDATA:;
#STEPSTYPE:dance-single;
#DESCRIPTION:forcednature!!!!;
#CREDIT:forcednature!!!!;
#DIFFICULTY:Beginner;
#METER:4;
#RADARVALUES:0,0,0,0,0;
#NOTES:
0000
0000
0000
0000
,
0000
0000
0000
0000
,
0000
0000
0000
0000
,
0000
0000
0000
0000
,
0000
0000
0000
0000
,
0000
0000
0000
0000
,
0000
0000
0000
0000
,
0000
0000
0000
0000
,
0100
0000
0100
0000
,
0010
0010
0010
0000
,
1001
0000
0000
0000
,
1000
0000
1000
0000
,
0001
0000
0001
0000
,
0100
0000
0100
0000
,
0010
0000
0010
0000
,
1000
0000
1000
0000
,
0001
0000
0001
0000
,
0010
0000
0010
0000
,
0100
0000
0100
0000
,
2000
0000
0000
0000
,
3000
0001
0001
0000
,
0002
0000
0000
0000
,
0003
1000
1000
0000
,
0020
0000
0000
0000
,
0030
0100
0100
0000
,
0200
0000
0000
0000
,
0300
0010
0010
0000
,
1000
1000
1000
1000
,
1000
0000
0001
0000
,
0001
0001
0001
0001
,
0001
0000
1000
0000
,
0010
0010
0010
0000
,
0100
0100
0100
0000
,
0001
1000
0001
0000
,
1000
0001
1000
0000
,
1001
0000
0000
0000
,
0100
0100
0100
0000
,
1001
0000
0010
0000
,
1000
0000
0000
0000
,
0001
0000
0010
0000
,
0100
0000
0010
0000
,
1001
0000
0100
0000
,
0001
0000
0000
0000
,
1000
0000
0010
0000
,
0100
0000
0010
0000
,
1001
0000
0100
0000
,
0010
0000
0000
0000
,
1000
0000
0100
0000
,
0010
0000
0001
0000
,
1001
0000
0000
0000
,
0010
0010
0010
0000
,
1000
0000
0001
0000
,
0100
0000
0010
0010
,
0001
0000
1000
0000
,
0100
0000
0010
0010
,
0100
0000
0010
0000
,
0100
0100
0100
0000
,
0001
0000
0001
0000
,
0010
0000
0010
0000
,
0100
0000
0100
0000
,
1000
0000
1000
0000
,
0010
0000
0010
0000
,
0100
0000
0100
0000
,
0001
0000
0001
0000
,
1000
0000
1001
0000
,
0000
0000
0000
0000
,
0000
0000
0000
0000
,
0010
0000
0100
0000
,
1001
0000
0000
0000
;

//--------------- dance-single - t7r!!!! ----------------
#NOTEDATA:;
#STEPSTYPE:dance-single;
#DESCRIPTION:t7r!!!!;
#CREDIT:t7r!!!!;
#DIFFICULTY:Easy;
#METER:7;
#RADARVALUES:0,0,0,0,0;
#NOTES:
0000
0000
0000
0000
,
0000
0000
0000
0000
,
0000
0000
0000
0000
,
0000
0000
0000
0000
,
0000
0000
0000
0000
,
0000
0000
0000
0000
,
0000
0000
0000
0000
,
0000
0000
0000
0000
,
0001
0000
0001
0000
,
0100
0100
0100
0000
,
0010
0000
1001
0000
,
1000
0100
0010
0100
,
1000
0100
0010
0100
,
1000
0100
0010
0001
,
0100
0100
1000
0100
,
0001
0010
0100
0010
,
0001
0010
0100
0010
,
0001
0010
0010
1000
,
0010
0001
0100
0010
,
1001
0000
0000
0010
0000
0000
0100
0000
,
0210
0001
0301
0000
,
1001
0000
0000
0010
0000
0000
0100
0000
,
0120
1000
1030
0000
,
1001
0000
0000
0001
0000
0000
0100
0000
,
0201
1000
0310
0000
,
1001
0000
0000
0010
0000
0000
0100
0000
,
1200
0010
0301
0000
,
0010
0000
0010
0000
0100
0000
1000
1000
,
2000
0010
3001
0000
,
0010
0000
0010
0000
0100
0000
0001
0001
,
0002
0010
1003
0000
,
0001
0000
0100
0000
0001
0000
0001
0001
,
0001
1000
0010
0120
,
1030
1000
0001
0001
,
0100
0010
0100
0000
0010
0100
0010
0000
,
2000
0000
0000
0000
,
3001
0000
0000
1000
0000
0000
0002
0000
0000
0000
0000
0000
0003
0000
0000
0000
,
0100
1000
0100
0001
,
0100
0100
0010
1000
,
0001
0010
0100
1000
,
2001
3010
0100
0001
,
1000
0110
0001
0100
,
0010
0010
1000
0100
,
0002
0000
0103
1000
,
0020
0000
0130
0001
,
0010
1000
0010
0001
,
0010
0010
0100
0010
,
0001
0000
0000
0001
0000
0000
0001
0000
0000
0001
0000
0000
0000
0000
0000
0000
,
2001
3010
0100
0001
,
1000
1100
0001
0010
,
0001
0100
1000
0100
,
0010
0000
0000
0010
0000
0000
0000
0000
1000
0000
0000
1000
0000
0000
0000
0000
,
0001
0000
0000
0001
0000
0000
0000
0000
0100
0000
0000
0000
1001
0000
0000
0000
,
0010
0000
0000
0010
0000
0000
0000
0000
0001
0000
0000
0001
0000
0000
0000
0000
,
1000
0000
0000
1000
0000
0000
0000
0000
0010
0000
0000
0000
0110
0000
0000
0000
,
2000
3000
0002
0003
,
0010
0010
0220
0330
,
1000
0100
0001
0100
,
1000
0100
0001
0100
,
1000
0010
0001
0010
,
0100
0100
0100
0000
0010
0000
1001
0000
,
0001
0010
1000
0010
,
0001
0100
1000
0100
,
0001
0001
0001
0000
1000
1000
1000
0000
,
0010
0000
0000
0000
0000
0000
0000
0100
0000
0000
0000
0000
0000
0000
0220
0000
,
0000
0330
0000
0000
,
0000
0000
0000
0000
,
1000
0000
0000
0000
0001
0000
0000
0000
0110
0000
0000
0000
0000
0000
0000
0001
,
0000
0001
0000
0001
0000
0000
2002
0000
0000
0000
0000
0000
3003
0000
0000
0000
;

//--------------- dance-single - forcednature!!!! ----------------
#NOTEDATA:;
#STEPSTYPE:dance-single;
#DESCRIPTION:forcednature!!!!;
#CREDIT:forcednature!!!!;
#DIFFICULTY:Medium;
#METER:12;
#RADARVALUES:0,0,0,0,0;
#NOTES:
0000
0000
0000
0000
,
0000
0000
0000
0000
,
0000
0000
0000
0000
,
0000
0000
0000
0000
,
0000
0000
0000
0000
,
0000
0000
0000
0000
,
0000
0000
0000
0000
,
0000
0000
0000
0000
,
1000
1000
0001
0001
,
0100
0010
0100
0010
0100
0100
0100
0100
,
0010
0000
0000
1000
0000
0001
0000
0000
2002
0000
0000
0000
3003
0000
0000
0000
,
1000
0100
0010
0000
0001
0100
0010
0000
,
1000
0001
0010
0000
0001
1000
0010
0100
,
0001
1000
0100
0000
0010
0001
0100
0000
,
0010
0010
1000
1000
0001
0001
0100
0100
,
0001
0010
0100
0000
1000
0001
0100
0000
,
0010
1000
0001
0000
1000
0100
0010
0001
,
1000
0010
0100
0000
0001
1000
0100
0000
,
0010
0000
0001
0000
0100
0000
0000
0010
0000
1000
0000
1001
0000
0000
0000
0000
,
1000
0000
0000
0100
0000
0000
0001
0000
0000
0010
0000
0000
1000
0000
0001
0000
,
2000
0000
0010
0010
0020
0000
3030
0000
,
0001
0000
0000
0100
0000
0000
1000
0000
0000
0010
0000
0000
0001
0000
1000
0000
,
0002
0000
0010
0010
0020
0000
0033
0000
,
0001
0000
0000
1000
0000
0000
0010
0000
0000
0100
0000
0000
0001
0000
1000
0000
,
0200
0000
0010
0010
0020
0000
0330
0000
,
0100
0000
0000
1000
0000
0000
0001
0000
0000
0100
0000
0000
1000
0000
0100
0000
,
0001
0011
1100
1001
,
1000
0100
0000
1000
0100
0000
0010
0001
0000
0010
0001
0000
1000
0000
0001
0000
,
1000
0010
0200
0300
,
0001
0100
0000
0001
0100
0000
0010
1000
0000
0010
1000
0000
0001
0000
1000
0000
,
0001
0010
0200
0300
,
1000
0100
0000
1000
0100
0000
1000
0001
0000
1000
0001
0000
0100
0000
0000
0000
,
0001
0100
0000
0001
0100
0000
0001
1000
0000
0001
1000
0000
0100
0000
0000
0000
,
0010
0001
0000
0010
0001
0000
1000
0010
0000
1000
0010
0000
0100
0000
0100
0000
,
0001
0010
0000
0100
1000
0000
0001
0100
0000
0010
1000
0000
0100
0000
0000
0000
,
2002
0000
0000
3003
,
0001
1000
0000
0001
1000
0000
0010
0000
0010
0000
0100
0000
0100
0000
0001
0000
,
1001
0000
1000
0100
1000
0010
0100
0001
,
0000
1001
0000
1000
0100
0001
0100
0010
,
0001
0000
0000
0100
0000
0000
0010
0000
0000
1000
0000
0000
0001
0000
0100
0000
,
0020
0000
0030
1000
0100
1000
0001
0100
,
1001
0000
0110
0000
0001
0010
0100
1000
,
0000
0000
1010
0000
0000
0000
0001
0000
0100
0000
0000
0010
0000
0000
1000
0000
,
0002
0000
0000
0000
0003
0000
1000
0000
0100
0000
0000
0010
0000
0000
0001
0000
,
2000
0000
3000
0010
0010
0100
0100
0010
,
1001
0000
0001
0100
0010
1000
0001
0010
,
0000
0110
0000
0100
1000
0001
1000
0010
,
0100
0000
0000
1000
0000
0000
0100
0000
0000
0001
0000
0000
0100
0000
0100
0000
,
0200
0000
0300
0010
1000
0001
0010
0100
,
0110
0000
1001
0000
0100
1000
0001
0100
,
0000
1001
1000
0001
0100
0100
0010
0000
,
1000
0000
0000
2002
0000
0000
3003
0000
0001
0000
0000
2002
0000
0000
3003
0000
,
0100
0000
0000
2002
0000
0000
3003
0000
1010
0000
0000
0000
0011
0000
0000
0000
,
0100
0000
0000
2200
0000
0000
3300
0000
0100
0000
0000
0202
0000
0000
0303
0000
,
0010
0000
0000
2002
0000
0000
3003
0000
0110
0000
0000
0000
1001
0000
0000
0000
,
2002
3003
0220
0330
,
0001
0100
0000
0010
0000
1000
0000
0002
2000
0000
0000
0000
3003
0000
0000
0000
,
0001
0100
0010
0000
1000
0100
0010
0000
,
0100
1000
0001
0000
0100
1000
0100
0001
,
0010
0100
0001
0000
0100
1000
0010
0000
,
1000
1000
0001
0001
0010
0010
0100
0100
,
0010
0001
0100
0000
0010
1000
0001
0000
,
0100
0001
1000
0000
0100
1000
0010
0100
,
0001
0010
0001
0010
0100
1000
0100
1000
,
0010
0000
0100
0000
0010
0000
0000
1000
0000
0001
0000
1001
0000
0000
2002
0000
,
0000
3003
0000
0000
,
0000
0000
0000
0000
,
1000
0000
0000
0000
0100
0000
0000
0000
1000
0000
0000
0000
0001
0000
0000
0000
0100
0000
0000
0000
0001
0000
0000
0000
0010
0000
0000
0000
0000
0000
0100
0000
0000
0000
0000
0000
0010
0000
0000
0000
0000
0000
0000
0000
0000
0001
0000
0000
,
0000
1000
0000
1001
0000
0000
2002
0000
0000
0000
0000
0000
3003
0000
0000
0000
;

//--------------- dance-single - 20% forcednature!!!! 80% t7r!!!! ----------------
#NOTEDATA:;
#STEPSTYPE:dance-single;
#DESCRIPTION:20% forcednature!!!! 80% t7r!!!!;
#CREDIT:20% forcednature!!!! 80% t7r!!!!;
#DIFFICULTY:Hard;
#METER:14;
#RADARVALUES:0,0,0,0,0;
#NOTES:
0000
0000
0000
0000
,
0000
0000
0000
0000
,
0000
0000
0000
0000
,
0000
0000
0000
0000
,
0000
0000
0000
0000
,
0000
0000
0000
0000
,
0000
0000
0000
0000
,
0000
0000
0000
0000
,
1000
0100
1000
0100
0001
0100
0001
0100
,
1000
1000
0010
0010
0100
0100
0001
0001
,
1000
0100
0000
1000
0000
1000
0000
1000
0001
0000
0000
0000
1001
0000
0000
0000
,
1000
0100
0001
0100
1000
0100
0001
0100
,
1000
0000
0100
0000
0001
0000
0100
0000
1000
0000
0100
0000
0001
0000
0100
1000
,
0001
0000
0100
0000
1000
0000
0100
0000
0001
0000
1000
0000
0001
0000
0100
0010
,
1000
0000
1000
0000
0100
0000
0100
0000
0010
0000
0001
1000
0001
0000
0001
0000
,
1000
0010
0001
0010
1000
0010
0001
0010
,
1000
0000
0010
0000
0001
0000
0010
0000
1000
0000
0010
0000
0001
0000
0010
1000
,
0001
0010
1000
0010
0001
1000
0001
0001
,
0100
0000
0010
0000
1000
0000
0000
0010
0000
0010
0000
0210
0000
0000
0000
0000
,
0301
0100
0000
0001
0100
0000
0010
1000
0000
0010
1000
0000
0001
0000
0001
0000
,
0002
0000
1000
0000
0103
0010
1000
0001
,
1000
0100
0000
1000
0100
0000
0010
0001
0000
0010
0001
0000
1000
0000
1000
0000
,
2000
0000
0000
0001
0000
0000
3010
0100
0010
1000
0000
0000
,
0001
0010
0000
0001
0010
0000
1000
0010
0000
1000
0010
0000
0100
0000
0100
0000
,
0200
0000
0001
0000
1300
0001
0100
0001
,
1000
0010
0000
1000
0010
0000
0001
0010
0000
0001
0010
0000
0100
0000
0100
0000
,
0200
1000
0301
1001
,
1000
0000
0000
1000
0100
0000
0000
0100
0010
0000
0000
0010
0001
0000
0001
0000
,
0002
0000
0103
0000
1000
0100
0001
1000
,
0001
0000
0000
0001
0010
0000
0000
0010
0100
0000
0000
0100
1000
0000
1000
0000
,
2000
0000
0000
3010
0000
0000
1000
0001
0100
0010
0000
0000
,
1000
0100
0000
1000
0100
0000
0010
0100
0000
0010
0100
0000
0010
0000
0010
0000
,
0001
0100
0000
0001
0100
0000
0010
0100
0000
0010
0100
0000
0020
0000
0000
0000
,
1030
1000
0100
0100
0010
0010
0001
0001
,
1000
0001
1000
0001
1000
0001
1000
0001
1000
0001
1000
0001
1000
0001
1000
0001
,
0020
0000
0000
0030
,
0001
0100
0000
0010
0100
0000
0001
0000
2000
0000
0000
0000
3001
0000
0000
0000
,
1000
0100
0001
0100
1000
0100
0010
1000
,
0010
0001
0010
0100
0010
0001
0100
1000
,
0100
0000
0010
0100
0000
0001
0100
0000
0010
0100
0000
0001
1000
0000
0100
0000
,
0010
0000
0001
1000
0010
0010
0100
0100
,
0001
0000
0210
0000
0301
0010
1000
0010
,
0100
0000
1000
0000
0100
0000
0001
0000
0001
0000
0100
0010
0000
0100
0010
0000
,
0002
0000
0000
0000
0103
0000
1000
0000
0100
0000
0010
0100
0000
0010
0100
0000
,
0020
0000
0000
0000
1030
0000
0001
1000
0001
0000
0001
0000
0001
0000
0000
0000
,
1000
0010
0001
0010
0100
0001
0100
1000
,
0100
0010
1000
0100
0010
0001
1000
0010
,
0110
0000
0000
0110
0000
0000
0101
0000
0000
0110
0000
0000
1010
0000
1000
0000
,
0002
0023
2030
3020
,
0031
0000
0000
0000
1001
0000
0000
0100
0010
0000
0100
0000
0001
0000
1000
0000
,
0010
0000
0000
0000
1000
0000
0000
0100
1000
0000
0000
1020
0000
0000
0000
0000
,
0130
0000
0000
0201
0000
0000
0000
0000
0310
0000
0000
2010
0000
0000
0000
0000
,
3001
0000
0000
0021
0000
0000
0000
0000
0130
0000
0000
0000
1001
0000
0000
0000
,
1000
0000
0000
2010
0000
0000
0000
0000
3001
0000
0000
0021
0000
0000
0000
0000
,
0130
0000
0000
1200
0000
0000
0000
0000
0310
0000
0000
0000
1001
0000
0000
0000
,
0101
0000
0000
0100
0000
0100
0000
0100
0010
0100
0000
0001
0000
0001
0000
0001
,
1000
0010
0000
1000
0000
1000
0000
1000
0001
0000
1000
0000
1001
0000
0000
0000
,
0100
0001
0100
1000
0010
0001
0010
1000
,
0100
0000
0001
0000
0100
0000
1000
0000
0010
0000
0001
0000
0010
0000
1000
0100
,
0010
0000
1000
0000
0010
0000
0001
0000
0100
0000
1000
0000
0100
0000
0001
1000
,
0010
0010
0100
0100
0001
0001
1000
0001
,
0100
1000
0100
0001
0010
1000
0010
0001
,
0100
0000
1000
0000
0100
0000
0001
0000
0010
0000
1000
0000
0010
0000
0001
1000
,
0001
0100
0001
0000
1000
0100
1000
0000
0001
0010
0001
0000
1000
0010
1000
0000
,
0001
0000
0001
0000
1000
0000
0010
0100
0000
0100
0000
0010
0000
0000
2002
0000
,
0000
3003
0000
0000
,
0000
0000
0000
0000
,
0001
0000
0000
0000
0100
0000
0000
0000
1000
0000
0000
0000
0100
0000
0000
0000
0001
0000
0000
0000
1000
0000
0000
0000
0010
0000
0000
0000
0000
0000
0010
0000
0000
0000
0000
0000
1000
0000
0000
0001
0000
0000
0000
0000
0000
0010
0000
0000
,
0000
0010
0000
0100
0000
0000
2002
0000
0000
0000
0000
0000
3003
0000
0000
0000
;

//--------------- dance-single - 80% forcednature!!!! 20% t7r!!!! ----------------
#NOTEDATA:;
#STEPSTYPE:dance-single;
#DESCRIPTION:80% forcednature!!!! 20% t7r!!!!;
#CREDIT:80% forcednature!!!! 20% t7r!!!!;
#DIFFICULTY:Challenge;
#METER:16;
#RADARVALUES:0,0,0,0,0;
#NOTES:
0000
0000
0000
0000
,
0000
0000
0000
0000
,
0000
0000
0000
0000
,
0000
0000
0000
0000
,
0000
0000
0000
0000
,
0000
0000
0000
0000
,
0000
0000
0000
0000
,
0000
0000
0000
0000
,
1000
0100
1000
1100
0001
0100
0001
0101
,
1000
0010
1000
0010
0100
0001
0100
0001
0010
0001
0010
0001
1000
0100
1000
0100
,
0010
0100
0000
1000
0000
0001
0000
0100
0010
0000
0000
0000
1001
0000
0000
0000
,
1000
0100
1000
0000
0001
0100
0001
0000
1000
0100
1000
0000
0001
0100
0001
0000
,
1000
0100
1000
0000
0001
0100
0001
0000
1000
0100
1000
0000
0001
0100
0001
1000
,
0001
0010
0001
0000
1000
0010
1000
0000
0001
0010
0001
0000
1000
0010
1000
0001
,
1000
0000
1000
0000
0100
0000
0100
0000
0001
0000
0100
1000
0001
0000
1000
0000
,
0001
0100
0001
0000
1000
0100
1000
0000
0001
0100
0001
0000
1000
0100
1000
0000
,
0001
0100
0001
0000
1000
0100
1000
0000
0001
0100
0001
0000
1000
0100
1000
0001
,
1000
0010
1000
0000
0001
0010
0001
0000
1000
0010
1000
0000
0001
0010
0001
1000
,
0001
0000
0001
0000
1000
0010
0000
0101
0000
1100
0000
2002
0000
0000
3003
0000
,
1000
0100
0000
0010
0001
0000
1000
0100
0000
0010
0001
0000
1000
0000
0001
0000
,
0100
0000
0000
0000
0010
0000
0010
0000
0010
0100
0001
1000
0100
1000
0001
0100
,
0010
1000
0000
0001
0100
0000
0010
1000
0000
0001
0100
0000
0010
0000
0010
0000
,
0010
0000
0000
0000
0000
0000
1000
0000
0000
0001
0000
0000
1000
0000
0100
0000
0001
0000
0100
0000
1000
0000
0010
0000
,
1000
0100
0000
0001
0100
0000
1000
0100
0000
0001
0100
0000
1000
0000
0001
0000
,
0100
0000
0010
0000
1000
0000
0001
0000
0010
0100
1000
0001
1000
0010
0100
0001
,
0100
1000
0000
0100
0001
0000
0100
1000
0000
0100
0001
0000
0100
0000
0010
0000
,
2000
0000
0000
0000
3200
0000
0000
0000
0310
0100
0010
0001
0100
0010
1000
0001
,
0010
0001
0000
1000
0010
0000
0100
0001
0000
1000
0100
0000
0110
0000
0110
0000
,
1001
0000
0000
0000
0002
0000
0000
0000
0103
0001
1000
0010
1000
0100
0010
0001
,
0100
0001
0000
0010
0100
0000
1000
0010
0000
0100
0010
0000
1001
0000
1001
0000
,
0110
0000
0000
2000
0000
0000
3100
1000
0010
0001
0010
1000
,
0100
0010
0000
0100
0001
0000
0100
1000
0000
0100
0010
0000
0001
0000
1000
0000
,
0010
0001
0000
0010
0100
0000
0010
1000
0000
0010
0100
0000
1002
0000
0000
0000
,
1003
0100
0000
0001
0100
0000
1000
0010
0000
0001
0010
0000
1000
0000
0001
0000
,
1000
0100
1000
0010
0100
0001
0010
0001
0100
0010
1000
0100
0010
0001
0100
0010
,
2000
0000
0000
0000
,
3001
1000
0000
0010
0100
0000
0001
1000
0001
0000
0010
0000
0100
0000
1000
0000
,
1001
0000
0001
0100
0010
0000
1000
0100
0010
0000
0001
0000
0100
0000
0101
0000
,
0000
0000
1010
0000
0000
0000
0001
1000
0001
0000
1000
0000
0100
0000
0010
0000
,
0011
0000
0000
0110
0000
0000
1100
0000
0000
1001
0000
0000
0110
0000
1001
0000
,
0220
0000
0000
0000
0330
0000
0001
0100
0001
0000
1000
0000
0010
0000
1000
0000
,
1100
0000
0011
0001
0100
1000
0100
0110
,
0000
0000
1001
0000
0000
0000
1000
0010
1000
0000
0000
1010
0000
0000
0110
0000
,
0202
0000
0000
0000
0303
0000
0001
0010
0001
0000
0000
0011
0000
0000
0110
0000
,
2200
0000
0000
0000
3300
0000
1000
0001
1000
0100
0010
0001
0100
0010
1000
0001
,
0010
0000
0100
1000
0010
0000
0100
0001
0010
0000
0110
0000
1100
0000
1001
0000
,
0000
0000
0101
0000
0000
0000
0001
1000
0001
0000
0010
0000
0100
0000
1000
0000
,
1010
0000
0000
0011
0000
0000
1100
0000
0000
0101
0000
0000
1001
0000
0110
0000
,
2002
0000
0000
0000
3003
0000
0001
0100
0001
0010
0100
1000
0010
1000
0001
0100
,
0010
0000
0010
0000
1010
0000
0000
1000
0001
0000
0010
0000
0110
0000
0010
0000
,
0001
0000
0001
0000
0010
0001
0100
0000
0110
0000
1010
0000
1001
0000
1000
0000
,
1100
0000
0000
0022
0000
0000
0033
0000
0101
0000
0000
2020
0000
0000
3030
0000
,
0110
0000
0000
2002
0000
0000
3003
0000
1100
0000
0000
0000
0101
0000
0000
0000
,
0110
0000
0000
2020
0000
0000
3030
0000
0101
0000
0000
0022
0000
0000
0033
0000
,
0110
0000
0000
2002
0000
0000
3003
0000
1100
0000
0000
0000
0101
0000
0000
0000
,
1000
0001
0000
0100
0000
1000
0000
0100
0001
1000
0000
0100
0000
0001
0000
0100
,
1000
0010
0000
0100
0000
0001
0000
0010
0200
0000
0010
0000
0310
0000
0000
0000
,
0001
0100
0001
0000
0100
1000
0100
0000
0001
0100
0001
0000
0100
1000
0100
0000
,
0001
0010
0001
0000
0010
1000
0010
0000
0001
0010
0001
0000
0010
1000
0010
0001
,
1000
0010
1000
0000
0010
0001
0010
0000
1000
0010
1000
0000
0010
0001
0010
1000
,
0001
0100
0001
0100
0010
1000
0010
1000
0100
0010
0100
0010
0001
1000
0001
1000
,
0001
0010
0001
0000
0010
1000
0010
0000
0001
0010
0001
0000
0010
1000
0010
0000
,
0001
0100
0001
0000
0100
1000
0100
0000
0001
0100
0001
0000
0100
0010
1000
0001
,
0010
0001
0010
0001
1000
0100
1000
0100
1000
0010
0100
0001
0010
0100
1000
0001
,
0100
0000
0100
0000
0010
1000
0000
1100
0000
0101
0000
0110
0000
0000
2002
0000
,
0000
3003
0000
0000
,
0000
0000
0000
0000
,
0001
0000
0000
0000
0100
0000
0000
0000
1000
0000
0000
0000
0100
0000
0000
0000
0001
0000
0000
0000
0010
0000
0000
0000
0100
0000
0000
0000
0000
0000
0100
0000
0000
0000
0000
0000
0010
0000
0000
0001
0000
0000
0000
0000
0000
0101
0000
0000
,
0000
1100
0000
0110
0000
0000
2002
0000
0000
0000
0000
0000
3003
0000
0000
0000
;

//--------------- dance-double - t7r!!!! ----------------
#NOTEDATA:;
#STEPSTYPE:dance-double;
#DESCRIPTION:t7r!!!!;
#CREDIT:t7r!!!!;
#DIFFICULTY:Easy;
#METER:7;
#RADARVALUES:0,0,0,0,0;
#NOTES:
00000000
00000000
00000000
00000000
,
00000000
00000000
00000000
00000000
,
00000000
00000000
00000000
00000000
,
00000000
00000000
00000000
00000000
,
00000000
00000000
00000000
00000000
,
00000000
00000000
00000000
00000000
,
00000000
00000000
00000000
00000000
,
00000000
00000000
00000000
00000000
,
00100000
00000000
00100000
00000000
,
00001000
00000000
00001000
00000000
,
00000010
00000000
00000010
00000000
,
00000001
00000100
00000010
00000100
,
00000001
00000100
00001000
00010000
,
00100000
10000000
00100000
01000000
,
00010000
00100000
01000000
10010000
,
10000000
01000000
00100000
01000000
,
10000000
01000000
00010000
00001000
,
00000010
00000001
00000010
00000100
,
00001000
00000010
00000220
00000330
,
00000001
00000000
00000000
00000001
00000000
00000000
00000010
00000000
,
00001000
00010000
00200000
00300000
,
10000000
00000000
00000000
10000000
00000000
00000000
00100000
00000000
,
00010000
00001000
00000020
00000030
,
00000100
00000000
00000000
00000100
00000000
00000000
00001000
00000000
,
00010000
00100000
01000000
01000000
,
10000000
00000000
00000000
10000000
00000000
00000000
01000000
00000000
,
00010000
00001000
00000010
00000001
,
00000100
00000000
00001000
00000000
01000000
00000000
00010000
00010000
,
00020000
10030000
00100000
00010000
,
00000010
00000000
00001000
00000000
00100000
00000000
10000000
10000000
,
20000000
31000000
00200000
00301000
,
00010000
00000000
00001000
00000000
00010000
00000000
00001000
00001000
,
00001000
00000010
00000001
00000210
,
00000301
00000010
00001000
00010000
,
00100000
01000000
00100000
00000000
01000000
00100000
01000000
00000000
,
20020000
00000000
00000000
30030000
,
10000000
00000000
00000000
00100000
00000000
00000000
00010000
00000000
00000020
00000000
00000000
00000000
00000130
00000000
00000000
00000000
,
00000001
00000100
00001000
00010000
,
00100000
00100000
10000000
01000000
,
00010000
00010000
00001000
00001000
,
00020000
00031000
00000010
00000100
,
00000010
00001001
00000001
00000100
,
00001000
00010000
00100000
00100000
,
02000000
03010000
00100000
00100000
,
00002000
00013000
00000010
00000100
,
00000001
00000010
00001000
00010000
,
00100000
10000000
00010000
00100000
,
00001000
00000000
00000000
00001000
00000000
00000000
00010000
00000000
00000000
00010000
00000000
00000000
00001000
00000000
00001000
00000000
,
00002000
00023000
00030020
00000230
,
00000301
00000011
00001000
00000100
,
00010000
00001000
01000000
10000000
,
01000000
00000000
00000000
01000000
00000000
00000000
00000000
00000000
00001000
00000000
00000000
00001000
00000000
00000000
00000000
00000000
,
00010000
00000000
00000000
00010000
00000000
00000000
00000000
00000000
00000010
00000000
00000000
00000000
00000110
00000000
00000000
00000000
,
00000001
00000000
00000000
00000001
00000000
00000000
00000000
00000000
00000010
00000000
00000000
00000010
00000000
00000000
00000000
00000000
,
00010000
00000000
00000000
00010000
00000000
00000000
00000000
00000000
01000000
00000000
00000000
00000000
01100000
00000000
00000000
00000000
,
20020000
30030000
00202000
00303000
,
00001000
00010000
00001000
00011000
,
00000010
00001000
00000010
00001000
,
00100000
00001000
00100000
00001000
,
00000010
00001000
00100000
00001000
,
00000100
00010000
00000100
00000000
00010000
00000000
00011000
00000000
,
01000000
00001000
00000100
00001000
,
01000000
00001000
00000100
00001000
,
01000000
00100000
01000000
00000000
00100000
01000000
00100000
00000000
,
10000000
00000000
00000000
00000000
00000000
00000000
00000000
00010000
00000000
00000000
00000000
00000000
00000000
00000000
20020000
00000000
,
00000000
30030000
00000000
00000000
,
00000000
00000000
00000000
00000000
,
00000010
00000000
00000000
00000000
00000100
00000000
00000000
00000000
00001001
00000000
00000000
00000000
00000000
00000000
00000000
00000100
,
00000000
00000100
00000000
00000100
00000000
00000000
00022000
00000000
00000000
00000000
00000000
00000000
00033000
00000000
00000000
00000000
;

//--------------- dance-double - forcednature!!!! ----------------
#NOTEDATA:;
#STEPSTYPE:dance-double;
#DESCRIPTION:forcednature!!!!;
#CREDIT:forcednature!!!!;
#DIFFICULTY:Medium;
#METER:12;
#RADARVALUES:0,0,0,0,0;
#NOTES:
00000000
00000000
00000000
00000000
,
00000000
00000000
00000000
00000000
,
00000000
00000000
00000000
00000000
,
00000000
00000000
00000000
00000000
,
00000000
00000000
00000000
00000000
,
00000000
00000000
00000000
00000000
,
00000000
00000000
00000000
00000000
,
00000000
00000000
00000000
00000000
,
00001000
00010000
01000000
10000000
,
00010000
01000000
00001000
00010000
00000010
00001000
00000001
00000000
,
00000100
00001000
00000000
00000100
00000000
00001000
00000000
00000100
00020000
00000000
00000000
00000000
00030000
00000000
00000000
00000000
,
00001000
01000000
00010000
00000000
10000000
01000000
00100000
00000000
,
01000000
10000000
00010000
00000000
01000000
00001000
00010000
00000010
,
00010000
00001000
00100000
00000000
00001000
00010000
00000100
00000000
,
00001000
00000001
00001000
00000001
00000100
00000010
00000100
00000010
,
00000100
00001000
00010000
00000000
00001000
00100000
00010000
00000000
,
10000000
00100000
01000000
00000000
00010000
01000000
00001000
00010000
,
00000010
00010000
00001000
00000000
00100000
00001000
00010000
00000000
,
00000100
00000000
00001000
00000000
00000001
00000000
00000000
00000100
00000000
00000100
00000000
00000110
00000000
00000000
00000000
00000000
,
00000001
00000000
00000000
00000100
00000000
00000000
00001000
00000000
00000000
00010000
00000000
00000000
00100000
00000000
10000000
00000000
,
02000000
00000000
00100000
00100000
00200000
00000000
03300000
00000000
,
10000000
00000000
00000000
01000000
00000000
00000000
00010000
00000000
00000000
00001000
00000000
00000000
00000010
00000000
00000001
00000000
,
00000200
00000000
00000010
00000010
00000020
00000000
00000330
00000000
,
00000001
00000000
00000000
00000100
00000000
00000000
00001000
00000000
00000000
00010000
00000000
00000000
01000000
00000000
10000000
00000000
,
00200000
00000000
01000000
01000000
02000000
00000000
03300000
00000000
,
10000000
00000000
00000000
01000000
00000000
00000000
00010000
00000000
00000000
00001000
00000000
00000000
00000100
00000000
00000001
00000000
,
00000020
00000100
00000200
00000330
,
00000001
00000000
00000000
00000100
00000000
00000000
00001000
00000000
00000000
00100000
00000000
00000000
01000000
00000000
10000000
00000000
,
00100000
01000000
20020000
30030000
,
10000000
00000000
00000000
01000000
00000000
00000000
00010000
00000000
00000000
00000010
00000000
00000000
00000100
00000000
00000001
00000000
,
00000010
00000100
00002002
00003003
,
00000001
00000000
00000000
00000100
00000000
00000000
00010000
00000000
00000000
00100000
00000000
00000000
01000000
00000000
00000000
00000000
,
10000000
00000000
00000000
01000000
00000000
00000000
00001000
00000000
00000000
00000010
00000000
00000000
00000100
00000000
00000000
00000000
,
00000001
00000100
00001000
00000100
00010000
00100000
01000000
00000000
,
10000000
01000000
00010000
01000000
00001000
00000010
00000100
00000000
,
00022000
00000000
00000000
00033000
,
00001000
00010000
00000000
00001000
00010000
00000000
00001000
00010000
00001000
00000000
00000100
00000000
00000001
00000000
00000010
00000000
,
00000110
00000000
00000001
00000010
00000100
00010000
00001000
00100000
,
00000000
10010000
00000000
00010000
01000000
00001000
00010000
00000010
,
00010000
00000000
00000000
00001000
00000000
00000000
00000100
00000000
00000000
00000001
00000000
00000000
00000010
00000000
00000100
00000000
,
00020000
00000000
00030000
00001000
01000000
00010000
10000000
00100000
,
10010000
00000000
01100000
00000000
10000000
01000000
10000000
00100000
,
00000000
00000000
00010000
00000000
00000000
00000000
00001000
00000000
00000010
00000000
00000000
00000100
00000000
00000000
00001000
00000000
,
00000002
00000000
00000000
00000000
00000003
00000000
00000100
00000000
00001000
00000000
00000000
00010000
00000000
00000000
00100000
00000000
,
20000000
00000000
30000000
01000000
00010000
00001000
00000010
00001000
,
00011000
00000000
00010100
00000000
00010000
00001000
00100000
00010000
,
00000000
10010000
00000000
00010000
01000000
00001000
00010000
00000100
,
00010000
00000000
00000000
00001000
00000000
00000000
00000010
00000000
00000000
00000001
00000000
00000000
00000100
00000000
00000010
00000000
,
00000200
00000000
00000300
00001000
00010000
00100000
10000000
01000000
,
10010000
00000000
01100000
00000000
10000000
01000000
10000000
00010000
,
00000000
01001000
01000000
00001000
00010000
00010000
00001000
00000000
,
00000010
00000000
00000000
00000110
00000000
00000000
00000000
00000000
00001000
00000000
00000000
00001001
00000000
00000000
00000000
00000000
,
00000100
00000000
00000000
00010100
00000000
00000000
00000000
00000000
00101000
00000000
00000000
00000000
10010000
00000000
00000000
00000000
,
01000000
00000000
00000000
01001000
00000000
00000000
00000000
00000000
00010000
00000000
00000000
00010100
00000000
00000000
00000000
00000000
,
00000010
00000000
00000000
00001010
00000000
00000000
00000000
00000000
00001001
00000000
00000000
00000000
00000110
00000000
00000000
00000000
,
00020200
00030300
02002000
03003000
,
00001000
00010000
00000000
00001000
00000000
00010000
00000000
00002000
00020000
00000000
00000000
00000000
00033000
00000000
00000000
00000000
,
00001000
00010000
00100000
00000000
01000000
00010000
10000000
00000000
,
01000000
00010000
00001000
00000000
00000010
00000100
00001000
00000001
,
00000100
00001000
00010000
00000000
00000100
00010000
00001000
00000000
,
00100000
00001000
00010000
00100000
00010000
00000010
00010000
00001000
,
00000010
00000001
00000100
00000000
00000010
00001000
00000100
00000000
,
00010000
00001000
01000000
00000000
00010000
10000000
00100000
01000000
,
00010000
10000000
01000000
00000000
00100000
00001000
00010000
00000000
,
00000100
00000000
00001000
00000000
00000010
00000000
00000000
00000100
00000000
00001000
00000000
00011000
00000000
00000000
00022000
00000000
,
00000000
00033000
00000000
00000000
,
00000000
00000000
00000000
00000000
,
00010000
00000000
00000000
00000000
00000010
00000000
00000000
00000000
00010000
00000000
00000000
00000000
00001000
00000000
00000000
00000000
00100000
00000000
00000000
00000000
00001000
00000000
00000000
00000000
01000000
00000000
00000000
00000000
00000000
00000000
00010000
00000000
00000000
00000000
00000000
00000000
00100000
00000000
00000000
00000000
00000000
00000000
00000000
00000000
00000000
01000000
00000000
00000000
,
00000000
00010000
00000000
00011000
00000000
00000000
00022000
00000000
00000000
00000000
00000000
00000000
00033000
00000000
00000000
00000000
;

//--------------- dance-double - 20% forcednature!!!! 80% t7r!!!! ----------------
#NOTEDATA:;
#STEPSTYPE:dance-double;
#DESCRIPTION:20% forcednature!!!! 80% t7r!!!!;
#CREDIT:20% forcednature!!!! 80% t7r!!!!;
#DIFFICULTY:Hard;
#METER:15;
#RADARVALUES:0,0,0,0,0;
#NOTES:
00000000
00000000
00000000
00000000
,
00000000
00000000
00000000
00000000
,
00000000
00000000
00000000
00000000
,
00000000
00000000
00000000
00000000
,
00000000
00000000
00000000
00000000
,
00000000
00000000
00000000
00000000
,
00000000
00000000
00000000
00000000
,
00000000
00000000
00000000
00000000
,
00001000
01000000
00001000
00001000
00010000
00000010
00010000
00010000
,
00001000
00001000
00010000
00100000
01000000
01000000
00001000
00010000
,
00001000
00010000
00000000
00001000
00000000
00001000
00000000
00001000
00010000
00000000
00000000
00000000
00011000
00000000
00000000
00000000
,
00010000
00000100
00010000
01000000
00010000
00000100
00010000
01000000
,
00010000
00000000
00000100
00000000
00010000
00000000
01000000
00000000
00010000
00000000
00000100
00000000
00010000
00000000
01000000
10000000
,
00010000
01000000
00010000
00000100
00010000
01000000
00001000
00010000
,
00000100
00000000
00000100
00000000
00010000
00000000
00010000
00000000
00000010
00000000
00000010
00000100
00001000
00000000
00001000
00000000
,
00010000
00100000
00010000
00000010
00010000
00100000
00010000
00000010
,
00010000
00000000
00100000
00000000
00010000
00000000
00000010
00000000
00010000
00000000
00100000
00000000
00010000
00000000
00000010
00010000
,
00001000
00000010
00001000
00100000
00001000
00000010
00000001
00000100
,
00001000
00000000
00001000
00000000
00010000
00000000
00000000
00100000
00000000
00100000
00000000
02100000
00000000
00000000
00000000
00000000
,
03010000
00100000
00000000
00010000
00100000
00000000
10000000
00100000
00000000
10000000
00100000
00000000
00010000
00000000
00001000
00000000
,
00000020
00001000
00000200
00000330
,
00000001
00000100
00000000
00000001
00000100
00000000
00001000
00000100
00000000
00001000
00000100
00000000
00001000
00000000
00010000
00000000
,
00200000
00000000
00000000
10000000
00000000
00000000
01300000
00100000
01000000
00010000
00000000
00000000
,
10000000
01000000
00000000
10000000
01000000
00000000
00010000
00001000
00000000
00010000
00001000
00000000
00000010
00000000
00000001
00000000
,
00000200
00000000
00000001
00000000
00001300
00000100
00000001
00000000
,
00000010
00001000
00000000
00000010
00001000
00000000
00010000
01000000
00000000
00010000
01000000
00000000
00100000
00000000
00100000
00000000
,
02200000
00000000
03300000
00000000
00010000
10000000
01000000
00000000
,
10000000
00000000
00000000
10000000
00100000
00000000
00000000
00100000
00010000
00000000
00000000
00010000
00000010
00000000
00000010
00000000
,
00000200
00000000
00000301
00000000
00000010
00001000
00010000
00100000
,
10000000
00000000
00000000
10000000
01000000
00000000
00000000
01000000
00010000
00000000
00000000
00010000
00000010
00000000
00000010
00000000
,
00000200
00000000
00000000
00000301
00000000
00000000
00001000
00000001
00000100
00001000
00000000
00000000
,
00010000
00100000
00000000
00010000
00100000
00000000
01000000
00001000
00000000
01000000
00001000
00000000
00010000
00000000
00010000
00000000
,
00001000
00000010
00000000
00001000
00000010
00000000
00000100
00010000
00000000
00000100
00010000
00000000
00002000
00000000
00000000
00000000
,
01003000
10000000
01000000
01000000
00010000
00000010
00000100
00000100
,
00010000
00001000
00010000
00001000
00010000
00001000
00010000
00001000
00010000
00001000
00010000
00001000
00010000
00001000
00010000
00001000
,
00020000
00000000
00000000
00000000
,
00031000
01000000
00000000
00100000
01000000
00000000
00010000
00000000
20000000
00000000
00000000
00000000
30010000
00000000
00000000
00000000
,
10000000
01000000
00010000
01000000
00100000
00010000
00001000
00000010
,
00000100
00000001
00000100
00001000
00000100
00000010
00001000
00010000
,
00100000
00000000
00010000
01000000
00000000
00000000
00100000
00000000
10000000
01000000
00000000
00000000
00100000
00000000
00010000
00000000
,
00000020
00000000
00000130
00001000
00001000
00000001
00000100
00001000
,
00200000
00000000
00310000
00100000
10000000
00100000
00010000
00001000
,
00000010
00000000
00000001
00000000
00000010
00000000
00000100
00000000
00000100
00000000
00000001
00000100
00000000
00000001
00000100
00000000
,
00000020
00000000
00000000
00000000
00001030
00000000
00010000
00000000
00100000
00000000
10000000
00100000
00000000
10000000
00100000
00000000
,
02000000
00000000
00000000
00000000
13000000
00000000
00010000
10000000
00010000
00000000
00010000
00000000
00010000
00000000
00000000
00000000
,
10000000
00100000
01000000
10000000
01000000
00010000
00001000
00000010
,
00000100
00000001
00000100
00001000
00000100
00000010
00001000
00010000
,
00110000
00000000
00000000
10010000
00000000
00000000
01001000
00000000
00000000
00011000
00000000
00000000
00000010
00000000
00000100
00000000
,
00000002
00000023
00002030
02003000
,
03100000
00000000
00000000
00000000
11000000
00000000
00000000
01000000
00010000
00000000
00001000
00000000
00000010
00000000
00000100
00000000
,
00001000
00000000
00000010
00000000
00000001
00000000
00000010
00000000
00010000
00000000
00000000
00012000
00000000
00000000
00000000
00000000
,
01003000
00000000
00000000
01020000
00000000
00000000
00000000
00000000
10030000
00000000
00000000
12000000
00000000
00000000
00000000
00000000
,
03010000
00000000
00000000
00021000
00000000
00000000
00000000
00000000
00030010
00000000
00000000
00000000
00000110
00000000
00000000
00000000
,
00000001
00000000
00000000
00000201
00000000
00000000
00000000
00000000
00001300
00000000
00000000
00012000
00000000
00000000
00000000
00000000
,
00103000
00000000
00000000
00120000
00000000
00000000
00000000
00000000
01030000
00000000
00000000
00000000
01100000
00000000
00000000
00000000
,
10000000
01000000
00000000
00010000
00000000
00010000
00000000
00000000
00000010
00000100
00000000
00000001
00000000
00000001
00000000
00000000
,
00000100
00001000
00000000
00010000
00000000
00010000
00000000
00001000
00100000
00000000
00001000
00000000
00020000
00000000
00000000
00000000
,
00031000
00000100
00001000
01000000
00001000
00000010
00001000
00100000
,
00010000
00000000
00000010
00000000
00010000
00000000
01000000
00000000
00010000
00000000
00000100
00000000
00010000
00000000
01000000
00001000
,
00010000
00000000
01000000
00000000
00010000
00000000
00000010
00000000
00010000
00000000
00000100
00000000
00000010
00000000
00000001
00000100
,
00000001
00000001
00000010
00000010
00001000
00010000
00011000
00000000
,
00010000
00100000
00010000
00000010
00010000
00000100
00010000
01000000
,
00001000
00000000
00000100
00000000
00001000
00000000
00100000
00000000
00001000
00000000
00000010
00000000
00001000
00000000
00000001
00000100
,
00000001
00001000
00000001
00000000
00001000
00000100
00001000
00000000
00000100
00010000
00000100
00000000
00010000
00001000
00010000
00000000
,
00001000
00000000
01000000
00000000
10000000
00000000
01000000
00001000
00000000
00001000
00000000
00010000
00000000
00000000
00022000
00000000
,
00000000
00033000
00000000
00000000
,
00000000
00000000
00000000
00000000
,
00000001
00000000
00000000
00000000
00000010
00000000
00000000
00000000
00000100
00000000
00000000
00000000
00001000
00000000
00000000
00000000
00100000
00000000
00000000
00000000
01000000
00000000
00000000
00000000
00100000
00000000
00000000
00000000
00000000
00000000
10000000
00000000
00000000
00000000
00000000
00000000
00010000
00000000
00000000
01000000
00000000
00000000
00000000
00000000
00000000
00001000
00000000
00000000
,
00000000
00001000
00000000
00010000
00000000
00000000
00022000
00000000
00000000
00000000
00000000
00000000
00033000
00000000
00000000
00000000
;

//--------------- dance-double - 80% forcednature!!!! 20% t7r!!!! ----------------
#NOTEDATA:;
#STEPSTYPE:dance-double;
#DESCRIPTION:80% forcednature!!!! 20% t7r!!!!;
#CREDIT:80% forcednature!!!! 20% t7r!!!!;
#DIFFICULTY:Challenge;
#METER:17;
#RADARVALUES:0,0,0,0,0;
#NOTES:
00000000
00000000
00000000
00000000
,
00000000
00000000
00000000
00000000
,
00000000
00000000
00000000
00000000
,
00000000
00000000
00000000
00000000
,
00000000
00000000
00000000
00000000
,
00000000
00000000
00000000
00000000
,
00000000
00000000
00000000
00000000
,
00000000
00000000
00000000
00000000
,
00001000
01000000
00001000
00011000
00010000
00000100
00001000
00001001
,
00000001
00001000
00000001
00001000
00000100
00010000
00000100
00010000
00001000
00100000
00001000
00100000
00010000
10000000
00010000
10000000
,
01000000
00100000
00000000
00001000
00000000
00010000
00000000
00000100
00000010
00000000
00000000
00000000
00001001
00000000
00000000
00000000
,
00010000
00000100
00010000
00000000
00001000
00010000
00001000
00000000
00010000
00000100
00010000
00000000
00001000
00010000
00001000
00000000
,
01000000
00010000
01000000
00000000
00010000
10000000
00010000
00000000
01000000
00010000
01000000
00000000
00010000
10000000
00010000
00001000
,
00000010
00001000
00000010
00000000
00000100
00000010
00000100
00000000
00000010
00001000
00000010
00000000
00000100
00000010
00001000
00010000
,
00100000
00000000
00100000
00000000
00010000
00000000
00010000
00000000
00000100
00000000
00000001
00001000
00000100
00000000
00001000
00000000
,
00000100
00010000
00000100
00000000
00010000
00001000
00010000
00000000
00000100
00010000
00000100
00000000
00010000
00001000
00010000
00000000
,
00001000
01000000
00001000
00000000
01000000
00100000
01000000
00000000
00001000
01000000
00001000
00000000
01000000
00100000
10000000
01000000
,
00100000
00001000
00010000
00000000
00000010
00010000
00001000
00000000
00100000
00001000
00010000
00000000
00001000
00100000
00001000
00010000
,
00100000
00000000
10100000
00000000
10000000
01000000
00000000
01010000
00000000
00011000
00000000
00002020
00000000
00000000
00003030
00000000
,
00000001
00000100
00000000
00000100
00001000
00000000
00001000
00100000
00000000
00100000
01000000
00000000
10000000
00000000
00010000
00000000
,
01000000
00000000
00000000
00000000
00100000
00000000
00010000
00000000
00001000
00010000
00000100
00001000
00000010
00001000
00000100
00000010
,
00000001
00000010
00000000
00000010
00001000
00000000
00001000
01000000
00000000
01000000
00100000
00000000
10000000
00000000
01000000
00000000
,
00100000
00000000
00000000
00000000
00000000
00000000
00001000
00000000
00000000
00010000
00000000
00000000
00100000
00000000
10000000
00000000
01000000
00000000
00010000
00000000
00001000
00000000
00000100
00000000
,
00001000
00010000
00000000
00010000
01000000
00000000
01000000
00001000
00000000
00001000
00000100
00000000
00000010
00000000
00001000
00000000
,
01000000
00000000
00010000
00000000
10000000
00000000
00100000
00000000
00010000
00001000
00100000
00010000
00100000
00001000
00010000
00000010
,
00001000
00000100
00000000
00000100
00010000
00000000
00010000
00100000
00000000
00100000
01000000
00000000
00001000
00000000
00000010
00000000
,
00000002
00000000
00000000
00000000
00000203
00000000
00000000
00000000
00001300
00000100
00001000
00010000
00001000
00100000
00010000
00100000
,
01000000
00010000
00000000
00010000
00001000
00000000
00001000
00000100
00000000
00000100
00000010
00000000
00010010
00000000
00011000
00000000
,
01001000
00000000
00000000
00000000
02000000
00000000
00000000
00000000
03010000
01000000
00100000
10000000
00010000
00100000
00001000
00010000
,
00000100
00001000
00000000
00001000
00000010
00000000
00000010
00000100
00000000
00000100
00001000
00000000
00011000
00000000
00101000
00000000
,
00110000
00000000
00000000
00002000
00000000
00000000
00013000
00001000
00000010
00000001
00001000
00000010
,
00000100
00001000
00000000
00001000
00010000
00000000
00010000
01000000
00000000
01000000
10000000
00000000
00010000
00000000
01000000
00000000
,
00100000
00010000
00000000
00010000
00001000
00000000
00001000
00000010
00000000
00000010
00000001
00000000
00000102
00000000
00000000
00000000
,
00000103
00000001
00000000
00000001
00000010
00000000
00000010
00010000
00000000
00010000
01000000
00000000
00100000
00000000
10000000
00000000
,
01000000
00100000
01000000
00010000
00001000
00010000
00000100
00010000
00001000
00000010
00000100
00001000
00000001
00000100
00000010
00010000
,
00002000
00000000
00000000
00000000
,
00013000
00001000
00000000
00001000
00000010
00000000
00000001
00001000
00000001
00000000
00000100
00000000
00010000
00000000
01000000
00000000
,
01010000
00000000
00010000
10000000
01000000
00000000
00100000
00010000
00001000
00000000
00000100
00000000
00000010
00000000
00000110
00000000
,
00000000
00000000
00001001
00000000
00000000
00000000
00000001
00000100
00000001
00000000
00000010
00000000
00001000
00000000
00010000
00000000
,
00110000
00000000
00000000
01100000
00000000
00000000
01010000
00000000
00000000
00011000
00000000
00000000
00001010
00000000
00001001
00000000
,
00000022
00000000
00000000
00000000
00000033
00000000
00001000
00000100
00001000
00000000
00000010
00000000
00000100
00000000
00001000
00000000
,
00011000
00000000
01010000
10000000
01000000
00100000
00001000
00001010
,
00000000
00000000
00010100
00000000
00000000
00000000
00010000
00001000
00010000
00000000
00000000
00010010
00000000
00000000
01001000
00000000
,
02020000
00000000
00000000
00000000
03030000
00000000
10000000
01000000
10000000
00000000
00000000
00110000
00000000
00000000
00011000
00000000
,
00002200
00000000
00000000
00000000
00003300
00000000
00000001
00000100
00000010
00000100
00001000
00010000
00100000
00010000
00001000
01000000
,
00010000
00000000
10000000
01000000
00100000
00000000
01000000
00010000
00001000
00000000
00011000
00000000
00010100
00000000
00101000
00000000
,
00000000
00000000
00010010
00000000
00000000
00000000
00010000
00001000
00010000
00000000
00100000
00000000
10000000
00000000
01000000
00000000
,
11000000
00000000
00000000
00110000
00000000
00000000
00001100
00000000
00000000
00000011
00000000
00000000
00001001
00000000
00010010
00000000
,
00022000
00000000
00000000
00000000
00033000
00000000
00010000
01000000
00100000
01000000
10000000
00010000
00100000
00001000
00010000
00001000
,
00000100
00000000
00000100
00000000
00000101
00000000
00000000
00001000
00000100
00000000
00010000
00000000
00011000
00000000
00001000
00000000
,
00100000
00000000
00100000
00000000
01000000
10000000
00100000
00000000
01100000
00000000
01001000
00000000
00010010
00000000
00000010
00000000
,
00000101
00000000
00000000
00020020
00000000
00000000
00030030
00000000
00010100
00000000
00000000
02002000
00000000
00000000
03003000
00000000
,
11000000
00000000
00000000
00202000
00000000
00000000
00303000
00000000
01010000
00000000
00000000
00000000
00001100
00000000
00000000
00000000
,
01001000
00000000
00000000
00002200
00000000
00000000
00003300
00000000
00010010
00000000
00000000
00220000
00000000
00000000
00330000
00000000
,
01100000
00000000
00000000
00022000
00000000
00000000
00033000
00000000
00000110
00000000
00000000
00000000
00011000
00000000
00000000
00000000
,
01000000
00010000
00000000
00100000
00000000
01000000
00000000
00010000
00001000
00000010
00000000
00000100
00000000
00001000
00000000
00000010
,
00000100
00001000
00000000
00010000
00000000
01000000
00000000
00100000
00002000
00000000
00010000
00000000
00013000
00000000
00000000
00000000
,
00001000
00010000
01000000
00000000
00010000
00001000
00010000
00000000
00001000
00010000
01000000
00000000
00010000
00001000
00010000
00000000
,
00001000
00000100
00000010
00000000
00010000
00001000
00010000
00000000
00001000
00000100
00000010
00000000
00010000
00001000
00010000
00001000
,
00000100
00000001
00000010
00000000
00000100
00001000
00010000
00000000
00100000
00010000
01000000
00000000
00001000
00010000
01000000
00100000
,
00010000
10000000
00100000
10000000
01000000
00100000
00010000
10000000
01000000
00100000
01000000
00010000
00001000
01000000
00010000
01000000
,
10000000
01000000
00100000
00000000
01000000
00001000
00010000
00000000
00001000
00000100
00000010
00000000
00001000
00000001
00000010
00000000
,
00000100
00001000
00010000
00000000
10000000
00100000
01000000
00000000
10000000
01000000
00010000
00000000
00100000
00001000
01000000
00001000
,
00010000
00000100
00001000
00000001
00000100
00000010
00000100
00001000
00010000
00100000
01000000
00010000
10000000
01000000
00100000
00010000
,
01000000
00000000
01000000
00000000
00001000
00010000
00000000
00010100
00000000
00011000
00000000
01001000
00000000
00000000
00022000
00000000
,
00000000
00033000
00000000
00000000
,
00000000
00000000
00000000
00000000
,
00000100
00000000
00000000
00000000
00010000
00000000
00000000
00000000
01000000
00000000
00000000
00000000
00010000
00000000
00000000
00000000
00001000
00000000
00000000
00000000
00000010
00000000
00000000
00000000
00001000
00000000
00000000
00000000
00000000
00000000
00001000
00000000
00000000
00000000
00000000
00000000
00010000
00000000
00000000
00100000
00000000
00000000
00000000
00000000
00000000
00110000
00000000
00000000
,
00000000
00011000
00000000
00001010
00000000
00000000
00022000
00000000
00000000
00000000
00000000
00000000
00033000
00000000
00000000
00000000
;
