#VERSION:0.83;
#TITLE:Valanga 2017;
#SUBTITLE:;
#ARTIST:DJ TOTTO;
#TITLETRANSLIT:;
#SUBTITLETRANSLIT:;
#ARTISTTRANSLIT:;
#GENRE:;
#CREDIT:;
#MUSIC:Valanga 2017.ogg;
#BANNER:Valanga 2017.png;
#BACKGROUND:Valanga 2017-bg.png;
#CDTITLE:./CDTitles/RB Reflesia.png;
#SAMPLESTART:65.038;
#SAMPLELENGTH:15.000;
#SELECTABLE:YES;
#OFFSET:1.239;
#BPMS:0.000=93.000
,35.500=186.000
;
#STOPS:35.500=0.161;
#TIMESIGNATURES:0.000=4=4;
#BGCHANGES:0.000=../BGAs/14te.mp4=1.000=0=0=0=StretchNoLoop====,
99999.000=-nosongbg-=1.000=0=0=0=StretchNoLoop====
;
#FGCHANGES:;

//--------------- dance-single - forcednature ----------------
#NOTEDATA:;
#STEPSTYPE:dance-single;
#DESCRIPTION:forcednature;
#DIFFICULTY:Beginner;
#METER:6;
#RADARVALUES:0,0,0,0,0;
#CREDIT:forcednature;
#NOTES:
0000
0000
0000
0000
,
0000
0000
0000
0000
,
0000
0000
0000
0000
,
0000
0000
0000
0000
,
0000
0000
0000
0000
,
1001
0000
0001
0000
,
0100
0000
0010
0000
,
1001
0000
1000
0000
,
0100
0000
0100
0000
0020
0000
0000
0030
,
0001
0000
0001
0000
,
0100
0000
0100
0000
,
0010
0000
0010
0000
,
1000
0000
0001
0000
,
1000
0000
1000
0000
,
0100
0000
0100
0000
,
0010
0000
0001
0000
,
1000
0000
0010
0000
,
0100
0000
0100
0000
,
0001
0000
0001
0000
,
1000
0000
1000
0000
,
0100
0000
0010
0000
,
0001
0000
0001
0000
,
0100
0000
0100
0000
,
0010
0000
1000
0000
,
0001
0000
1000
0000
,
0100
0000
0000
0100
0000
0000
0100
0000
,
0000
0100
0000
0000
0000
0000
0000
0000
,
0010
0000
0000
0010
0000
0000
0010
0000
,
0000
0010
0000
0000
0000
0000
0000
0000
,
0001
0000
0000
0001
0000
0000
0001
0000
,
0000
0001
0000
0000
0000
0000
0000
0000
,
1000
0000
0000
1000
0000
0000
1000
0000
,
0000
1000
0000
0000
0000
0000
0000
0000
,
0010
0000
0000
0100
0000
0000
0010
0000
,
0000
0100
0000
0000
0000
0000
0000
0000
,
0001
0000
0000
1000
0000
0000
0001
0000
,
0000
1000
0000
0000
0000
0000
0000
0000
,
1001
0000
0010
0000
,
1001
0000
0100
0000
,
0110
0000
1001
0000
,
0100
0100
0010
0000
,
2002
0000
0000
0000
,
0000
0000
0000
3003
,
0110
0000
0001
0000
,
1000
0001
1000
0000
,
0100
0100
0100
0000
,
0010
0010
0010
0000
,
0001
0000
1000
0000
,
0010
0100
0010
0000
,
1000
1000
1000
0000
,
0001
0001
0001
0000
,
1001
0000
1000
0000
,
0010
0100
0010
0000
,
0100
0100
0100
0000
,
0001
0001
0001
0000
,
0010
0000
0100
0000
,
1000
0001
1000
0000
,
0010
0000
0000
0100
0000
0000
0000
0000
,
0001
1000
0001
0000
,
1000
0100
1000
0000
,
1000
0001
1000
0000
,
1000
0010
1000
0000
,
1000
0001
1000
0000
,
0001
0100
0001
0000
,
0001
1000
0001
0000
,
0001
0010
0001
0000
,
0001
1000
0001
0000
,
0100
0010
1000
0000
,
0010
0100
0001
0000
,
1000
0001
0010
0000
,
0100
1000
0001
0000
,
0100
0010
1000
0000
,
0100
0010
0001
0000
,
0100
0000
0000
1001
0000
0000
0010
0000
,
0000
0110
0000
0000
0100
0000
0000
2002
,
0000
0000
0000
0000
,
0000
0000
0000
0000
,
0000
0000
0000
0000
,
0000
0000
0000
3003
;

//--------------- dance-single - forcednature ----------------
#NOTEDATA:;
#STEPSTYPE:dance-single;
#DESCRIPTION:forcednature;
#DIFFICULTY:Easy;
#METER:10;
#RADARVALUES:0,0,0,0,0;
#CREDIT:forcednature;
#NOTES:
0000
0000
0000
0000
,
0000
0000
0000
0000
,
0000
0000
0000
0000
,
0000
0000
0000
0000
,
0000
0000
0000
0000
,
1001
0000
0001
0000
0000
0001
0100
0000
,
0001
0000
1000
0000
0000
1000
0100
0000
,
0110
0000
0001
0000
0000
0010
0001
0000
,
1000
1000
0010
0010
0200
0000
0000
0300
,
0001
0000
0001
0000
0100
0001
0100
0000
,
0010
0100
0010
0000
1000
0010
1000
0000
,
0001
0000
0001
0000
1000
0100
1000
0000
,
0100
0010
0100
0000
0010
0001
0010
0000
,
0100
0000
0100
0000
1000
0010
1000
0000
,
0010
0100
0010
0000
0100
0001
0100
0000
,
0010
1000
0001
0010
,
0100
1000
0001
0100
,
0010
1000
0010
0000
1000
0100
1000
0000
,
0100
0010
0100
0000
0010
0000
0001
0000
,
0100
0001
0100
0000
0010
0100
0010
0000
,
1000
0100
1000
0000
0001
0000
0100
0000
,
0010
1000
0010
0000
1000
0100
1000
0000
,
0100
0010
0100
0000
1000
0000
0001
0000
,
0100
0000
0010
0000
1000
0001
0010
0000
,
0100
2000
0000
3000
,
1000
0001
0000
1000
0001
0000
1000
0001
,
0000
1000
0001
0000
0000
0000
0000
0000
,
0100
0010
0000
0100
0010
0000
0100
0010
,
0000
0100
0010
0000
0000
0000
0000
0000
,
0001
1000
0000
0001
1000
0000
0001
1000
,
0000
0001
1000
0000
0000
0000
0000
0000
,
0100
0010
0000
0100
0010
0000
0100
0010
,
0000
0100
0010
0000
0000
0000
0000
0000
,
0001
0000
0100
0001
0100
0000
0001
0000
,
0100
0001
0100
0000
0010
0000
1000
0000
,
0100
0000
1000
0100
1000
0000
0100
0000
,
1000
0000
0100
0000
1000
0000
0000
0000
0001
0000
0000
0001
0000
0000
0000
0000
,
0110
0001
0010
0100
,
0110
1000
0010
0100
,
1001
0010
1001
0100
,
1000
0001
0110
0000
,
2002
0000
0000
0000
,
0000
0000
3003
0110
,
1001
0000
1000
0100
0010
0000
0100
1000
,
0000
0001
0000
1000
0010
0000
0100
0000
,
0001
0000
0000
0010
0000
0000
0100
0000
0000
1000
0000
0000
0001
0000
0000
0000
,
0200
0000
0300
0010
1000
0000
0001
0010
,
0001
0000
0100
0000
0010
0000
1000
0001
,
0000
0000
1000
0000
0000
0000
0000
0000
0100
0000
0000
0010
0000
0000
0100
0000
,
0020
0000
0000
0000
0000
0000
0030
0000
0001
0000
0000
1000
0000
0000
0001
0000
,
2000
0000
0000
3010
0100
0000
0110
0000
,
1001
0000
0001
0000
0100
0010
0000
1000
,
0000
0001
0000
1000
0100
0000
0010
0000
,
0001
0000
0000
0100
0000
0000
0010
0000
0000
1000
0000
0000
0100
0000
0000
0000
,
0020
0000
0030
0001
1000
0000
0001
0100
,
0002
0000
1003
0000
0100
0000
0010
0100
,
0000
1000
0100
0000
0010
0001
0010
0000
,
0001
0000
0000
0001
0000
0000
0100
0000
0001
0000
0000
0000
0100
0000
0000
0000
,
0010
0000
1000
1000
0000
0001
0010
0000
,
0100
1000
0100
0000
0010
0100
0010
0000
,
0001
0010
0001
0000
1000
0001
1000
0000
,
0010
1000
0010
0000
0100
0010
0100
0000
,
0001
1000
0001
0000
1000
0100
1000
0000
,
0001
0100
0001
0000
0010
0001
0010
0000
,
0100
1000
0100
0000
1000
0010
1000
0000
,
0200
0320
0032
2003
,
3010
0000
0000
0000
0100
0000
0100
0000
0001
0000
0000
0001
0000
0000
1000
0000
,
0100
0010
0001
0000
0001
0010
0100
0000
,
1000
0010
0100
0000
0100
0010
1000
0000
,
0001
1000
0100
0000
0100
1000
0001
0000
,
0100
0001
0010
0000
0000
0010
0100
0010
,
0100
0000
0100
1000
0100
0000
0100
1000
,
0001
0000
0001
0100
0001
0000
0001
0010
,
0001
1000
0000
1000
0001
0000
0100
0010
,
0000
0010
0100
0000
0110
0000
0000
2002
,
0000
0000
0000
0000
,
0000
0000
0000
0000
,
0000
0000
0000
0000
,
0000
0000
0000
3003
;

//--------------- dance-single - forcednature ----------------
#NOTEDATA:;
#STEPSTYPE:dance-single;
#DESCRIPTION:forcednature;
#DIFFICULTY:Medium;
#METER:15;
#RADARVALUES:0,0,0,0,0;
#CREDIT:forcednature;
#NOTES:
0000
0000
0000
0000
,
0000
0000
0000
0000
,
0000
0000
0000
0000
,
0000
0000
0000
0000
,
0000
0000
0000
0000
,
1001
0000
0000
0001
0100
0000
0001
0000
0000
0000
1000
0000
0010
0000
0000
0000
,
1000
0000
0000
1000
0100
0000
1000
0000
0000
0000
0001
0000
0010
0000
0000
0000
,
1001
0000
0000
0001
0100
0000
0010
0000
0000
0000
1000
0000
0000
1000
0100
1000
,
0001
0000
0001
0000
0100
0000
0100
0000
0010
1000
0010
1000
0001
0010
0100
0000
,
0010
0001
0011
0000
1000
0100
1100
0000
,
0010
1000
1010
0000
0100
0001
0101
0000
,
1000
0100
0110
0000
0001
0100
0110
0000
,
1000
0001
0011
0000
0001
1000
0010
0100
,
0001
0010
1100
0000
1000
0010
0101
0000
,
1000
0100
1010
0000
0001
0100
0010
1000
,
0001
0010
0100
0010
1000
0010
0001
0000
,
0100
0000
1000
0000
1100
0000
0000
0000
0100
0000
0001
0000
0001
0000
0010
0001
,
0010
0100
1100
1000
0010
0100
0101
0000
,
1000
0001
0011
0010
0100
1000
1010
0000
,
0010
0100
1100
1000
0100
0001
0011
0000
,
0010
0000
0100
0000
0101
0000
0000
0000
0001
0000
0001
0000
0100
0000
1000
0100
,
1000
0010
0110
0100
0001
0010
1001
0000
,
0001
0010
0110
0100
1000
0010
1001
0000
,
0010
0100
1001
0000
0001
0100
1000
0001
,
0000
0000
0010
0000
1000
0000
0001
0000
1000
0100
1000
0000
0100
0010
0100
0000
,
0010
0001
0000
0100
0001
0000
1000
0100
,
0000
1000
0010
0000
0220
0000
0330
0000
,
0001
0010
0000
1000
0010
0000
0001
0100
,
0000
0000
0000
1000
0000
0000
0100
0000
0000
0000
0000
0000
0020
0000
0000
0000
2030
0000
0000
0000
3002
0000
0000
0000
,
0013
0010
0000
0100
0100
0000
1000
1000
,
0000
0001
0001
0000
1000
0100
0010
0001
,
0100
0110
0000
0010
1001
0000
1000
1100
,
0000
0001
0101
0000
1000
0001
0100
0010
,
1000
0100
0010
0100
1000
0000
1000
0010
,
0100
0010
1000
0000
0001
0010
0100
1000
,
0001
0100
0010
0100
0001
0000
0001
0010
,
0100
0000
0000
0010
0000
0000
0001
0000
0000
0000
0000
0000
1000
0000
0000
0000
1010
0000
0000
0000
1100
0000
0000
0000
,
0001
0010
0011
0010
0001
0000
1000
0010
,
1010
0010
1000
0000
0001
0010
0100
1000
,
0001
0010
0001
0000
0010
0000
0001
0000
1000
0010
1000
0000
0010
0000
1000
0000
,
0000
0100
0110
0000
1001
0000
0000
0000
,
0220
0000
0000
0000
,
0000
0000
0000
0000
0330
0000
1000
0001
1000
0000
0001
0000
0020
0000
0000
0000
,
0130
0000
1000
0100
0010
0000
0100
0010
0001
0000
1000
0000
0001
0000
0100
0001
,
0100
0000
0010
0000
1000
0000
0001
1000
0100
0000
0010
0000
0001
0000
1000
0000
,
0001
0100
0000
0010
0100
0000
0010
1000
0000
0001
1000
0000
0100
0000
0010
0000
,
0002
0000
0000
0000
1003
0000
0001
1000
0010
0000
0100
0000
0001
0000
1000
0000
,
0002
0000
0000
0000
0103
0000
1000
0000
0100
0000
0001
0000
0001
0000
1000
0010
,
1000
0000
0001
0000
0010
0000
0100
1000
0001
0000
0000
0001
0100
0000
0010
0000
,
2000
0000
0000
0000
3001
0000
1000
0000
0100
0000
0000
0100
0010
0000
0001
0010
,
0002
0000
0000
0000
1003
0000
0001
0100
0001
0000
0010
0000
0100
0000
1000
0000
,
0001
0000
0100
0001
1000
0000
0100
1000
0001
0000
0100
0000
0010
0000
1000
0010
,
1000
0000
0001
0000
0010
0000
0100
1000
0001
0000
0100
0000
0010
0000
1000
0000
,
0100
1000
0000
0100
0010
0000
0001
0010
0000
0001
1000
0000
0001
0000
0100
0000
,
0020
0000
0000
0000
1030
0000
0010
0100
0001
0000
1000
0000
0100
0000
0010
0001
,
0020
0000
0000
0000
0130
0000
0100
0000
1000
0000
0001
0000
1000
0000
0010
0100
,
0010
0000
0010
0000
0100
0001
1000
0000
0001
0000
0010
0000
2000
0000
0000
0000
,
3020
0000
0000
0001
0000
0000
0130
0000
0110
0000
0000
0000
1000
0000
0001
0000
,
0110
0000
0000
0000
0010
0000
1001
0000
0000
0000
1000
0001
1000
0001
1000
0000
,
0001
0100
0010
0100
0001
0010
0100
0010
,
0001
0100
1000
0100
0001
0010
1000
0010
,
0100
1000
1010
0010
0100
0001
0011
0010
,
0100
0000
0010
0000
1001
0000
0000
0000
1000
0010
0000
0100
0001
0000
1000
0000
,
0001
0010
0110
0100
1000
0010
0110
0100
,
0001
1000
1100
0100
1000
0010
0001
0010
,
0100
0010
0100
0000
0001
0000
1000
0000
0100
0010
0100
0000
1000
0000
1000
0000
,
0010
0000
0010
0000
0100
0001
0100
0001
1000
0000
0000
1100
0000
0000
1000
0000
,
0010
0100
0010
0000
0100
0000
0001
0000
0010
0100
0010
0000
0100
0000
1000
0000
,
0001
0100
0001
0000
1000
0000
0010
0000
1000
0100
1000
0000
0001
0000
0010
0000
,
0100
1000
0001
0000
1000
0000
0010
0000
0100
0001
1000
0000
0001
0000
0010
0000
,
0100
0000
0010
0000
1001
0000
0000
0000
0001
0010
0000
0100
1000
0000
0001
0000
,
0100
0001
0100
0001
0100
0000
0001
0000
1000
0010
1000
0010
1000
0000
0001
0000
,
0010
0001
0010
0001
0010
0000
0100
0000
1000
0001
1000
0000
0010
0100
0010
0000
,
1000
1100
0000
0001
0101
0000
1000
1010
,
0000
0000
0001
0000
0011
0000
0000
0100
0010
0100
0010
0100
0010
0000
2002
0000
,
0000
0000
0000
0000
,
0000
0000
0000
0000
,
0000
0000
0000
0000
,
0000
0000
0000
3003
;

//--------------- dance-single - forcednature ----------------
#NOTEDATA:;
#STEPSTYPE:dance-single;
#DESCRIPTION:forcednature;
#DIFFICULTY:Hard;
#METER:18;
#RADARVALUES:0,0,0,0,0;
#CREDIT:forcednature;
#NOTES:
0000
0000
0000
0000
,
0000
0000
0000
0000
,
0000
0000
0000
0000
,
0000
0000
0000
0000
,
0000
0000
0000
0000
,
1001
0000
1000
0100
0010
0100
1000
0000
0000
1000
0010
0000
0100
0001
0000
0000
,
0010
0000
0001
0100
1000
0100
0001
0000
0000
0010
0100
0000
1000
0010
0000
0000
,
1001
0000
0001
0100
0000
0010
1000
0000
0000
0001
0010
0000
0100
1000
0001
0000
,
0100
0000
0001
0000
0010
0000
0001
0000
1000
0000
0100
0000
1000
0000
0010
0000
0100
0001
0100
0001
0100
0010
0100
0010
1000
0010
1000
0010
0100
0000
0000
0000
,
0001
0000
0010
0001
0010
0000
0100
0000
1000
0000
0010
1000
0010
0000
0100
0001
,
1000
0000
0100
1000
0100
0000
0010
0000
0001
0000
1000
0001
0100
0000
0100
0010
,
1000
0000
0100
0010
0001
0000
1000
0000
0010
0000
0100
0001
1000
0000
0100
0010
,
0001
0000
1000
0001
0100
0000
0010
0000
1000
0000
0001
1000
0010
0000
0010
0100
,
0001
0000
1000
0001
0010
0000
0100
0000
1000
0000
0001
0100
0010
0000
1000
0001
,
1000
0000
0100
0010
0001
0000
0100
0000
0010
0000
1000
0001
0100
0000
0100
0010
,
1000
0000
0100
1000
0100
0000
0010
0100
0010
0000
0001
0010
0001
0000
0000
0001
,
0100
0000
0100
0000
0010
0000
1000
0100
0000
0010
0100
0010
0001
0000
1000
0010
,
0100
0001
0100
0001
0100
0000
0000
0000
0010
1000
0010
1000
0010
0000
0000
0000
,
1000
0100
1000
0100
1000
0000
0000
0000
0001
0010
0001
0010
0001
0000
0000
0000
,
1000
0010
0100
0010
1000
0000
0000
0000
0001
0010
0100
0010
0001
0000
0000
0000
,
1000
0001
0100
0001
1000
0000
0000
0000
0100
0000
0010
0100
1000
0000
1000
0001
,
0100
0010
1000
0010
0100
0000
0000
0000
0010
0100
0001
0100
0010
0000
0000
0000
,
1000
0100
0010
0100
1000
0000
0000
0000
0001
0010
0100
0010
0001
0000
1000
0001
,
1000
0000
0010
1000
0010
0000
0100
0010
0100
0000
1000
0000
0001
0000
0010
1000
,
0010
0000
0100
0000
0001
0000
0010
0001
0010
0001
0010
0100
1000
0100
1000
0000
,
0010
1010
0000
0001
0011
0000
0100
0101
,
0000
0000
1000
0000
1100
0000
0000
0000
0001
0100
0001
0100
0010
1000
0010
1000
,
0001
0011
0000
1000
1100
0000
0010
1010
,
0000
0000
0000
0100
0000
0000
0101
0000
0000
0000
0000
0000
1000
0000
0100
0000
0010
0000
0001
0000
0100
0000
0010
0000
,
1000
1100
0000
0011
0011
0000
0101
0101
,
0000
0000
1010
0000
1010
0000
0000
0000
1000
0100
0010
0001
0010
0100
1000
0000
,
1010
1001
0000
0011
1001
0000
1100
1010
,
0000
0101
0011
0000
2002
0000
3003
0000
,
1000
0100
0001
0000
0100
0000
1000
0010
0001
0000
0010
0000
1000
0100
0001
0000
,
0100
0000
1000
0010
0001
0000
0010
0000
1000
0100
0010
0001
0010
0100
1000
0000
,
0001
0100
1000
0000
0100
0000
0001
0010
1000
0000
0010
0000
0001
0100
1000
0100
,
0010
0000
0000
0000
0000
0000
0010
0000
0000
1000
0000
0000
0000
0000
0000
0100
0000
0000
1000
0000
0000
0000
0000
0000
0001
0000
0000
0000
0100
0000
0000
0000
1000
0000
0000
0000
0001
0000
0000
0000
0010
0000
0000
0000
1000
0000
0000
0000
,
0001
0000
0010
0001
0010
0000
0100
0000
1000
0000
0000
0000
1000
0000
0010
1000
,
0101
0000
1000
0000
0001
0000
0000
0000
1000
0100
1000
0001
0100
0001
1000
0000
,
1100
1100
0001
0010
0101
0101
1000
0010
,
0100
0110
1001
0010
0110
0000
0000
0000
,
2002
0000
0000
0000
,
0000
0000
0000
0000
3003
0000
0010
0100
0010
0000
0100
0000
0110
0000
0000
0000
,
1001
0000
1000
0100
0010
0000
0100
1000
0010
0000
0100
0001
1000
0000
0100
0000
,
0110
0000
0110
0000
0010
0000
0001
1000
0010
0100
0001
0000
1000
0001
0010
0000
,
0001
0100
0000
0100
1000
0000
0001
0010
0000
0010
1000
0000
0100
0010
0001
1000
,
0200
0000
0001
0000
0301
0000
0100
1000
0001
0000
0100
0000
0010
1000
0010
1000
,
0001
0000
0010
0001
0100
0000
0010
0100
0001
0000
0010
0000
0110
0000
0100
1000
,
0001
0000
0001
0000
0100
0010
0100
0010
1000
0000
0100
0010
0000
0100
0001
0000
,
2000
0000
0000
0000
3010
0000
0001
1000
0001
0000
0100
0010
0000
0100
1000
0000
,
0002
0000
0010
0000
0013
0000
0100
0010
1000
0000
0001
0000
0100
0001
1000
0001
,
0010
0000
0100
1000
0010
0000
0100
0001
0010
0000
0100
1000
0001
0000
0100
0000
,
0110
0000
0110
0000
0010
0000
1000
0001
0010
0000
0100
0000
0010
0001
0010
0001
,
1000
0010
0000
0010
0001
0000
1000
0100
0000
0100
0001
0000
0100
0010
1000
0001
,
0020
0000
1000
0000
1030
0000
0010
0001
1000
0000
0010
0000
0100
0001
0100
0001
,
2000
0000
0000
0000
3100
0000
0010
0001
0100
0000
0100
0010
1000
0010
0100
0000
,
0001
0000
1000
0100
0010
0001
0100
0010
0002
0000
0023
0000
2030
0000
0000
0000
,
3100
0000
0001
0100
1000
0010
1000
0000
0001
0100
0010
0001
0010
0000
0010
0000
,
1001
0100
0010
0000
0110
0000
1001
0000
0000
1000
0001
0100
0010
1000
0100
0010
,
0001
0100
0001
0000
0100
0000
0010
0000
1000
0100
1000
0000
0100
0000
0010
0000
,
0001
0100
0001
0000
0100
0000
1000
0000
0001
0010
0001
0000
0010
0000
0010
1000
,
0001
0010
0001
0000
0011
0000
1000
0000
0010
1000
0010
0000
1010
0000
0001
0000
,
1000
0100
1000
0100
1001
0000
0000
0000
0001
0100
0001
0100
0010
1000
0010
0000
,
1000
0100
0010
0000
0011
0000
1000
0000
0001
0100
0010
0000
1010
0000
0001
0000
,
0010
0100
1000
0000
0110
0000
0001
0000
2000
0000
0010
0000
0001
0000
0100
0000
,
3010
1000
0001
0000
0100
0001
0010
0000
0100
1000
0001
0000
0100
0010
1000
0010
,
0100
0000
0110
0000
0010
0001
0010
1000
0010
0000
0000
0110
0000
0000
1001
0000
,
0001
0100
0010
1000
0100
0000
0010
0000
0100
0010
0001
0100
0001
0000
1000
0000
,
0010
0100
0001
1000
0100
0000
0010
0000
0100
1000
0010
1000
0001
0000
0001
1000
,
0010
0100
0001
0100
0010
0000
1000
0000
0001
0010
0100
1000
0010
0000
0100
0000
,
0001
1000
0100
1000
0010
0000
0100
0000
0001
0010
0100
1000
0010
0100
0001
0000
,
0101
0000
0100
0001
0010
0000
0011
0000
1100
0000
0100
1000
0010
0000
1010
0000
,
1001
0000
0001
0010
0100
0000
0110
0000
0010
0001
0100
0010
1000
0100
0010
0001
,
0100
1010
0000
1100
0101
0000
1010
0011
,
0000
0000
0110
0000
1001
0000
1000
0001
0010
0100
1000
0001
0100
0010
2002
0000
,
0000
0000
0000
0000
,
0000
0000
0000
0000
,
0000
0000
0000
0000
,
0000
0000
0000
3003
;

//--------------- dance-double - forcednature ----------------
#NOTEDATA:;
#STEPSTYPE:dance-double;
#DESCRIPTION:forcednature;
#DIFFICULTY:Easy;
#METER:11;
#RADARVALUES:0,0,0,0,0;
#CREDIT:forcednature;
#NOTES:
00000000
00000000
00000000
00000000
,
00000000
00000000
00000000
00000000
,
00000000
00000000
00000000
00000000
,
00000000
00000000
00000000
00000000
,
00000000
00000000
00000000
00000000
,
00011000
00000000
00010000
00000000
00000000
00010000
00001000
00000000
,
01000000
00000000
00010000
00000000
00000000
01000000
00010000
00000000
,
10010000
00000000
10000000
00000000
00000000
01000000
10000000
00000000
,
01000000
01000000
00010000
00010000
00002000
00000000
00000000
00003000
,
00010000
00000000
00010000
00000000
00001000
00010000
00001000
00000000
,
00010000
00000100
00010000
00000000
00000100
00001000
00000100
00000000
,
00000010
00000000
00000010
00000000
00000001
00000100
00000001
00000000
,
00000100
00000010
00000100
00000000
00000010
00001000
00000010
00000000
,
00010000
00000000
00001000
00000000
00100000
00010000
00100000
00000000
,
01000000
00100000
01000000
00000000
10000000
01000000
10000000
00000000
,
01000000
00010000
00001000
00000010
,
00001000
00010000
00000100
00001000
,
00000010
00001000
00000010
00000000
00010000
00001000
00010000
00000000
,
00000100
00001000
00000100
00000000
00010000
00000000
00001000
00000000
,
01000000
00010000
01000000
00000000
00001000
00010000
00001000
00000000
,
00100000
00010000
00100000
00000000
00001000
00000000
00010000
00000000
,
00000010
00001000
00000010
00000000
00001000
00000100
00001000
00000000
,
00000001
00000100
00000001
00000000
00000010
00000000
00000100
00000000
,
00010000
00000000
00001000
00000000
01000000
00010000
00100000
00000000
,
01000000
20000000
00000000
30000000
,
00010000
01000000
00000000
00010000
01000000
00000000
00010000
01000000
,
00000000
00010000
01000000
00000000
00000000
00000000
00000000
00000000
,
00001000
00010000
00000000
00001000
00010000
00000000
00001000
00010000
,
00000000
00001000
00010000
00000000
00000000
00000000
00000000
00000000
,
00000010
00001000
00000000
00000010
00001000
00000000
00000010
00001000
,
00000000
00000010
00001000
00000000
00000000
00000000
00000000
00000000
,
00000001
00000010
00000000
00000001
00000010
00000000
00000100
00001000
,
00000000
00000100
00001000
00000000
00000000
00000000
00000000
00000000
,
00000100
00000000
00001000
00000100
00001000
00000000
00000100
00000000
,
00010000
00001000
00010000
00000000
00001000
00000000
01000000
00000000
,
00010000
00000000
10000000
00010000
10000000
00000000
00010000
00000000
,
10000000
00000000
00010000
00000000
10000000
00000000
00000000
00000000
01000000
00000000
00000000
01000000
00000000
00000000
00000000
00000000
,
01100000
00100000
00001000
00010000
,
00011000
00001000
00010000
00000010
,
00001001
00000100
00001001
00000010
,
00000001
00000100
00001000
00000000
,
00022000
00000000
00000000
00000000
,
00000000
00000000
00000000
00033000
,
00011000
00000000
00010000
00001000
01000000
00000000
00010000
10000000
,
00000000
00100000
00000000
10000000
00010000
00000000
01000000
00000000
,
00001000
00000000
00000000
00010000
00000000
00000000
00001000
00000000
00000000
00010000
00000000
00000000
00001000
00000000
00000000
00000000
,
00000020
00000000
00000030
00000100
00001000
00000000
00000001
00000010
,
00000001
00000000
00000100
00000000
00001000
00000000
00010000
00001000
,
00000000
00000000
00010000
00000000
00000000
00000000
00000000
00000000
00001000
00000000
00000000
01000000
00000000
00000000
00010000
00000000
,
02000000
00000000
00000000
00000000
03000000
00000000
00000000
00000000
00100000
00000000
00000000
10000000
00000000
00000000
00010000
00000000
,
20000000
00000000
00000000
31000000
10000000
00000000
00100000
00000000
,
10010000
00000000
10000000
00000000
01000000
00010000
00000000
00001000
,
00000000
00010000
00000000
00001000
00000010
00000000
00000001
00000000
,
00001000
00000000
00000000
00000100
00000000
00000000
00010000
00000000
00000000
00001000
00000000
00000000
00010000
00000000
00000000
00000000
,
00000020
00000000
00000030
00001000
00000001
00000000
00000100
00000000
,
00002000
00000000
00013000
00000000
00001000
00000000
01000000
00010000
,
00000000
10000000
00100000
00000000
10000000
01000000
10000000
00000000
,
01000000
00000000
00000000
01000000
00000000
00000000
00010000
00000000
01000000
00000000
00000000
00000000
00010000
00000000
00000000
00000000
,
00001000
00000000
00010000
00010000
00000000
00001000
00010000
00000000
,
00000100
00001000
00000100
00000000
00010000
00001000
00010000
00000000
,
00000010
00001000
00000010
00000000
00010000
00001000
00010000
00000000
,
00001000
00100000
00010000
00000000
00100000
00001000
00010000
00000000
,
00000010
00010000
00001000
00000000
00010000
00000010
00001000
00000000
,
00000001
00000010
00000100
00000000
00000010
00000100
00001000
00000000
,
00000100
00010000
00001000
00000000
00010000
00001000
00100000
00000000
,
00020000
20030000
30200000
02300000
,
03010000
00000000
00000000
00000000
10000000
00000000
10000000
00000000
00010000
00000000
00000000
00010000
00000000
00000000
10000000
00000000
,
01000000
00100000
00010000
00000000
00100000
00001000
00010000
00000000
,
00001000
00010000
00000100
00000000
00001000
00000100
00000010
00000000
,
00000100
00000010
00000001
00000000
00000001
00000100
00000010
00000000
,
00000100
00000010
00010000
00000000
00001000
00000000
00011000
00000000
,
01000000
00010000
01000000
00000000
00001000
00010000
00000100
00000000
,
00000100
00001000
00000100
00000000
00010000
00001000
00100000
00000000
,
00010000
10000000
00000000
10000000
00010000
00000000
01000000
00001000
,
00000000
00010000
00001000
00000000
00000010
00000000
00000000
00000220
,
00000000
00000000
00000000
00000000
,
00000000
00000000
00000000
00000000
,
00000000
00000000
00000000
00000000
,
00000000
00000000
00000000
00000330
;

//--------------- dance-double - forcednature ----------------
#NOTEDATA:;
#STEPSTYPE:dance-double;
#DESCRIPTION:forcednature;
#DIFFICULTY:Medium;
#METER:15;
#RADARVALUES:0,0,0,0,0;
#CREDIT:forcednature;
#NOTES:
00000000
00000000
00000000
00000000
,
00000000
00000000
00000000
00000000
,
00000000
00000000
00000000
00000000
,
00000000
00000000
00000000
00000000
,
00000000
00000000
00000000
00000000
,
00011000
00000000
00000000
00010000
00000100
00000000
00001000
00000000
00000000
00000000
00000100
00000000
00010000
00000000
00000000
00000000
,
00011000
00000000
00000000
00001000
01000000
00000000
00010000
00000000
00000000
00000000
01000000
00000000
00001000
00000000
00000000
00000000
,
00011000
00000000
00000000
00010000
00000010
00000000
00001000
00000000
00000000
00000000
00000010
00000000
00000000
00010000
00001000
00010000
,
00001000
00000000
00001000
00000000
01000000
00000000
01000000
00000000
00010000
10000000
00100000
01000000
00100000
10000000
00010000
00000000
,
00100000
00010000
00110000
00000000
00001000
00010000
00011000
00000000
,
00000100
00001000
00001100
00000000
00000010
00000001
00000011
00000000
,
00001000
00000100
00010100
00000000
00010000
00001000
00101000
00000000
,
00010000
10000000
10100000
00000000
10000000
01000000
00010000
00001000
,
00100000
00010000
00101000
00000000
00010000
00001000
00010100
00000000
,
00001000
00010000
01001000
00000000
00010000
00001000
00000010
00000100
,
00001000
00000001
00000010
00000001
00000100
00001000
00010000
00000000
,
00100000
00000000
01000000
00000000
01100000
00000000
00000000
00000000
10000000
00000000
00010000
00000000
00010000
00000000
10000000
00010000
,
10000000
01000000
01010000
00010000
01000000
00100000
00110000
00000000
,
00001000
00010000
00011000
00001000
00000010
00000100
00001100
00000000
,
00001000
00000001
00000011
00000010
00000001
00000100
00000110
00000000
,
00000010
00000000
00010000
00000000
00011000
00000000
00000000
00000000
00001000
00000000
00010000
00000000
00001000
00000000
00010000
00001000
,
00010000
00001000
01001000
01000000
00010000
00100000
01100000
00000000
,
01000000
10000000
10100000
00100000
01000000
00001000
00011000
00000000
,
00010000
00000010
00001010
00000000
00000001
00000100
00001000
00000100
,
00000000
00000000
00000100
00000000
00001000
00000000
00010000
00000000
00001000
00010000
00001000
00000000
01000000
00010000
01000000
00000000
,
00100000
10000000
00000000
01000000
00010000
00000000
00001000
00000010
,
00000000
00000001
00000100
00000000
00000220
00000000
00000330
00000000
,
00000100
00000001
00000000
00000010
00001000
00000000
00010000
00100000
,
00000000
00000000
00000000
10000000
00000000
00000000
01000000
00000000
00000000
00000000
00000000
00000000
00200000
00000000
00000000
00000000
00302000
00000000
00000000
00000000
00023000
00000000
00000000
00000000
,
00030010
00001000
00000000
00010000
01000000
00000000
00001000
00010000
,
00000000
00100000
10000000
00000000
01000000
00010000
00001000
00000010
,
00000100
00001100
00000000
00010000
00011000
00000000
01000000
01010000
,
00000000
00001000
00011000
00000000
00010000
00001000
00000010
00000001
,
00000100
00001000
00000100
00000001
00000010
00000000
00001000
00010000
,
01000000
10000000
00100000
00010000
00100000
00000000
10000000
01000000
,
00010000
00001000
00010000
00000100
00001000
00000000
00000010
00000100
,
00001000
00000000
00000000
00010000
00000000
00000000
00001000
00000000
00000000
00000000
00000000
00000000
01000000
00000000
00000000
00000000
01010000
00000000
00000000
00000000
10100000
00000000
00000000
00000000
,
10000000
01000000
00010000
01000000
00100000
00000000
00001000
00010000
,
00000100
00010000
00001000
00000000
00000010
00000001
00000100
00000001
,
00001000
00000010
00001000
00000000
00000010
00000000
00010000
00000000
00001000
00010000
00001000
00000000
00100000
00000000
00010000
00000000
,
00000000
01000000
01100000
00000000
10010000
00000000
00000000
00000000
,
00022000
00000000
00000000
00000000
,
00000000
00000000
00000000
00033000
,
00010000
00000000
00001000
00010000
00001000
00000000
01000000
00010000
01000000
00000000
00100000
00000000
10000000
00000000
01000000
10000000
,
01000000
00000000
00100000
00000000
00010000
00000000
00100000
00001000
00010000
00000000
00000100
00000000
00001000
00000000
00000100
00000000
,
00010000
00001000
00000000
00010000
00000010
00000000
00001000
00000010
00000000
00000100
00000001
00000000
00001000
00000000
00000100
00000000
,
00020000
00000000
00000000
00000000
00031000
00000000
00100000
00010000
00100000
00000000
00001000
00000000
00010000
00000000
00001000
00000000
,
02000000
00000000
03010000
00100000
10000000
00100000
00010000
01010000
,
00000000
00000000
01000000
00000000
00001000
00000000
00010000
00001000
00010000
00000000
00000000
00010000
00000100
00000000
00001000
00000000
,
00000002
00000000
00000000
00000000
00000103
00000000
00001000
00000000
00000100
00000000
00000000
00000100
00000001
00000000
00001000
00000010
,
00002000
00000000
00000000
00000000
00003100
00000000
00010000
00001000
00010000
00000000
00001000
00000000
00100000
00000000
00010000
00000000
,
10000000
00000000
00100000
10000000
00100000
00000000
01000000
00100000
01000000
00000000
00010000
00000000
01000000
00000000
00001000
00010000
,
00001000
00000000
00010000
00000000
00000100
00000000
00001000
00000001
00000010
00000000
00000001
00000000
00001000
00000000
00000010
00000000
,
00001000
00000100
00000000
00010000
00000100
00000000
00010000
00001000
00000000
00100000
00001000
00000000
00010000
00000000
01000000
00000000
,
20000000
00000000
00000000
00000000
30100000
00000000
10000000
01000000
10000000
00000000
01000000
00000000
00010000
00000000
00001000
00010000
,
00002000
00000000
00013000
00000100
00001000
00000010
00000100
00000110
,
00000000
00000000
00000001
00000000
00001000
00000010
00001000
00000000
00000100
00000000
00010000
00000000
00002000
00000000
00000000
00000000
,
01003000
00000000
00000000
01000000
00000000
00000000
00100000
00000000
01100000
00000000
00000000
00000000
10000000
00000000
01000000
00000000
,
00010000
00000000
00000000
00000000
00001000
00000000
00011000
00000000
00000000
00000000
00010000
00001000
00010000
00001000
00010000
00000000
,
00000100
00001000
00000001
00000010
00001000
00000010
00000001
00000100
,
00001000
00010000
00100000
10000000
01000000
00010000
00001000
00000000
,
00100000
00010000
00110000
00100000
00001000
00010000
00011000
00001000
,
00010000
00000000
00000100
00000000
00001100
00000000
00000000
00000000
00001000
00000001
00000000
00000010
00000001
00000000
00000100
00000000
,
00000010
00010000
00011000
00001000
00100000
00001000
00011000
00010000
,
00000100
00010000
00011000
00001000
01000000
00010000
00100000
01000000
,
10000000
00100000
10000000
00000000
01000000
00000000
00100000
00000000
00010000
01000000
00010000
00000000
01000000
00000000
00001000
00000000
,
00010000
00000000
00010000
00000000
00001000
00010000
00001000
00010000
00000100
00000000
00000000
00001100
00000000
00000000
00010000
00000000
,
00001000
00010000
00001000
00000000
01000000
00000000
00010000
00000000
01000000
00100000
01000000
00000000
00100000
00000000
10000000
00000000
,
00010000
01000000
00010000
00000000
01000000
00000000
00001000
00000000
00010000
00001000
00010000
00000000
00000100
00000000
00001000
00000000
,
00000100
00000010
00000001
00000000
00001000
00000000
00000010
00000000
00001000
00000100
00010000
00000000
00001000
00000000
00100000
00000000
,
00001000
00000000
00010000
00000000
00011000
00000000
00000000
00000000
01000000
00010000
00000000
01000000
00100000
00000000
10000000
00000000
,
01000000
10000000
01000000
10000000
01000000
00000000
10000000
00000000
00010000
00100000
00010000
00100000
00010000
00000000
00100000
00000000
,
00001000
00010000
00001000
00010000
00001000
00000000
00010000
00000000
00000010
00001000
00000010
00000000
00000100
00000010
00000100
00000000
,
00000001
00000010
00000000
00001000
00010000
00000000
00100000
01100000
,
00000000
00000000
01100000
00000000
10010000
00000000
00000000
00010000
01000000
00010000
01000000
00010000
01000000
00001000
00020000
00000000
,
00000000
00000000
00000000
00000000
,
00000000
00000000
00000000
00000000
,
00000000
00000000
00000000
00000000
,
00000000
00000000
00000000
00030000
;

//--------------- dance-double - forcednature ----------------
#NOTEDATA:;
#STEPSTYPE:dance-double;
#DESCRIPTION:forcednature;
#DIFFICULTY:Hard;
#METER:18;
#RADARVALUES:0,0,0,0,0;
#CREDIT:forcednature;
#NOTES:
00000000
00000000
00000000
00000000
,
00000000
00000000
00000000
00000000
,
00000000
00000000
00000000
00000000
,
00000000
00000000
00000000
00000000
,
00000000
00000000
00000000
00000000
,
00011000
00000000
00010000
00001000
01000000
00010000
01000000
00000000
00000000
00100000
10000000
00000000
00010000
10000000
00000000
00000000
,
01000000
00000000
00010000
00001000
00010000
00000100
00001000
00000000
00000000
00000001
00000100
00000000
00001000
00000100
00000000
00000000
,
00000110
00000000
00000010
00001000
00000000
00010000
01000000
00000000
00000000
00010000
00100000
00000000
01000000
10000000
00010000
00000000
,
01000000
00000000
00001000
00000000
00010000
00000000
00001000
00000000
00100000
00000000
00010000
00000000
00100000
00000000
00001000
00000000
00010000
00001000
00010000
00001000
00010000
00000100
00010000
00000100
00001000
00000100
00001000
00000100
00000010
00000000
00000000
00000000
,
00000001
00000000
00000100
00000001
00000100
00000000
00000010
00000000
00001000
00000000
00000010
00001000
00000010
00000000
00001000
00000010
,
00010000
00000000
00001000
00010000
00001000
00000000
00100000
00000000
00010000
00000000
10000000
00010000
01000000
00000000
01000000
00100000
,
10000000
00000000
01000000
10000000
00010000
00000000
00100000
00000000
00001000
00000000
00010000
00000100
00001000
00000000
00000100
00001000
,
00000001
00000000
00000100
00000010
00001000
00000000
00000010
00000000
00010000
00000000
00001000
01000000
00010000
00000000
00010000
00100000
,
00001000
00000000
00010000
00000010
00001000
00000000
00000001
00000000
00000010
00000000
00000100
00001000
00000100
00000000
00010000
00001000
,
00100000
00000000
00010000
10000000
00100000
00000000
01000000
00000000
00010000
00000000
00100000
00001000
00010000
00000000
00010000
00001000
,
01000000
00000000
00010000
00100000
00010000
00000000
00100000
01000000
00100000
00000000
01000000
10000000
01000000
00000000
00000000
01000000
,
00010000
00000000
00010000
00000000
00001000
00000000
00010000
00000100
00000000
00001000
00000100
00001000
00000001
00000000
00001000
00000010
,
00000100
00000001
00000100
00000001
00000100
00000000
00000000
00000000
00000010
00001000
00000010
00001000
00000010
00000000
00000000
00000000
,
00010000
00001000
00010000
00001000
00010000
00000000
00000000
00000000
00001000
00100000
00001000
00100000
00001000
00000000
00000000
00000000
,
00010000
00001000
00100000
00001000
00010000
00000000
00000000
00000000
00000100
00001000
00000100
00010000
00001000
00000000
00000000
00000000
,
00010000
00001000
01000000
00001000
00010000
00000000
00000000
00000000
00000010
00000000
00001000
00000010
00000100
00000000
00000100
00000001
,
00001000
00000100
00010000
00001000
00010000
00000000
00000000
00000000
00001000
00010000
00001000
01000000
00010000
00000000
00000000
00000000
,
10000000
01000000
00100000
01000000
10000000
00000000
00000000
00000000
00010000
00100000
01000000
00100000
00001000
00000000
00010000
00001000
,
00010000
00000000
00001000
00010000
00000100
00000000
00001000
00000001
00000010
00000000
00000001
00000000
00000100
00000000
00000010
00000100
,
00000010
00000000
00001000
00000000
00000010
00000000
00010000
00001000
00100000
00010000
00100000
00001000
00010000
00001000
01000000
00000000
,
00100000
10100000
00000000
10000000
11000000
00000000
01000000
01010000
,
00000000
00000000
00010000
00000000
00011000
00000000
00000000
00000000
00000100
00001000
00000100
00010000
00001000
00100000
00010000
00100000
,
00001000
00011000
00000000
00010000
00010010
00000000
00000010
00001010
,
00000000
00000000
00000000
00000100
00000000
00000000
00000101
00000000
00000000
00000000
00000000
00000000
00000001
00000000
00000100
00000000
00001000
00000000
00000100
00000000
00001000
00000000
00010000
00000000
,
00001000
00011000
00000000
00101000
00101000
00000000
00110000
00110000
,
00000000
00000000
11000000
00000000
11000000
00000000
00000000
00000000
00010000
01000000
00001000
00010000
00001000
00100000
00010000
00000000
,
00110000
00101000
00000000
00010100
00001100
00000000
00001010
00010010
,
00000000
01001000
01010000
00000000
20020000
00000000
30030000
00000000
,
10000000
01000000
00010000
00000000
00001000
00000000
00010000
01000000
10000000
00000000
00010000
00000000
10000000
00100000
00010000
00000000
,
00001000
00000000
00010000
00100000
10000000
00000000
00010000
00000000
01000000
00001000
00010000
00001000
00010000
00000010
00001000
00000000
,
00000001
00000100
00001000
00000000
00010000
00000000
00001000
00000100
00000001
00000000
00001000
00000000
00000001
00000010
00001000
00000000
,
00010000
00000000
00000000
00000000
00000000
00000000
00001000
00000000
00000000
00000010
00000000
00000000
00000001
00000000
00000000
00000000
00000000
00000000
00001000
00000000
00000000
00000000
00000000
00000000
00000100
00000000
00000000
00000000
00010000
00000000
00000000
00000000
00001000
00000000
00000000
00000000
00100000
00000000
00000000
00000000
00010000
00000000
00000000
00000000
00100000
00000000
00000000
00000000
,
01000000
00000000
00100000
01000000
10000000
00000000
01000000
00000000
00010000
00000000
00000000
00000000
00001000
00000000
00010000
00001000
,
00100000
00000000
00001000
00000000
00010000
00000000
00000000
00000000
00000010
00001000
00000010
00000100
00000001
00000100
00000010
00000000
,
00001010
00001010
00000000
00011000
00011000
00000000
01010000
01010000
,
01000000
00000000
00010000
10000000
01000000
00000000
10000000
01000000
00010000
00000000
00000000
00000000
00000000
00000000
00000000
00000000
,
00022000
00000000
00000000
00000000
,
00000000
00000000
00000000
00033000
,
00010000
00000000
00001000
00010000
00000100
00000000
00001000
00000100
00010000
00000000
00001000
00000010
00000001
00000000
00000201
00000000
,
00000000
00000000
00001300
00000000
00000100
00000000
00000001
00001000
00000010
00010000
00000010
00000000
00000100
00000000
00001000
00000000
,
00010000
00001000
00000000
01000000
00010000
00000000
10000000
00100000
00000000
10000000
01000000
00000000
00100000
00010000
00100000
00001000
,
00020000
00000000
00000000
00000000
00030100
00000000
00010000
00001000
01000000
00000000
00010000
00000000
01000000
00100000
01000000
00100000
,
10000000
00000000
00100000
10000000
01000000
00000000
10000000
00010000
00100000
00000000
01000000
00000000
00010000
00001000
00010000
00000000
,
00000100
00000000
00001000
00000000
00000001
00000100
00000001
00001000
00000010
00000000
00000100
00001000
00000000
00010000
00001000
00000000
,
02000000
00000000
00000000
00000000
03010000
00000000
10000000
00100000
10000000
00000000
01000000
00100000
00000000
00010000
00100000
00000000
,
00002000
00000000
00010000
00000000
00013000
00000000
00001000
00010000
00000100
00000000
00001000
00000000
00000001
00000010
00000001
00001000
,
00000010
00000000
00000100
00000001
00001000
00000000
00000100
00010000
00001000
00000000
00100000
00001000
00010000
00000000
00100000
00000000
,
01000000
00000000
00010000
00000000
10000000
00000000
01000000
00010000
00001000
00000000
00100000
00000000
00001000
00010000
00001000
00010000
,
00000010
00001000
00000000
00000100
00010000
00000000
00001000
01000000
00000000
00010000
00100000
00000000
01000000
10000000
00010000
10000000
,
00200000
00000000
01000000
00000000
01300000
00000000
00100000
10000000
00010000
00000000
01000000
00000000
00001000
00010000
00001000
00010000
,
00000020
00000000
00000000
00000000
00001030
00000000
00000001
00000010
00000100
00000000
00001000
00000100
00010000
00001000
00010000
00000000
,
00000010
00000000
00001000
00000010
00010000
00001000
01000000
00010000
02000000
00000000
03200000
00000000
20300000
00000000
00000000
00000000
,
31000000
00000000
00010000
01000000
10000000
01000000
00000000
10000000
00010000
00100000
00001000
00010000
00001000
00000000
00001000
00000000
,
00010000
00000100
00001000
00000000
00001100
00000000
00000100
00010000
00001000
00010000
00000010
00001000
00000010
00000100
00000001
00000100
,
00000010
00001000
00000010
00000000
00010000
00000000
00001000
00000000
00100000
00010000
00100000
00000000
00001000
00000000
00010000
00000000
,
00000100
00001000
00000100
00000000
00010000
00000000
00001000
00000000
01000000
00010000
01000000
00000000
00100000
00000000
10000000
01000000
,
00100000
00010000
00100000
00000000
00110000
00000000
00010000
00000000
00100000
00001000
00010000
00000000
00011000
00000000
00001000
00000000
,
00010000
00000010
00001000
00000010
00010000
00000000
00001000
00000000
00010000
00000100
00001000
00000100
00000010
00000001
00000010
00000000
,
00000001
00000100
00001000
00000000
00011000
00000000
00010000
00000000
00100000
10000000
01000000
00000000
11000000
00000000
10000000
00000000
,
00010000
00100000
00001000
00000000
00011000
00000000
00010000
00000000
00000200
00000000
00002300
00000000
00003002
00000000
00000203
00000000
,
00000310
00001000
00000010
00000000
00010000
00001000
00010000
00000000
00001000
00100000
00010000
00100000
00001000
00010000
00001000
01000000
,
00010000
00000000
00010000
00000000
00100000
01000000
10000000
01000000
00010000
00000000
00000000
00011000
00000000
00000000
00001000
00000000
,
00010000
00000100
00001000
00000100
00010000
00000000
00001000
00000000
00000010
00000100
00001000
00000100
00000010
00000000
00000001
00000000
,
00000100
00000001
00001000
00000010
00000100
00000000
00001000
00000000
00010000
00001000
01000000
00010000
01000000
00000000
00100000
10000000
,
00010000
00100000
01000000
00100000
00010000
00000000
01000000
00000000
00001000
00010000
00000100
00001000
00000100
00000000
00010000
00000000
,
00001000
00000010
00000100
00000010
00000001
00000000
00000010
00000000
00000001
00000100
00000001
00001000
00000010
00001000
00000001
00000000
,
00000010
00000000
00000100
00010000
00001000
00000000
01000000
00000000
00100000
00000000
01000000
00001000
00010000
00000000
00000100
00001000
,
00000010
00000000
00001000
00000100
00010000
00000000
00001000
00000000
00100000
00010000
00100000
00001000
00010000
00000010
00001000
00000010
,
00000100
00001000
00000000
00001000
00010000
00000000
00100000
01100000
,
00000000
00000000
01000000
00000000
10010000
00000000
00010000
01000000
00001000
00010000
00000010
00001000
00000001
00000010
00000200
00000000
,
00000000
00000000
00000000
00000000
,
00000000
00000000
00000000
00000000
,
00000000
00000000
00000000
00000000
,
00000000
00000000
00000000
00000300
;
