#VERSION:0.83;
#TITLE:Vairocana;
#SUBTITLE:;
#ARTIST:五条式改;
#TITLETRANSLIT:;
#SUBTITLETRANSLIT:;
#ARTISTTRANSLIT:Gojoushiki kai;
#GENRE:CYBER GAGAKU;
#CREDIT:;
#MUSIC:Vairocana.ogg;
#BANNER:Vairocana.png;
#BACKGROUND:Vairocana-bg.png;
#CDTITLE:./CDTitles/pnm 12 Iroha.png;
#SAMPLESTART:27.642;
#SAMPLELENGTH:15.000;
#SELECTABLE:YES;
#OFFSET:1.306;
#BPMS:0.000=145.000
,70.000=290.000
,166.000=250.000
,172.000=270.000
,178.000=290.000
;
#STOPS:;
#TIMESIGNATURES:0.000=4=4,
64.000=2=4,
70.000=4=4
;
#DISPLAYBPM:145.000:290.000;
#BGCHANGES:0.000=../BGAs/14te.mp4=1.000=0=0=0=StretchNoLoop====,
99999.000=-nosongbg-=1.000=0=0=0=StretchNoLoop====
;
#FGCHANGES:;

//--------------- dance-single - forcednature ----------------
#NOTEDATA:;
#STEPSTYPE:dance-single;
#DESCRIPTION:forcednature;
#DIFFICULTY:Beginner;
#METER:5;
#RADARVALUES:0,0,0,0,0;
#CREDIT:forcednature;
#NOTES:
0000
0000
0000
0000
,
0000
0000
0000
0000
,
0000
0000
0000
0000
,
0000
0000
0000
0000
,
0000
0000
0000
0000
,
0000
0000
0000
0000
,
0000
0000
0000
0000
,
0000
0000
0000
0000
,
0000
0000
0000
0000
,
1001
0000
0000
0000
,
0000
0000
0000
0000
,
0000
0000
0000
0000
,
0000
0000
0000
0000
,
0110
0000
0000
0000
,
0000
0000
0000
0000
,
1001
0000
0000
0000
,
1000
0000
1000
0000
,
1000
0000
0001
0000
,
0000
0000
0000
0000
,
0100
0000
0000
0000
,
0000
0000
0010
0000
,
0000
0000
0000
0000
,
1000
0000
0000
0000
,
0000
0000
0001
0000
,
0000
0000
0000
0000
,
1000
0000
0000
0000
,
0000
0000
0100
0000
,
0000
0000
0000
0000
,
0010
0000
0000
0000
,
0000
0000
0001
0000
,
0000
0000
0100
0000
,
0000
0000
0000
0000
,
0000
0000
0010
0000
,
0000
0000
1000
0000
,
0000
0000
0000
0000
,
0000
0000
1000
0000
,
0000
1000
0000
0000
,
1000
0000
0000
0010
,
0000
0000
0001
0000
,
0000
0001
0000
0000
,
0001
0000
0000
0010
,
0000
0000
0100
0000
,
0000
0000
0000
0000
,
0000
0000
0000
0000
,
0000
0000
0001
0000
,
0000
0010
0000
0000
,
0100
0000
0000
0000
,
0000
0000
1000
0000
,
0000
0010
0000
0000
,
0100
0000
0000
0000
,
0000
0000
0001
0000
,
0001
0000
0001
0000
,
0000
0000
0000
0000
,
0000
0000
0000
0000
,
1000
0000
1000
0000
,
1000
0000
0000
0000
,
0000
0000
0000
0000
,
0000
0000
0010
0000
,
0010
0000
0010
0000
,
0000
0000
0000
0000
,
0000
0000
0000
0000
,
0100
0000
0100
0000
,
0100
0000
0001
0000
,
0000
0000
1000
0000
,
0000
0000
0100
0000
,
0000
0000
0000
0000
,
0000
0000
0000
0000
,
0000
0000
0000
0000
,
0000
0000
0010
0000
,
0000
0000
0000
0000
,
0000
0000
0000
0000
,
0000
0000
0000
0000
,
0000
0000
0001
0000
,
0000
0000
0000
0000
,
0000
0000
1000
0000
,
0000
0000
0000
0000
,
0000
0000
0010
0000
,
0000
0000
0010
0000
,
0000
0000
0100
0000
,
0000
0000
0001
0000
,
0000
0000
1000
0000
,
0000
1000
0000
0000
,
0100
0000
0000
0000
,
0000
0000
0010
0000
,
0000
0010
0000
0000
,
0001
0000
0000
0000
,
0000
0000
0001
0000
,
0000
0001
0000
0000
,
0100
0000
0000
0000
,
0000
0000
0010
0000
,
0000
0000
0010
0000
,
1000
0000
0001
0000
,
0000
0000
0001
0000
,
0010
0000
0100
0000
,
0000
0000
0100
0000
,
1000
0000
0001
0000
,
0000
0000
0100
0000
,
0000
0000
0010
0000
,
0000
0000
1000
0000
,
0000
0000
0001
0000
,
0010
0000
0001
0000
,
1000
0000
0010
0000
,
1000
0000
0001
0000
,
0100
0000
0001
0000
,
1000
0000
0100
0000
,
1000
0000
0010
0000
,
0010
0000
0010
0000
,
0100
0000
0100
0000
,
0100
0000
0001
0000
,
1000
0000
0100
0000
,
1001
0000
0000
0000
;

//--------------- dance-single - forcednature ----------------
#NOTEDATA:;
#STEPSTYPE:dance-single;
#DESCRIPTION:forcednature;
#DIFFICULTY:Easy;
#METER:8;
#RADARVALUES:0,0,0,0,0;
#CREDIT:forcednature;
#NOTES:
0000
0000
0000
0000
,
0000
0000
0000
0000
,
0000
0000
0000
0000
,
0000
0000
0000
0000
,
0000
0000
0000
0000
,
0000
0000
0000
0000
,
0000
0000
0000
0000
,
0000
0000
0000
0000
,
0000
0000
0000
0000
,
2002
0000
0000
0000
,
0000
0000
0000
0000
,
0000
0000
0000
0000
,
0000
0000
3003
0000
,
0110
0000
0001
0000
,
1000
0000
0001
0000
,
1001
0000
0000
0000
,
0100
0000
0100
0000
,
0100
0100
0001
0000
,
1000
0000
0001
0000
,
0010
0000
0001
0000
,
0000
0000
1000
0000
,
0010
0000
1000
0000
,
0001
0000
0010
0000
,
0000
0000
0100
0000
,
1000
0000
0100
0000
,
0010
0000
0001
0000
,
0000
0000
0100
0000
,
0001
0000
0100
0000
,
0020
0000
0000
2030
,
0000
0000
3001
0000
,
0010
0000
0100
0000
,
2000
0000
0000
0000
,
0000
3000
1000
0000
,
0010
0000
0100
0000
,
0002
0000
0000
0000
,
0000
0003
0001
0000
,
0000
1001
0000
0000
,
1000
0000
0000
0110
,
0000
0000
1000
0000
,
0000
1001
0000
0000
,
0001
0000
0000
0110
,
0000
0000
2002
0000
,
0000
0000
0000
0000
,
0000
0000
3003
0000
,
0000
0000
1000
0000
,
0010
0000
0100
0000
,
0002
0000
0000
0000
,
0003
0000
0001
0000
,
0010
0000
0100
0000
,
2000
0000
0000
0000
,
3000
0000
1000
0000
,
1000
0000
0100
0000
,
0010
0000
0001
0000
,
0000
0000
0001
0000
,
0001
0000
0100
0000
,
0010
0000
1000
0000
,
0000
0000
1000
0000
,
1000
0000
0100
0000
,
0010
0000
0001
0000
,
1000
0000
0000
0000
,
1000
0000
1000
0000
,
0010
0000
0100
0000
,
0001
0000
0010
0000
,
0001
0000
0100
0000
,
0010
0000
2000
0000
,
0000
0000
0000
0000
,
3000
0000
0002
0000
,
0000
0000
0000
0000
,
0003
0000
0020
0000
,
0000
0000
0000
0000
,
0030
0000
0200
0000
,
0000
0300
2000
0000
,
0000
3000
0002
0000
,
0000
0000
0000
0000
,
0003
0000
0200
0000
,
0000
0000
0000
0000
,
0300
0000
0020
0000
,
0000
0030
2000
0000
,
0000
3000
0001
0000
,
0001
0000
0010
0001
,
0010
0000
0100
0000
,
1000
0100
0000
1000
,
0100
0000
0010
0000
,
0001
0000
0100
0000
,
0001
0100
0000
0001
,
0100
0000
0010
0000
,
1000
0000
0001
0000
,
0010
0001
0000
0010
,
0001
0000
0100
0000
,
0001
0000
1000
0000
,
0010
0000
1000
0001
,
1000
0000
0100
0000
,
0010
0000
0001
1000
,
0001
0000
0100
0000
,
0010
0000
1000
0001
,
1000
0000
0100
0000
,
0010
0000
0001
1000
,
0001
0000
1000
0001
,
1000
0000
0010
0000
,
0100
0000
0001
0000
,
0001
0010
0000
0010
,
0100
0000
0100
1000
,
0000
1000
0010
0000
,
0010
0100
0000
0100
,
0001
0000
1000
0001
,
1000
0000
0100
0000
,
0100
0010
0100
0010
,
0001
0000
0001
0100
,
0001
0100
0010
0000
,
1000
0010
0100
0001
,
0020
0000
0000
0000
,
0000
0000
0000
0000
,
0000
0000
0000
0000
,
0000
0000
0000
0000
,
0000
0000
0000
0000
,
0000
0000
0000
0000
,
0000
0000
0000
0000
,
0000
0000
0000
0000
,
0030
0000
0000
0000
;

//--------------- dance-single - forcednature ----------------
#NOTEDATA:;
#STEPSTYPE:dance-single;
#DESCRIPTION:forcednature;
#DIFFICULTY:Medium;
#METER:12;
#RADARVALUES:0,0,0,0,0;
#CREDIT:forcednature;
#NOTES:
0000
0000
0000
0000
,
0000
0000
0000
0000
,
0000
0000
0000
0000
,
0000
0000
0000
0000
,
0000
0000
0000
0000
,
0000
0000
0000
0000
,
0000
0000
0000
0000
,
0000
0000
0000
0000
,
0000
0000
0000
0000
,
2002
0000
0000
0000
,
0000
0000
0000
3003
,
0020
0000
0000
0000
,
0230
0000
0302
0003
,
1002
0000
1000
0000
,
1000
0000
0000
1003
0001
0000
0010
0000
,
2002
0000
0000
0000
0000
3003
0000
0001
,
0001
0001
0000
1000
1000
1000
0000
0010
,
0000
0010
0000
0010
0100
0000
0001
0000
,
0100
0010
1000
0010
,
0100
0001
1000
0001
,
0010
0000
0100
1000
,
0100
0010
0001
0010
,
0100
1000
0001
1000
,
0010
0000
0100
0001
,
0010
0100
1000
0010
,
0100
0001
1000
0100
,
0010
0000
0100
1000
,
0010
0100
0001
0010
,
0200
0000
2300
0000
,
3002
0000
0103
0010
,
1000
0010
0100
0001
,
0010
0200
0000
0000
0000
0000
0000
0000
,
0000
0300
0100
0010
,
0001
0010
0100
1000
,
0010
0200
0000
0000
0000
0000
0000
0000
,
0000
0301
0001
0010
,
0100
1000
0100
0010
,
0001
0000
0100
0000
0010
0000
1000
0001
,
0000
0010
0000
0000
0001
0000
0100
0000
,
0010
1000
0010
0100
,
1001
0010
0100
1001
,
0100
0010
2000
0000
,
0000
0000
0000
0000
,
3000
0000
0001
0001
,
1000
1000
0100
0010
,
0100
1000
0001
1000
,
0010
0200
0000
0000
0000
0000
0000
0000
,
0000
0300
0100
0010
,
0100
0001
1000
0001
,
0010
0200
0000
0000
0000
0000
0000
0000
,
0000
0300
0100
1000
,
0010
0100
0001
0010
,
0200
0000
1000
0000
,
0010
0310
0100
1000
,
0001
0100
0010
1000
,
0001
0010
0002
0000
,
1000
0000
0010
0013
,
0001
0100
0010
1000
,
0001
0010
0001
0100
,
0020
0000
1000
0000
,
0100
0130
0010
1000
,
0001
0010
0001
0100
,
0010
1000
0001
0010
,
0100
0000
1000
0000
0001
1000
0001
0000
,
0100
0010
2000
0000
,
0000
0000
0000
3000
,
0002
0000
0023
0000
,
0000
0000
0000
0030
,
0200
0000
2300
0000
,
0000
0000
0000
0000
,
3000
0000
0002
0000
,
0000
0003
0200
0000
,
0000
0300
0010
0020
,
0000
0000
0000
0000
,
0000
0030
1000
2000
,
0000
0000
0000
0000
,
0000
3000
1001
0000
,
0010
0000
0110
0000
,
0100
0000
1000
0001
,
1000
0001
0100
0100
,
0100
0000
0000
0000
0001
1000
0001
0000
,
1000
0000
0001
1000
0001
0000
1000
0000
,
0100
0010
0001
0010
,
0100
0000
0000
0000
1000
0001
1000
0000
,
0001
0000
1000
0001
1000
0000
0001
0000
,
0100
0010
1000
0010
,
0100
0000
0000
0000
0001
0010
0001
0000
,
0010
0000
0001
0010
0001
0000
0010
0000
,
0100
1000
0001
1000
,
0010
0100
0002
0000
,
1000
1000
1003
0001
,
0010
0100
2000
0000
,
0001
0001
3001
1000
,
0010
0100
0002
0000
,
0010
0010
0013
0100
,
1000
0001
2000
0000
,
0010
0010
3010
0100
,
0001
1000
1001
0000
,
0001
0010
0001
1000
,
0010
0000
1000
0000
0100
0010
0100
0000
,
1000
0001
0100
0010
,
1000
0001
0010
0001
,
1000
0000
0010
0000
0100
0010
0100
0000
,
0001
1000
0100
0010
,
0001
1000
0010
0100
,
0001
0000
1000
0000
0100
0010
0100
0000
,
1000
0001
0010
0001
,
1000
0001
1000
0000
0001
0000
0100
0000
,
0010
0000
1000
0000
0100
0010
0100
0000
,
1000
0001
1000
0010
,
2002
0000
0000
0000
,
0000
0000
0000
0000
,
0000
0000
0000
0000
,
0000
0000
0000
0000
,
0000
0000
0000
0000
,
0000
0000
0000
0000
,
0000
0000
0000
0000
,
0000
0000
0000
0000
,
3003
0000
0000
0000
;

//--------------- dance-single - forcednature ----------------
#NOTEDATA:;
#STEPSTYPE:dance-single;
#DESCRIPTION:forcednature;
#DIFFICULTY:Hard;
#METER:17;
#RADARVALUES:0,0,0,0,0;
#CREDIT:forcednature;
#NOTES:
0000
0000
0000
0000
,
0000
0000
0000
0000
,
0000
0000
0000
0000
,
0000
0000
0000
0000
,
0000
0000
0000
0000
,
0000
0000
0000
0000
,
0000
0000
0000
0000
,
0000
0000
0000
0000
,
0000
0000
0000
0000
,
1002
0000
0000
0000
0000
0000
0000
0203
,
0320
0000
0000
0000
0000
0000
0000
2030
,
3002
0023
0000
0000
0000
0230
2300
3002
,
0203
0000
0000
0000
0020
0000
0000
0330
,
1002
0000
0100
2003
,
0100
0000
0000
0001
0001
0000
3020
0130
,
1001
0000
0000
0000
0000
0000
0000
0000
0000
0000
0000
0000
0000
0000
1000
0001
,
1000
0000
1000
0000
0000
1000
0001
1000
0001
0000
0001
0000
0000
0001
1000
0001
,
0000
0001
1000
0001
0000
0001
0010
0100
1000
0000
0100
0000
1000
0000
0100
0000
,
0010
0000
0001
0100
0001
0100
0010
0000
,
1000
0001
1000
0001
0010
0000
0001
0100
,
0010
1000
0010
0100
0001
0010
0100
0010
,
0001
0000
1000
0010
0100
0010
1000
0000
,
0001
0100
0010
0100
0001
1000
0001
0010
,
0100
1000
0001
1000
0010
0100
0010
0100
,
0001
0000
0010
0100
0010
0100
1000
0000
,
0001
1000
0010
0100
0001
1000
0100
0010
,
0001
0100
0010
0100
0001
1000
0001
0010
,
0100
0000
1000
0001
1000
0010
0100
0000
,
0001
0000
0010
0000
0001
0000
0010
0000
0000
0001
0000
0000
0010
0000
0100
0000
0010
0000
0100
0000
0000
0010
0000
0000
,
0100
0000
1000
0000
0100
0000
1000
0000
0000
0100
0000
0000
1000
0000
0000
0001
0000
0000
0010
0000
0000
0001
0000
0000
,
1000
0000
0001
0100
0010
1000
0001
1000
,
0100
0020
0000
0000
0001
0000
0001
0000
,
0100
0000
0130
0000
0010
0001
1000
0001
,
0100
0000
0010
1000
0001
0010
0100
1000
,
0001
0100
0020
0000
1000
0000
1000
0000
,
0130
0000
0110
0000
0010
1000
0100
1000
,
0001
0000
0010
0001
0100
0001
1000
0000
,
0100
0010
0001
0100
0010
1000
0100
0010
,
0000
2002
0000
3003
0001
0100
0010
1000
,
0010
0100
0001
0010
0100
1000
0100
0010
,
0001
1000
0100
1000
0010
1000
0001
0100
,
0001
0010
0001
1000
0020
0000
0000
0230
,
0000
0302
0000
0000
,
0003
0000
0000
0000
1000
0001
1000
0001
,
0000
0001
1000
0001
1000
0010
0100
0001
,
0100
0010
1000
0100
0010
0001
0100
0010
,
1000
0002
0000
0000
0000
0000
0000
0000
,
0000
0000
0003
0000
0010
0100
1000
0100
,
0010
0001
1000
0001
0100
0010
1000
0001
,
0010
0200
0000
0000
0000
0000
0000
0000
,
0000
0000
0300
0000
1000
0001
0100
0001
,
1000
0001
0010
0001
0100
0010
1000
0001
,
0000
0010
0000
0010
0100
0000
0100
1000
,
0001
0100
0110
0110
,
0010
1000
0001
0100
0001
1000
0100
0010
,
0001
0010
0100
1000
0000
1000
0010
0100
,
0002
1000
1000
0013
,
0011
0000
1100
0000
1000
0001
0100
0001
,
0010
0100
0010
0001
1000
0010
1000
0001
,
0000
0010
0000
0010
0000
0100
1000
0001
,
1000
0010
0110
0110
,
0100
0001
1000
0001
0010
0100
1000
0100
,
0010
0001
1000
0001
0000
0001
0100
0010
,
1000
0000
0000
0001
0000
0000
0010
0000
0000
0100
0000
0000
1000
0000
0001
0000
1000
0000
0001
0000
1000
0000
0001
0000
,
0100
0010
0100
0010
0200
0000
0000
0000
,
0000
0000
0000
0000
,
0320
0000
2030
0000
,
0000
0000
0000
0000
,
3002
0000
0023
0000
,
0000
0000
0000
0000
,
0000
0000
0230
0000
,
0000
0000
2300
0000
,
0000
0000
3001
1000
0001
0000
0002
0000
,
0000
0000
0000
0000
,
0000
0000
0103
0001
0200
0000
0000
0000
,
0000
0000
0000
0000
,
0310
1000
1002
0000
,
0013
0001
2001
0000
,
3100
0000
0100
0000
1000
0100
0010
0001
,
1000
0000
0000
0010
0000
0000
0100
0000
0000
0001
0000
0000
0010
0000
0100
0000
0010
0000
0100
0000
0010
0000
0100
0000
,
0010
0000
0100
0000
0010
0000
0100
0000
0000
0000
0000
0000
1000
0000
0000
0010
0000
0000
0100
0000
0000
0001
0000
0000
,
1000
0000
1000
0010
0100
0001
1000
0000
,
0001
0010
0100
1000
0001
0100
0010
1000
,
0001
0010
0100
0000
1000
0010
0100
0001
,
1000
0000
0100
0010
0001
0100
0010
0000
,
1000
0001
0010
0001
0100
0001
0010
0100
,
0010
0001
1000
0000
0001
0010
0100
1000
,
0001
0000
0001
0010
0100
1000
0001
0000
,
1000
0010
0100
0001
1000
0100
0010
0001
,
1000
0010
0100
0001
0020
0000
0100
0000
,
0100
0001
0100
0130
,
0010
0001
1000
0001
0200
0000
0010
0000
,
0010
0000
0010
0000
1000
0000
0310
0100
,
0001
1000
0100
0010
0002
0000
0100
0000
,
0100
0000
1000
0000
0010
0000
0013
0001
,
0100
0001
0010
0100
2000
0000
0010
0000
,
0010
0000
0001
0000
0100
0000
3100
1000
,
0100
1000
0001
0100
0020
0000
1000
0000
,
0001
0000
1000
0000
1000
0000
0130
0010
,
0100
0010
1000
0001
0010
0100
1000
0100
,
0010
0001
0100
1000
0100
0010
1000
0001
,
0010
0001
1000
0010
1000
0100
0001
0100
,
0010
0001
1000
0010
0100
1000
0100
0001
,
0010
0001
1000
0010
1000
0100
0001
0100
,
1000
0010
1000
0100
0010
1000
0010
0001
,
0100
0010
1000
0100
1000
0010
0001
0010
,
0100
0001
0010
0001
1000
0010
0100
0001
,
0010
0100
0001
0100
0010
0001
1000
0001
,
0100
0010
1000
0001
0010
1000
0010
0001
,
0100
0001
1000
0010
0001
0010
0100
0001
,
2000
0000
0000
0000
,
0000
0000
0000
0000
,
0000
0000
0000
0000
,
0000
0000
0000
0000
,
0000
0000
0000
0000
,
0000
0000
0000
0000
,
0000
0000
0000
0000
,
0000
0000
0000
0000
,
3000
0000
0000
0000
;

//--------------- dance-double - forcednature ----------------
#NOTEDATA:;
#STEPSTYPE:dance-double;
#DESCRIPTION:forcednature;
#DIFFICULTY:Easy;
#METER:8;
#RADARVALUES:0,0,0,0,0;
#CREDIT:forcednature;
#NOTES:
00000000
00000000
00000000
00000000
,
00000000
00000000
00000000
00000000
,
00000000
00000000
00000000
00000000
,
00000000
00000000
00000000
00000000
,
00000000
00000000
00000000
00000000
,
00000000
00000000
00000000
00000000
,
00000000
00000000
00000000
00000000
,
00000000
00000000
00000000
00000000
,
00000000
00000000
00000000
00000000
,
00022000
00000000
00000000
00000000
,
00000000
00000000
00000000
00000000
,
00000000
00000000
00000000
00000000
,
00000000
00000000
00033000
00000000
,
00011000
00000000
01000000
00000000
,
00010000
00000000
00100000
00000000
,
00011000
00000000
00000000
00000000
,
00000100
00000000
00000100
00000000
,
00000100
00000100
00001000
00000000
,
00000001
00000000
00001000
00000000
,
00000010
00000000
00010000
00000000
,
00000000
00000000
00001000
00000000
,
00010000
00000000
00001000
00000000
,
00100000
00000000
00010000
00000000
,
00000000
00000000
01000000
00000000
,
00100000
00000000
01000000
00000000
,
00010000
00000000
10000000
00000000
,
00000000
00000000
01000000
00000000
,
00100000
00000000
00001000
00000000
,
00020000
00000000
00000000
00030200
,
00000000
00000000
00001300
00000000
,
00000001
00000000
00000100
00000000
,
00000002
00000000
00000000
00000000
,
00000000
00000003
00000010
00000000
,
00000100
00000000
00010000
00000000
,
00002000
00000000
00000000
00000000
,
00000000
00003000
01000000
00000000
,
00000000
10010000
00000000
00000000
,
00100000
00000000
00000000
10010000
,
00000000
00000000
01000000
00000000
,
00000000
00011000
00000000
00000000
,
00000100
00000000
00000000
00011000
,
00000000
00000000
20020020
00000000
,
30030000
00000000
00000000
00000000
,
00000000
00000000
00000030
00000000
,
00000000
00000000
00001000
00000000
,
00000001
00000000
00000100
00000000
,
00000002
00000000
00000000
00000000
,
00000003
00000000
00000010
00000000
,
00000100
00000000
00001000
00000000
,
00000200
00000000
00000000
00000000
,
00000300
00000000
00010000
00000000
,
00010000
00000000
00001000
00000000
,
01000000
00000000
00010000
00000000
,
00000000
00000000
00100000
00000000
,
00100000
00000000
01000000
00000000
,
10000000
00000000
00010000
00000000
,
00000000
00000000
01000000
00000000
,
01000000
00000000
00001000
00000000
,
00010000
00000000
00000010
00000000
,
00001000
00000000
00000000
00000000
,
00000001
00000000
00000001
00000000
,
00000010
00000000
00000001
00000000
,
00001000
00000000
00000100
00000000
,
00010000
00000000
00001000
00000000
,
01000000
00000000
00020000
00000000
,
00000000
00000000
00000000
00000000
,
00030000
00000000
20000000
00000000
,
00000000
00000000
00000000
00000000
,
30000000
00000000
02000000
00000000
,
00000000
00000000
00000000
00000000
,
03000000
00000000
00020000
00000000
,
00000000
00030000
00002000
00000000
,
00000000
00003000
00000020
00000000
,
00000000
00000000
00000000
00000000
,
00000030
00000000
00000002
00000000
,
00000000
00000000
00000000
00000000
,
00000003
00000000
00000200
00000000
,
00000000
00000300
00002000
00000000
,
00000000
00003000
00010000
00000000
,
00001000
00000000
00010000
00001000
,
00010000
00000000
00100000
00000000
,
10000000
00100000
00000000
10000000
,
00100000
00000000
10000000
00000000
,
01000000
00000000
00010000
00000000
,
00001000
00010000
00000000
00001000
,
00010000
00000000
00000100
00000000
,
00001000
00000000
00000001
00000000
,
00000100
00000001
00000000
00000100
,
00000001
00000000
00000010
00000000
,
00000100
00000000
00010000
00000000
,
00001000
00000000
00100000
00010000
,
00100000
00000000
00001000
00000000
,
00010000
00000000
00000010
00001000
,
00000010
00000000
00010000
00000000
,
00001000
00000000
01000000
00010000
,
01000000
00000000
00001000
00000000
,
00010000
00000000
00000100
00001000
,
00000100
00000000
00010000
00001000
,
00010000
00000000
00001000
00000000
,
01000000
00000000
00010000
00000000
,
00010000
00100000
00000000
00100000
,
01000000
00000000
01000000
10000000
,
00000000
10000000
01000000
00000000
,
01000000
00010000
00000000
00010000
,
00001000
00000000
00001000
00000010
,
00000000
00000010
00000001
00000000
,
00000001
00000100
00000001
00000100
,
00000010
00000000
00001000
00000100
,
00001000
00000100
00010000
00000000
,
00001000
01000000
00010000
01000000
,
00200000
00000000
00000000
00000000
,
00000000
00000000
00000000
00000000
,
00000000
00000000
00000000
00000000
,
00000000
00000000
00000000
00000000
,
00000000
00000000
00000000
00000000
,
00000000
00000000
00000000
00000000
,
00000000
00000000
00000000
00000000
,
00000000
00000000
00000000
00000000
,
00300000
00000000
00000000
00000000
;

//--------------- dance-double - forcednature ----------------
#NOTEDATA:;
#STEPSTYPE:dance-double;
#DESCRIPTION:forcednature;
#DIFFICULTY:Medium;
#METER:13;
#RADARVALUES:0,0,0,0,0;
#CREDIT:forcednature;
#NOTES:
00000000
00000000
00000000
00000000
,
00000000
00000000
00000000
00000000
,
00000000
00000000
00000000
00000000
,
00000000
00000000
00000000
00000000
,
00000000
00000000
00000000
00000000
,
00000000
00000000
00000000
00000000
,
00000000
00000000
00000000
00000000
,
00000000
00000000
00000000
00000000
,
00000000
00000000
00000000
00000000
,
00022000
00000000
00000000
00000000
,
00000000
00000000
00000000
00033000
,
00200000
00000000
00000000
00000000
,
02300000
00000000
03020000
00030000
,
00021000
00000000
00000100
00000000
,
00000100
00000000
00000000
00030100
00010000
00000000
00001000
00000000
,
00022000
00000000
00000000
00000000
00000000
00033000
00000000
01000000
,
01000000
01000000
00000000
00010000
00010000
00010000
00000000
00100000
,
00000000
00100000
00000000
00100000
01000000
00000000
00010000
00000000
,
01000000
10000000
00100000
00010000
,
00100000
10000000
01000000
00010000
,
00001000
00000000
00000010
00000001
,
00000100
00001000
00000100
00000001
,
00000010
00001000
00010000
00001000
,
00000100
00000000
00001000
00010000
,
01000000
10000000
00100000
00010000
,
00100000
10000000
01000000
00010000
,
00001000
00000000
00000010
00000001
,
00000100
00001000
00000100
00000001
,
00000020
00000000
00002030
00000000
,
00023000
00000000
01030000
10000000
,
00100000
10000000
01000000
00010000
,
00001000
00020000
00000000
00000000
00000000
00000000
00000000
00000000
,
00000000
00030000
00001000
00000010
,
00000001
00001000
00000001
00000100
,
00001000
00020000
00000000
00000000
00000000
00000000
00000000
00000000
,
00000000
00031000
00010000
00100000
,
10000000
01000000
10000000
00100000
,
00010000
00000000
00001000
00000000
00010000
00000000
00001000
00000010
,
00000000
00000200
00000000
00000000
00001300
00000000
00000001
00000000
,
00000010
00001000
00000010
00000001
,
00000100
00001000
00010000
01000000
,
10000000
00100000
00020000
00000000
,
00000000
00000000
00000000
00000000
,
00030000
00000000
00000000
00000000
00001000
00010000
00001000
00000000
,
00010000
00001000
01000000
00010000
,
00100000
01000000
00010000
00001000
,
00010000
00000020
00000000
00000000
00000000
00000000
00000000
00000000
,
00000000
00000030
00000100
00001000
,
00000100
00000001
00000010
00001000
,
00010000
00002000
00000000
00000000
00000000
00000000
00000000
00000000
,
00000000
00003000
00010000
00100000
,
10000000
01000000
00010000
01000000
,
20000000
00000000
00100000
00000000
,
00010000
30010000
10000000
01000000
,
00010000
00001000
00000100
00000001
,
00000010
00001000
00020000
00000000
,
00100000
00000000
00001000
00031000
,
00010000
00001000
00010000
00000000
00001000
00000000
00000010
00000000
,
00000001
00000100
00001000
00000100
,
00000002
00000000
00000010
00000000
,
00000100
00000103
00000001
00000100
,
00001000
00010000
01000000
10000000
,
00100000
10000000
01000000
00010000
,
00001000
00000000
00100000
00000000
00001000
00010000
00001000
00000000
,
00010000
00000010
00002000
00000000
,
00000000
00000000
00000000
00000000
,
00003002
00000000
00000203
00000000
,
00000000
00000000
00000000
00000300
,
00002000
00000000
00023000
00000000
,
00000000
00000000
00000000
00030000
,
00000000
00000000
00200000
00000000
,
00000000
00300000
20000000
00000000
,
00000000
30000000
01000000
02000000
,
00000000
00000000
00000000
00000000
,
00000000
03000000
00010000
00002000
,
00000000
00000000
00000000
00000000
,
00000000
00003000
00011000
00000000
,
00000010
00000000
00011000
00000000
,
00100000
00000000
00001000
00010000
,
00001000
00010000
00000100
00000100
,
00000100
00000000
00000000
00000000
00001000
00000001
00001000
00000000
,
00000001
00000000
00001000
00000001
00001000
00000000
00000001
00000000
,
00000100
00001000
00010000
01000000
,
10000000
00000000
00000000
00000000
00010000
10000000
00010000
00000000
,
10000000
00000000
00010000
10000000
00010000
00000000
10000000
00000000
,
01000000
00010000
00001000
00000100
,
00000001
00000000
00000000
00000000
00001000
00000001
00001000
00000000
,
00000001
00000000
00001000
00000001
00001000
00000000
00000001
00000000
,
00000010
00001000
00010000
00100000
,
10000000
00010000
00200000
00000000
,
01000000
01000000
01300000
00100000
,
00001000
00010000
00000020
00000000
,
00000100
00000100
00000130
00000010
,
00010000
00001000
02000000
00000000
,
00100000
00100000
03100000
01000000
,
00001000
00010000
00000200
00000000
,
00000010
00000010
00000310
00000100
,
00010000
00001000
00011000
00000000
,
00010000
00100000
10000000
01000000
,
00010000
00000000
01000000
00000000
10000000
00010000
10000000
00000000
,
00100000
00010000
00001000
00000100
,
00000001
00000010
00001000
00010000
,
01000000
00000000
10000000
00000000
00010000
10000000
00010000
00000000
,
10000000
00100000
00010000
00001000
,
00000100
00000001
00001000
00000001
,
00000010
00000000
00001000
00000000
00010000
00001000
00010000
00000000
,
01000000
10000000
00010000
01000000
,
00100000
01000000
00100000
00000000
01000000
00000000
00001000
00000000
,
00010000
00000000
00000100
00000000
00000010
00000100
00000010
00000000
,
00000100
00010000
00001000
00100000
,
02200000
00000000
00000000
00000000
,
00000000
00000000
00000000
00000000
,
00000000
00000000
00000000
00000000
,
00000000
00000000
00000000
00000000
,
00000000
00000000
00000000
00000000
,
00000000
00000000
00000000
00000000
,
00000000
00000000
00000000
00000000
,
00000000
00000000
00000000
00000000
,
03300000
00000000
00000000
00000000
;

//--------------- dance-double - forcednature ----------------
#NOTEDATA:;
#STEPSTYPE:dance-double;
#DESCRIPTION:forcednature;
#DIFFICULTY:Hard;
#METER:17;
#RADARVALUES:0,0,0,0,0;
#CREDIT:forcednature;
#NOTES:
00000000
00000000
00000000
00000000
,
00000000
00000000
00000000
00000000
,
00000000
00000000
00000000
00000000
,
00000000
00000000
00000000
00000000
,
00000000
00000000
00000000
00000000
,
00000000
00000000
00000000
00000000
,
00000000
00000000
00000000
00000000
,
00000000
00000000
00000000
00000000
,
00000000
00000000
00000000
00000000
,
00021000
00000000
00000000
00000000
00000000
00000000
00000000
00230000
,
20300000
00000000
00000000
00000000
00000000
00000000
00000000
32000000
,
03020000
00032000
00000000
00000000
00000000
00003020
00000230
00002300
,
00003002
00000000
00000000
00000000
00000200
00000000
00000000
00000303
,
00020010
00000000
00000100
00032000
,
01000000
00000000
00000000
00010000
00010000
00000000
00203000
01300000
,
10010000
00000000
00000000
00000000
00000000
00000000
00000000
00000000
00000000
00000000
00000000
00000000
00000000
00000000
10000000
01000000
,
10000000
00000000
10000000
00000000
00000000
01000000
00010000
01000000
00010000
00000000
00001000
00000000
00000000
00010000
00001000
00010000
,
00000000
00001000
00000010
00001000
00000000
00000010
00000001
00000010
00000001
00000000
00001000
00000000
00000100
00000000
00001000
00000000
,
00000001
00000000
00001000
00000001
00000100
00000000
00001000
00000000
,
00010000
00001000
01000000
00001000
00010000
00000000
00001000
00100000
,
00010000
00100000
01000000
00000000
10000000
00010000
01000000
00010000
,
10000000
00000000
01000000
00100000
01000000
00000000
00010000
00000000
,
00001000
00010000
00000100
00001000
00000100
00010000
00001000
00010000
,
00000010
00001000
00000010
00000000
00000100
00000001
00001000
00000001
,
00000100
00000000
00001000
00010000
00001000
00000000
00010000
00000000
,
00100000
01000000
00010000
10000000
00100000
00000000
10000000
01000000
,
00100000
00001000
00010000
00000000
00000100
00001000
00000100
00010000
,
00001000
00000000
01000000
00010000
01000000
00100000
10000000
00000000
,
01000000
00000000
10000000
00000000
01000000
00000000
10000000
00000000
00000000
01000000
00000000
00000000
00100000
00000000
01000000
00000000
00100000
00000000
01000000
00000000
00000000
00100000
00000000
00000000
,
00010000
00000000
00100000
00000000
00010000
00000000
00100000
00000000
00000000
00000000
00000000
00000000
00001000
00000000
00000000
00010000
00000000
00000000
00000100
00000000
00000000
00001000
00000000
00000000
,
00000100
00010000
00001000
01000000
00010000
00100000
01000000
10000000
,
01000000
00200000
00000000
00000000
00010000
00000000
00010000
00000000
,
00001000
00000000
00301000
00000000
00000000
00100000
00001000
00010000
,
00001000
00000000
00010000
00000100
00001000
00000100
00010000
00001000
,
00010000
00000010
00002000
00000000
00000001
00000000
00000001
00000000
,
00003100
00000000
00000110
00000000
00000000
00000010
00000100
00001000
,
00000100
00000000
00010000
00001000
01000000
00010000
01000000
00100000
,
10000000
00100000
01000000
00010000
10000000
01000000
00010000
00001000
,
00000000
00022000
00000000
00033000
00000000
00001000
00010000
00000100
,
00001000
00000100
00010000
00001000
00000010
00000100
00000010
00000001
,
00000100
00000001
00000100
00001000
00010000
00001000
00010000
00100000
,
01000000
00100000
10000000
00100000
02000000
00000000
00000000
03002000
,
00000000
00023000
00000000
00000000
,
00030000
00000000
00000000
00000000
00000000
00000000
00000000
00000000
00000000
00000000
00000000
00000000
00001000
00000000
00010000
00000000
00001000
00000000
00010000
00000000
00000000
00001000
00000000
00000000
,
00000000
00010000
00001000
00010000
00000100
00001000
00000100
00010000
,
00001000
00100000
00010000
00100000
00001000
00010000
00000010
00001000
,
00000010
00000200
00000000
00000000
00000000
00000000
00000000
00000000
,
00000000
00000000
00000300
00000000
01000000
00010000
01000000
00001000
,
00010000
00000010
00001000
00000010
00010000
00001000
00100000
00010000
,
00100000
02000000
00000000
00000000
00000000
00000000
00000000
00000000
,
00000000
00000000
03000000
00000000
10000000
00010000
01000000
00010000
,
10000000
00010000
00100000
00010000
01000000
00100000
00010000
00001000
,
00000000
00011000
00000000
00011000
00000000
00010000
00000100
00001000
,
00000100
00000010
00000110
00000110
,
00000001
00001000
00000100
00001000
00000001
00001000
00000010
00001000
,
00000100
00000010
00001000
00010000
00000000
00011000
00000000
00011000
,
00000000
00001000
01000000
00010000
01000000
00000000
00100000
00000000
,
01100000
00000000
01100000
00000000
10000000
00010000
00100000
00010000
,
10000000
00010000
01000000
00010000
00100000
01000000
00010000
00001000
,
00000000
00011000
00000000
00011000
00000000
00010000
00000010
00001000
,
00000010
00000100
00000110
00000110
,
00000001
00001000
00000010
00001000
00000001
00001000
00000100
00001000
,
00000010
00000100
00001000
00010000
00000000
00011000
00000000
00011000
,
00000000
00000000
00000000
00001000
00000000
00000000
00100000
00000000
00000000
00010000
00000000
00000000
00100000
00000000
01000000
00000000
00100000
00000000
01000000
00000000
00100000
00000000
01000000
00000000
,
20000000
30010000
02000000
00000000
,
00000000
00000000
00000000
00000000
,
03002000
00000000
00023000
00000000
,
00000000
00000000
00000000
00000000
,
00030200
00000000
00000320
00000000
,
00000000
00000000
00000000
00000000
,
00000000
00000000
00000032
00000000
,
00000000
00000000
00000203
00000000
,
00000000
00000000
00001300
00010000
00001000
00000000
00002000
00000000
,
00000000
00000000
00000000
00000000
,
00000000
00000000
01003000
00010000
02000000
00000000
00000000
00000000
,
00000000
00000000
00000000
00000000
,
03100000
10000000
02000000
00000000
,
03010000
00000100
00002000
00000000
,
00003001
00000000
00000010
00000000
00000001
00000100
00000010
00001000
,
00000010
00000000
00000000
00010000
00000000
00000000
00001000
00000000
00000000
00010000
00000000
00000000
00001000
00000000
00010000
00000000
00001000
00000000
00010000
00000000
00001000
00000000
00010000
00000000
,
00001000
00000000
00010000
00000000
00001000
00000000
00010000
00000000
00000000
00000000
00000000
00000000
00001000
00000000
00000000
00100000
00000000
00000000
00010000
00000000
00000000
01000000
00000000
00000000
,
00001000
00000000
00001000
00100000
00010000
01000000
00001000
00000000
,
00100000
00010000
00100000
01000000
10000000
01000000
00010000
00001000
,
00010000
00000010
00001000
00000000
00000100
00010000
00000010
00001000
,
00000010
00000000
00000100
00000001
00000010
00000001
00000010
00000000
,
00000100
00010000
00001000
00010000
00000010
00001000
00000010
00000100
,
00000001
00001000
00000020
00000000
00010030
00000100
00001000
00000010
,
00010000
00000000
00010000
00000100
00001000
00000010
00010000
00000000
,
00000100
00001000
00000100
00000010
00000001
00000010
00001000
00010000
,
00001000
01000000
00010000
00100000
02000000
00000000
10000000
00000000
,
10000000
00010000
10000000
13000000
,
01000000
00100000
00010000
00100000
00002000
00000000
01000000
00000000
,
01000000
00000000
01000000
00000000
00000100
00000000
01003000
00001000
,
00010000
00001000
00010000
00000100
00002000
00000000
00000100
00000000
,
00000100
00000000
01000000
00000000
00000100
00000000
00003100
00001000
,
00000100
00000010
00000001
00001000
00000020
00000000
00010000
00000000
,
00010000
00000000
00000001
00000000
00010000
00000000
00010030
00000010
,
00001000
00000010
00010000
00001000
00020000
00000000
00000100
00000000
,
01000000
00000000
00000100
00000000
00030100
00000000
00010000
00001000
,
00010000
00001000
01000000
00010000
00100000
01000000
00010000
01000000
,
10000000
00010000
00100000
00010000
01000000
00001000
00010000
00001000
,
00010000
00100000
00010000
00001000
00010000
00000100
00001000
00000100
,
00000010
00001000
00000010
00000001
00001000
00000010
00010000
00001000
,
01000000
00010000
00100000
01000000
00010000
01000000
10000000
00010000
,
00100000
00001000
00010000
00001000
01000000
00010000
01000000
00100000
,
00010000
00001000
00010000
00000100
00001000
00000100
00000010
00001000
,
00000010
00000001
00001000
00000010
00000100
00000001
00000100
00001000
,
00010000
00100000
01000000
00100000
10000000
00010000
10000000
01000000
,
00010000
00001000
00000010
00000100
00001000
00000001
00000100
00001000
,
00010000
00100000
01000000
00001000
00100000
01000000
00010000
00001000
,
00000020
00000000
00000000
00000000
,
00000000
00000000
00000000
00000000
,
00000000
00000000
00000000
00000000
,
00000000
00000000
00000000
00000000
,
00000000
00000000
00000000
00000000
,
00000000
00000000
00000000
00000000
,
00000000
00000000
00000000
00000000
,
00000000
00000000
00000000
00000000
,
00000030
00000000
00000000
00000000
;
