#VERSION:0.83;
#TITLE:うさ☆かめ 大戦争!;
#SUBTITLE:;
#ARTIST:ARM×狐夢想 feat. I've 柚子乃 & RINA;
#TITLETRANSLIT:Usa kame daisensou!;
#SUBTITLETRANSLIT:;
#ARTISTTRANSLIT:ARM×Komso feat. I've Yuzuno & RINA;
#GENRE:プログレッシブ徒競走;
#CREDIT:;
#MUSIC:Usa kame daisensou!.ogg;
#BANNER:Usa kame daisensou!.png;
#BACKGROUND:Usa kame daisensou!-bg.png;
#CDTITLE:./CDTitles/bm IIDX 25 CANNON BALLERS.png;
#SAMPLESTART:79.261;
#SAMPLELENGTH:15.000;
#SELECTABLE:YES;
#OFFSET:0.727;
#BPMS:0.000=210.000;
#STOPS:;
#TIMESIGNATURES:0.000=4=4;
#BGCHANGES:4.000=Usa kame daisensou!.mp4=1.000=0=0=0=StretchNoLoop====,
99999.000=-nosongbg-=1.000=0=0=0=StretchNoLoop====
;
#FGCHANGES:;

//--------------- dance-single - forcednature ----------------
#NOTEDATA:;
#STEPSTYPE:dance-single;
#DESCRIPTION:forcednature;
#DIFFICULTY:Beginner;
#METER:4;
#RADARVALUES:0,0,0,0,0;
#CREDIT:forcednature;
#NOTES:
0000
0000
0000
0000
,
0000
0000
0000
0000
,
0000
0000
0000
0000
,
0000
0000
0000
0000
,
0000
0000
0000
0000
,
0000
0000
0000
0000
,
1000
0000
0000
0000
,
1000
0000
0000
0000
,
0001
0000
0000
0000
,
0000
0000
0000
0000
,
1001
0000
0000
0000
,
0000
0000
0000
0000
,
1000
0000
0000
0000
,
0010
0000
0000
0000
,
1000
0000
0000
0000
,
0001
0000
0000
0000
,
0010
0000
0000
0000
,
0100
0000
0000
0000
,
0010
0000
0000
0000
,
0000
0000
0000
0000
,
0001
0000
0000
0000
,
0100
0000
0000
0000
,
0001
0000
0000
0000
,
0000
0000
0000
0000
,
1000
0000
0000
0000
,
0100
0000
0000
0000
,
1000
0000
0000
0000
,
0000
0000
0000
0000
,
0010
0000
0000
0000
,
0100
0000
0000
0000
,
0001
0000
0000
0000
,
0001
0000
0000
0000
,
1000
0000
0000
0000
,
0100
0000
0000
0000
,
0010
0000
0000
0000
,
0010
0000
0000
0000
,
0001
0000
0000
0000
,
0001
0000
0000
0000
,
0100
0000
0000
0000
,
0000
0000
0000
0010
0000
0000
0000
0000
,
0000
0000
1000
0000
,
0000
0000
0000
0000
,
0000
0000
0000
0001
0000
0000
0000
0000
,
0000
0010
0000
0000
0000
0000
0000
0000
,
2002
0000
0000
0000
,
3003
0000
0000
0000
,
0220
0000
0000
0000
,
0330
0000
0000
0000
,
1000
0000
0000
0000
,
1000
0000
0000
0000
,
0100
0000
0000
0000
,
1000
0000
0000
0000
,
0001
0000
0000
0000
,
0001
0000
0000
0000
,
0100
0000
0000
0000
,
0001
0000
0000
0000
,
0010
0000
0000
0000
,
0100
0000
0000
0000
,
0010
0000
0000
0000
,
0100
0000
0000
0000
,
1000
0000
0000
0000
,
0001
0000
0000
0000
,
0100
0000
0000
0000
,
0010
0000
0000
0000
,
2002
0000
0000
0000
,
3003
0000
0000
0000
,
0220
0000
0000
0000
,
0000
0000
0000
0000
,
0330
0000
0000
0000
,
0000
0000
0000
0000
,
1000
0000
0000
0000
,
0001
0000
0000
0000
,
0100
0000
0100
0000
,
0100
0000
0000
0000
,
0001
0000
0000
0000
,
1000
0000
0000
0000
,
0100
0000
0100
0000
,
0010
0000
0000
0000
,
0001
0000
0000
0000
,
1000
0000
0000
0000
,
0010
0000
0100
0000
,
0010
0000
0000
0000
,
1000
0000
0000
0000
,
0001
0000
0000
0000
,
0020
0000
0000
0000
,
0030
0000
0000
0000
,
2002
0000
0000
0000
,
3003
0000
0000
0000
,
0001
0000
0000
0000
,
0100
0000
0000
0000
,
0010
0000
0000
0000
,
1000
0000
0000
0000
,
0100
0000
0000
0000
,
0010
0000
0000
0000
,
0001
0000
0001
0000
,
0001
0000
0000
0000
,
0100
0000
0000
0000
,
0010
0000
0000
0000
,
1000
0000
0000
0000
,
0000
0000
2002
0000
,
0000
0000
0000
0000
,
0000
0000
3003
0000
;

//--------------- dance-single - forcednature ----------------
#NOTEDATA:;
#STEPSTYPE:dance-single;
#DESCRIPTION:forcednature;
#DIFFICULTY:Easy;
#METER:7;
#RADARVALUES:0,0,0,0,0;
#CREDIT:forcednature;
#NOTES:
0000
0000
0000
0000
,
0000
0000
0000
0000
,
0000
0000
0000
0000
,
0000
0000
0000
0000
,
0000
0000
0000
0000
,
0000
0000
0000
0000
,
2002
0000
3003
0000
,
0220
0000
0330
0000
,
1000
0001
1000
0001
,
2000
0000
3000
0000
,
0100
0000
0100
0010
,
0001
0000
0100
0000
,
0010
0000
1000
0001
,
0010
0000
0100
0000
,
0110
0000
0010
0001
,
1000
0000
0010
0000
,
0100
0000
0001
0000
,
1000
1000
1000
0000
,
0100
0000
0010
0001
,
0010
0000
0100
0000
,
1000
0000
0010
0100
,
0010
0000
1000
0000
,
0001
0000
0010
0100
,
0010
0000
0001
0000
,
1001
0000
0110
0000
,
2002
0000
3003
0000
,
1000
0000
0010
0100
,
0010
0000
1000
0000
,
0001
0000
0010
0100
,
0010
0000
0001
0000
,
0100
0000
0000
0100
0000
0000
0010
0000
,
0000
0010
0000
0000
1000
0000
0000
0000
,
1001
0000
0110
0000
,
1001
0000
0110
0000
,
1001
0000
0001
0100
,
0001
0000
1000
0000
,
1001
0000
1000
0100
,
1000
0000
0001
0000
,
0100
0000
0100
0010
,
1000
0000
0100
0000
,
0100
0010
0001
0000
,
0001
0100
0010
0000
,
1000
0000
0000
0001
0000
0000
0001
0000
,
0000
1000
0000
0000
0010
0000
0100
0000
,
0001
0000
0000
0000
,
1000
0000
0000
0000
,
1001
0000
0001
0100
,
0001
0000
0010
0000
,
0100
0000
0100
0000
,
0100
1000
0100
0000
,
0100
0010
0001
0000
,
0001
0000
0100
0000
,
0100
0010
1000
0000
,
0100
0000
0010
0000
,
0100
1000
0001
0000
,
0100
0000
0010
0000
,
1001
0000
0000
0000
,
0100
0010
0100
0000
,
1001
0000
0000
0000
,
0010
0100
0010
0000
,
1000
0000
0100
0000
,
0010
0000
0001
0000
,
0100
0000
0010
0000
,
1000
0001
1000
0000
,
0002
0000
0000
0000
,
0003
0000
0000
0000
,
2002
0000
0000
0000
,
0000
0000
0000
0000
,
3003
0000
0000
0000
,
0000
0000
0000
0000
,
0110
0000
0001
0000
,
1000
0000
0001
0000
,
0010
0100
0010
0000
,
0001
0000
1000
0000
,
0010
0100
0010
0000
,
1000
0000
0001
0000
,
1000
0000
0100
0000
,
0010
0000
0001
0000
,
0100
0010
0100
0000
,
0001
0000
1000
0000
,
0100
0010
0100
0000
,
1000
0000
0001
0000
,
0010
0000
0100
0000
,
0010
0000
0001
0000
,
1000
0010
1000
0000
,
0001
0000
0010
0000
,
0001
1000
0001
1000
,
0020
0000
0030
0000
,
0100
0001
0100
0001
,
1000
0000
0100
0000
,
0010
0000
0001
0000
,
1000
0000
0010
0000
,
1000
0100
1000
0100
,
0010
0000
0001
0000
,
0100
0000
0010
0000
,
1000
0000
0001
0000
,
0020
0000
0000
0030
,
0200
0000
0000
0300
,
2000
0000
0000
3000
,
0001
0000
2002
0000
,
0000
0000
0000
0000
,
0000
0000
3003
0000
;

//--------------- dance-single - forcednature ----------------
#NOTEDATA:;
#STEPSTYPE:dance-single;
#DESCRIPTION:forcednature;
#DIFFICULTY:Medium;
#METER:11;
#RADARVALUES:0,0,0,0,0;
#CREDIT:forcednature;
#NOTES:
0000
0000
0000
0000
,
0000
0000
0000
0000
,
0000
0000
0000
0000
,
0000
0000
0000
0000
,
0000
0000
0000
0000
,
0000
0000
0000
0000
,
2002
0000
3003
0000
,
0220
0000
0330
0000
,
1001
0110
1001
0110
,
0200
0000
0300
0010
,
1002
2003
3002
0203
,
0320
0000
2030
3200
,
0320
0000
0032
0000
,
0203
0320
2030
3000
,
2001
3002
0203
0320
,
2030
3200
0320
0000
,
0031
0101
1000
1100
,
0010
0000
0100
0000
0010
0000
0200
0000
0000
0300
0000
0000
,
1001
0001
0100
0010
,
1000
0100
1000
0010
,
0100
0001
0010
0100
,
2000
3000
0002
0003
,
0110
0001
1000
0100
,
0010
0001
0100
0001
,
0220
0330
2002
3003
,
1000
0000
0000
0001
0000
0000
0100
0000
0100
0010
0000
0000
,
1000
0001
0010
0001
,
0100
0010
1000
0010
,
0100
0001
0010
0100
,
2000
3000
0002
0003
,
0110
0000
0000
1001
0000
0000
0110
0000
,
0000
1001
0000
0000
0110
0000
1001
0000
,
1000
1100
0001
0101
,
1000
1010
0001
0011
,
2002
0000
0000
3003
0000
0000
1000
0000
0100
0000
0010
0000
,
0002
0100
1000
0013
,
2002
0000
0000
3003
0000
0000
0001
0000
0100
0000
0010
0000
,
1000
0000
0001
0000
1000
0000
0100
0000
0010
0000
0001
0000
,
1000
0010
0100
0001
,
1000
0100
1000
0000
0010
0000
0100
0000
,
0001
0000
0010
0100
0010
0000
0001
1000
,
0001
0100
0010
1000
,
0001
0010
0001
0010
0000
0100
1000
0000
,
0001
0100
0000
0010
1000
0000
0001
0000
,
2001
0000
3002
0000
,
0203
0000
0320
0000
,
1030
0000
0000
1000
0000
0000
0001
0000
1000
0000
0010
0000
,
0100
0010
2002
3003
,
1100
1000
0001
0001
,
0100
0010
1000
0001
,
0010
0010
0100
1000
,
0010
0100
0002
0003
,
0001
1000
0100
0010
,
0001
0000
0000
0100
0000
0000
0010
0000
0010
0000
0000
0000
,
1000
0001
0010
0100
,
0010
0000
0010
0001
0000
0001
2000
0000
0000
3000
0000
0000
,
0102
0000
0013
0000
,
0001
1000
1001
0000
,
2100
0000
3010
0000
,
1000
0001
1001
0000
,
1000
0100
1000
0010
,
0100
0001
0010
0001
,
0100
0100
0010
0010
,
1000
0001
0010
0100
,
2002
0000
0000
0000
,
3003
0000
0000
0000
,
0220
0000
0000
0000
,
0000
0000
0000
0330
,
1000
0000
0000
0000
0001
0000
0000
0000
1000
0000
0000
0000
0001
0000
0000
0000
0000
0000
0000
0000
0000
2002
0000
0000
,
0000
0000
0000
3003
0000
0000
0000
0000
,
2000
0000
3100
0010
0001
0000
0011
0000
,
0002
0000
0103
0010
1000
0000
1010
0000
,
0002
0203
0320
2030
,
3001
0000
0000
1000
0000
0100
1000
0000
0100
1000
0000
0000
,
0010
0000
0000
1001
0000
0000
0001
0000
0010
0000
0100
0000
,
1000
0000
0000
1001
0000
0000
1000
0000
0010
0000
0100
0000
,
0002
0010
1000
0103
,
0001
0000
0001
1000
0000
0000
1000
0000
1000
0001
0000
0000
,
0020
0000
0000
0130
0010
0000
0110
0000
,
0002
0000
1003
0100
0010
0000
1001
0000
,
2000
3200
0320
0031
,
0102
0013
2100
3010
,
1001
0000
0000
0000
0000
1100
0000
0000
0000
0011
0000
0000
,
1001
0000
0000
0000
0000
0101
0000
0000
0000
1010
0000
0000
,
2002
0000
0000
3003
,
0100
0100
0100
0010
,
1001
0110
1001
0110
,
0200
0000
0300
0000
,
2001
3200
0320
0032
,
0203
0001
0320
2030
,
3002
1000
0023
0001
,
0230
2300
3020
0030
,
1002
0203
0320
2030
,
3200
0320
0032
0000
,
0103
1010
0100
0011
,
1000
0000
0100
0000
0010
0000
0002
0000
0000
0000
0000
0000
,
0103
0010
1000
0001
,
0010
0100
1000
0001
,
2000
3020
0230
0302
,
0023
0030
2002
0000
,
0000
0000
0000
0000
,
0000
0000
3003
0000
;

//--------------- dance-single - forcednature ----------------
#NOTEDATA:;
#STEPSTYPE:dance-single;
#DESCRIPTION:forcednature;
#DIFFICULTY:Hard;
#METER:14;
#RADARVALUES:0,0,0,0,0;
#CREDIT:forcednature;
#NOTES:
0000
0000
0000
0000
,
0000
0000
0000
0000
,
0000
0000
0000
0000
,
0000
0000
0000
0000
,
0000
0000
0000
0000
,
0000
0000
0000
0000
,
1001
0000
0010
0000
,
1001
0000
0100
0000
,
0101
1001
1100
1001
,
0020
0000
0030
0001
,
0100
0000
0001
0100
0000
0001
0100
0000
0001
0100
0000
0001
,
0020
0000
0230
2300
,
3020
1000
0230
0001
,
0310
0000
0000
1000
0000
0100
0020
0000
0000
0001
0000
0000
,
0130
0000
1000
0100
0000
1000
0100
0000
1000
0100
0000
1000
,
0020
0000
0000
0130
0001
1000
0020
0000
0000
0000
0000
0000
,
0130
0001
0100
0001
0000
0000
1000
0100
1000
0100
0000
0000
,
0010
0000
0100
0000
0010
0000
2002
0000
0000
3003
0000
0000
,
1000
0000
0001
0100
1000
0000
0100
0000
,
0010
1010
0100
0101
,
0001
0000
1000
0100
0001
0000
0100
0000
,
0022
0033
2020
3030
,
0001
0000
1000
0100
0001
0000
0100
0000
,
0010
0011
0100
1100
,
1000
0100
0010
0001
0000
0000
0001
0100
0010
1000
0000
0000
,
0001
1000
0001
1000
0000
1000
0100
0000
0100
0010
0000
0000
,
0001
0000
1000
0010
0001
0000
0010
0000
,
1000
1100
0001
0011
,
1000
0000
0001
0010
1000
0000
0010
0000
,
0001
0100
0001
1000
0000
0000
1000
0100
1000
0001
0000
0000
,
0101
0000
0000
1010
0000
0000
1100
0000
,
0000
0011
0000
0000
0110
0000
1001
0000
,
2100
3010
0102
0013
,
1200
0301
0021
1030
,
0220
0000
0000
0330
0000
0000
0001
0000
0100
0000
0010
0000
,
2010
0001
0100
3001
,
0220
0000
0000
0330
0000
0000
1000
0000
0100
0000
0010
0000
,
0011
0000
0010
0000
0100
0000
1000
0000
0010
0000
0100
0000
,
1001
0000
0001
0100
1000
0000
1000
0100
,
0001
0010
0010
0100
1000
0010
0100
0010
,
1000
0001
0010
0010
0100
1000
0001
0100
,
0100
0010
1000
0100
1000
0001
0010
0100
,
1000
0001
0001
0100
0010
1000
0100
0010
,
0001
1000
0010
0100
0001
0010
1000
0010
,
0200
0000
2300
0000
,
3002
0000
0203
0000
,
0310
1000
0010
1000
0010
1000
0001
0000
0010
0000
0100
0000
,
2100
0001
0020
3030
,
1000
1000
0001
0001
,
0011
0000
0000
1000
0000
1000
0010
0000
0000
0100
0000
0000
,
0001
0000
0000
0010
0000
0100
1000
0000
0000
0100
0000
0010
,
0001
0110
1001
0000
,
1000
0000
0000
0010
0000
0000
0100
0000
0100
0000
0000
0001
,
0010
0000
0000
0100
0000
1000
0100
0000
0010
0000
0000
0000
,
0001
0000
1000
0001
0000
0100
0010
0000
0000
1000
0000
0000
,
0001
0000
1000
0100
0010
0001
1000
0000
0000
0000
0000
0000
,
0201
0000
1300
0000
,
0100
0010
1001
0000
,
1200
0000
0301
0000
,
0100
0010
1001
0000
,
1100
1010
0101
0011
,
1100
0101
1010
0011
,
1000
0000
1000
0100
0000
0100
0010
0000
0010
0001
0000
0001
,
0100
0000
0100
0010
0000
0010
1000
0000
1000
0001
0000
0001
,
0020
0000
0000
0000
,
0030
0000
0000
0000
,
2002
0000
0000
0000
,
0000
0000
0000
3003
,
0001
0000
0000
0000
1000
0000
0000
0000
0100
0000
0000
0000
0010
0000
0000
0001
0000
0000
0000
0000
0000
2002
0000
0000
,
0000
0000
0000
3003
0000
0000
0000
0000
,
1001
0000
0001
0100
1000
0000
0110
0000
,
1001
0000
1000
0100
0001
0000
0110
0000
,
1000
0000
1000
0100
0000
0100
0010
0000
0010
0001
0000
0001
,
0100
0000
0000
0010
0000
1000
0010
0000
1000
0001
0000
0000
,
1000
0000
0000
1001
0000
0000
0100
0000
0010
0000
0110
0000
,
0001
0000
0000
1001
0000
0000
0100
0000
0010
0000
0110
0000
,
1002
0100
1000
0013
,
1000
0001
1000
0001
0000
0001
0100
0000
0100
0020
0000
0000
,
1030
0100
1000
0100
0010
0001
0010
0001
0100
0010
0000
0000
,
1001
0000
1000
0010
0001
0000
0110
0000
,
0001
0000
0001
0100
0000
0100
0010
0000
0010
1000
0000
1000
,
0001
0000
0010
0100
0000
1000
0001
0000
0100
0010
0000
1000
,
0001
0000
0000
0100
0000
1010
0000
0000
0001
1000
0000
0000
,
1001
0000
0000
0100
0000
0011
0000
0000
1000
0001
0000
0000
,
0220
0000
0000
0330
,
1000
0000
0001
1000
0000
0001
0010
0000
0000
0100
0000
0000
,
1100
0011
0101
1010
,
0220
0000
0330
0000
,
1000
0000
0100
1000
0000
0100
1000
0000
0100
1000
0000
0001
,
0020
0000
0230
2300
,
3002
0100
2003
0010
,
3100
0000
0000
0010
0000
0001
1000
0000
0000
0010
0000
1000
,
0001
0000
0100
0001
0000
0100
0001
0000
0100
0001
0000
1000
,
0020
0000
0000
1030
0100
0010
0002
0000
0000
0000
0000
0000
,
1003
0010
0100
0001
0000
0000
0001
0010
0100
1000
0000
0000
,
0010
0000
0100
0000
0110
0000
2002
0000
0000
3003
0000
0000
,
1000
0100
0010
0001
,
1000
0010
0100
0001
,
0020
0230
2300
3002
,
0203
0300
2002
0000
,
0000
0000
0000
0000
,
0000
0000
3003
0000
;

//--------------- dance-single - forcednature ----------------
#NOTEDATA:;
#STEPSTYPE:dance-single;
#DESCRIPTION:forcednature;
#DIFFICULTY:Challenge;
#METER:16;
#RADARVALUES:0,0,0,0,0;
#CREDIT:forcednature;
#NOTES:
0000
0000
0000
0000
,
0000
0000
0000
0000
,
0000
0000
0000
0000
,
0000
0000
0000
0000
,
0000
0000
0000
0000
,
0000
0000
0000
0000
,
1100
0000
0010
0000
,
0101
0000
0010
0000
,
1100
0011
0101
1010
,
1000
0001
0100
0001
1000
0100
0010
0000
0000
0002
0000
0000
,
1003
0000
0100
1000
0000
0100
1000
0000
0100
1000
0000
0001
,
0020
0000
0000
0100
0000
0000
1030
0000
0010
0001
0000
1000
,
0001
0000
0001
0100
0000
0000
0010
0000
0010
1000
0000
0000
,
0110
0000
1000
0001
0000
0010
0100
0000
1000
0001
0000
0000
,
0101
0000
0100
0001
0000
0100
0001
0000
0100
0001
0000
1000
,
0020
0000
0000
1030
0100
0010
0002
0000
0000
0000
0000
0000
,
1003
0100
1000
0001
0000
0000
0001
0100
0001
1000
0000
0000
,
1100
0000
0101
0000
0110
0000
2002
0000
0000
3003
0000
0000
,
0110
0000
0001
0100
1000
0000
0100
0000
,
0010
0000
0010
1000
0000
1000
0001
0000
0001
0010
0000
0010
,
0100
0000
0001
0100
1000
0000
0010
0000
,
0102
0000
0000
0013
0000
0000
0001
0100
0010
1000
0000
0000
,
0110
0000
1000
0100
0001
0000
0100
0000
,
0010
0000
0010
0001
0000
0001
0100
0010
1000
0010
0000
0000
,
0100
0001
1000
0100
1000
0001
0010
0001
1000
0010
0000
0000
,
0100
1000
0100
0001
0100
0010
1000
0100
0010
0001
0000
0000
,
0110
0000
0001
0010
1000
0000
0010
0000
,
0100
0000
0100
1000
0000
1000
0001
0000
0001
0100
0000
0100
,
0010
0000
1000
0100
0001
0000
0100
0000
,
0010
0001
1000
0010
0000
0000
0100
0001
1000
0100
0000
0000
,
0110
0000
0000
0000
0010
0000
0001
0000
0000
1001
0000
0000
0000
0000
0000
0000
1000
0000
0100
0000
0000
0000
0011
0000
,
0000
0000
0000
0001
0000
0000
1000
0000
0100
0000
1000
0000
0010
0000
0000
0000
0010
0000
0100
0000
0001
0000
0010
0000
,
0001
0100
0000
1010
0000
0000
1000
0100
0000
0011
0000
0000
,
0001
0010
0000
1100
0000
0000
1000
0010
0000
0101
0000
0000
,
1001
0000
0001
0100
0000
0100
0010
0000
1010
0000
1100
0000
,
2001
0010
0001
3100
,
0110
0000
0100
1000
0000
1000
0001
0000
0011
0000
0101
0000
,
1010
0000
1001
0000
1100
0000
0011
0000
1001
0000
0101
0000
,
1001
0000
0000
0000
1000
0000
0100
0010
0100
0000
1000
0000
0001
0000
0100
0000
,
0010
0000
1000
0000
1000
0000
0100
0000
0001
0000
0100
0000
0010
0001
0010
0000
,
0100
1000
0001
0001
0100
0010
1000
0100
,
0100
0000
0010
0000
0001
0000
1000
0000
0001
0100
0001
0000
0010
0000
0100
0000
,
1000
0010
0010
1000
0001
0100
0010
1000
,
0001
0010
0001
0000
0100
0000
0010
1000
0010
0000
0100
0000
0010
0000
0100
0000
,
0002
0003
2000
3000
,
0220
0330
2002
3003
,
1000
0001
1000
0100
0010
0001
0100
0000
0110
0000
1001
0000
,
0001
0100
0010
1000
0000
1000
0002
0000
0000
0003
0000
0000
,
1000
0000
0100
1000
0000
0100
0010
0000
0100
1000
0000
0000
,
0010
0000
0000
0100
0000
0010
1000
0000
0000
0100
0000
0000
,
0010
0000
0000
0100
0000
1000
0010
0000
0000
0100
0000
0010
,
1000
0110
2002
3003
,
0001
0000
0000
0010
0000
0000
0001
0000
0100
0001
0000
0100
,
0010
0000
0000
0100
0000
0001
0010
0000
0100
0000
0000
0000
,
0010
0000
0001
0100
0000
0001
0100
0000
0000
0101
0000
0000
,
0001
0000
0100
0001
0010
0100
2000
0000
0000
3000
0000
0000
,
1200
0000
0301
0000
,
1100
0110
0011
0000
,
0201
0000
1300
0000
,
0101
0110
1010
0000
,
0101
0000
0001
1000
0000
0000
1100
0000
1000
0001
0000
0000
,
0011
0000
0001
1000
0000
0000
1010
0000
1000
0001
0000
0000
,
1000
0001
0100
0001
1000
0100
1000
0001
0010
0001
1000
0010
,
1000
0100
0010
0001
0100
0010
1000
0100
0010
0001
0100
0010
,
2000
0000
0000
0000
,
3000
0000
0000
0000
,
2002
0000
0000
0000
,
0000
0000
0000
3003
,
1000
0000
0000
0000
0001
0000
0000
0000
0100
0000
0000
0000
0010
0000
0000
0010
0000
0000
0000
0000
0000
2002
0000
0000
,
0000
0000
0000
3003
0000
0000
0000
0000
,
1000
0100
0010
0001
0000
0100
0001
0000
0000
1001
0000
0000
,
0001
0100
0010
1000
0000
0100
1000
0000
0000
1001
0000
0000
,
0001
0000
0001
0100
0000
0100
1000
0000
1000
0100
0000
0100
,
0010
1000
0001
1000
0000
0100
0010
0000
0001
0010
0100
1000
,
0020
0000
0000
0130
0000
0000
0101
0000
1001
0000
0011
0000
,
0020
0000
0000
0130
0000
0000
1100
0000
1001
0000
1010
0000
,
1000
0000
0001
1000
0000
0100
1000
0000
0010
1000
0000
0100
,
1000
0001
0010
0100
0000
0010
0001
1000
0001
0200
0000
0000
,
0301
0010
0100
1000
0100
0010
0001
0100
1000
0100
0000
0000
,
0010
1000
0001
0010
0000
0100
0010
0000
0000
1001
0000
0000
,
1000
0000
1000
0010
0000
0010
0001
0000
0001
0010
0000
0010
,
0100
0001
1000
0100
1000
0001
0010
0001
1000
0010
1000
0001
,
0010
0000
0100
1000
0000
0011
0000
0000
1000
0001
0000
0001
,
0010
0000
0001
0100
0000
1010
0000
0000
0001
1000
0000
0000
,
0220
0000
0000
0330
,
0001
0000
1000
0100
0000
1000
0010
0000
0000
0110
0000
0000
,
0101
1010
1100
0011
,
2002
0000
3003
0000
,
0101
0000
0100
1000
0000
0100
0001
0000
0100
1000
0000
0100
,
0020
0000
0000
0001
0000
0000
1030
0000
0010
1000
0000
0001
,
0010
0000
0010
0100
0000
0100
1000
0000
0001
1000
0000
0001
,
1000
0000
0010
0100
0000
0001
1000
0000
0100
0010
0000
0001
,
1000
0000
0100
0001
0000
0100
1000
0000
0100
0001
0000
0100
,
0020
0000
0000
0031
0100
0010
2000
0000
0000
0000
0000
0000
,
3100
1000
0001
0010
0000
0000
0001
0100
0010
1000
0000
0000
,
1001
0000
0110
0000
0110
0000
2002
0000
0000
3003
0000
0000
,
1000
0000
1000
0100
0000
0100
0010
0000
0010
0001
0000
0001
,
0100
0000
0001
0100
0000
0010
0100
0000
1000
0100
0000
0010
,
0100
0000
0001
1000
0000
0100
0010
0000
0001
1000
0000
0010
,
0200
0300
2002
0000
,
0000
0000
0000
0000
,
0000
0000
3003
0000
;

//--------------- dance-double - forcednature ----------------
#NOTEDATA:;
#STEPSTYPE:dance-double;
#DESCRIPTION:forcednature;
#DIFFICULTY:Easy;
#METER:7;
#RADARVALUES:0,0,0,0,0;
#CREDIT:forcednature;
#NOTES:
00000000
00000000
00000000
00000000
,
00000000
00000000
00000000
00000000
,
00000000
00000000
00000000
00000000
,
00000000
00000000
00000000
00000000
,
00000000
00000000
00000000
00000000
,
00000000
00000000
00000000
00000000
,
00002000
00000000
00003000
00000000
,
00020000
00000000
00030000
00000000
,
00001000
00010000
00001000
00010000
,
00002000
00000000
00003000
00000000
,
01000000
00000000
01000000
00010000
,
10000000
00000000
01000000
00000000
,
00100000
00000000
00100000
00001000
,
00010000
00000000
00000010
00000000
,
00001000
00000000
00001000
00000100
,
00000010
00000000
00000001
00000000
,
00000100
00000000
00000010
00000000
,
00001000
00001000
00001000
00000000
,
00000100
00000000
00001000
00000100
,
00001000
00000000
00000100
00000000
,
00010000
00000000
00001000
00010000
,
00001000
00000000
01000000
00000000
,
00010000
00000000
10000000
00010000
,
10000000
00000000
01000000
00000000
,
00100000
00000000
01100000
00000000
,
20020000
00000000
30030000
00000000
,
10000000
00000000
01000000
10000000
,
01000000
00000000
00100000
00000000
,
00001000
00000000
00010000
00001000
,
00010000
00000000
00000010
00000000
,
00001000
00000000
00000000
00001000
00000000
00000000
00000001
00000000
,
00000000
00000001
00000000
00000000
00001000
00000000
00000000
00000000
,
00000100
00000000
00000010
00000000
,
00000110
00000000
00001001
00000000
,
00001000
00000000
00001000
00000100
,
00001000
00000000
00000100
00000000
,
00010000
00000000
00010000
00001000
,
00010000
00000000
00001000
00000000
,
01000000
00000000
01000000
00010000
,
10000000
00000000
01000000
00000000
,
01000000
00100000
00010000
00000000
,
00010000
01000000
00001000
00000000
,
00010000
00000000
00000000
00010000
00000000
00000000
00000100
00000000
,
00000000
00001000
00000000
00000000
00000001
00000000
00000100
00000000
,
00000001
00000000
00000000
00000000
,
00001000
00000000
00000000
00000000
,
00001001
00000000
00001000
00000100
,
00001000
00000000
00000010
00000000
,
00010000
00000000
00010000
00000000
,
00010000
00001000
00010000
00000000
,
00001000
01000000
00010000
00000000
,
00010000
00000000
10000000
00000000
,
10000000
01000000
00100000
00000000
,
00100000
00000000
00001000
00000000
,
00010000
00000010
00001000
00000000
,
00000100
00000000
00000010
00000000
,
00001001
00000000
00000000
00000000
,
00001000
00000000
00000100
00000000
,
00011000
00000000
00000000
00000000
,
01000000
00000000
00010000
00000000
,
10000000
00000000
01000000
00000000
,
00100000
00000000
00010000
00000000
,
00001000
00000000
00000100
00000000
,
00000010
00000000
00000001
00000000
,
00000200
00000000
00000000
00000000
,
00000300
00000000
00000000
00000000
,
00002002
00000000
00000000
00000000
,
00000000
00000000
00000000
00000000
,
00003003
00000000
00000000
00000000
,
00000000
00000000
00000000
00000000
,
00000110
00000000
00000000
00000000
,
00001001
00000000
00000000
00000000
,
00001000
00000000
00000100
00000000
,
00010000
00000000
00001000
00000000
,
01000000
00000000
00000000
00000000
,
00010000
00000000
10000000
00000000
,
01000000
00000000
00100000
00000000
,
00010000
00000000
01000000
00000000
,
01100000
00000000
00000000
00000000
,
10010000
00000000
00000000
00000000
,
10000000
00000000
01000000
00000000
,
00100000
00000000
00010000
00000000
,
01000000
00000000
00000000
00000000
,
00001000
00000000
00010000
00000000
,
00000100
00000000
00000100
00000000
,
00001000
00000000
00000001
00000000
,
00001000
00000001
00001000
00000001
,
00000200
00000000
00000300
00000000
,
00000010
00000000
00000010
00000000
,
00001000
00000000
00000100
00000000
,
00010000
00000000
00001000
00000000
,
01000000
00000000
00010000
00000000
,
00100000
00000000
00100000
00000000
,
01000000
00000000
10000000
00000000
,
00010000
00000000
01000000
00000000
,
00001000
00000000
00001000
00000000
,
00020000
00000000
00000000
00030000
,
00000200
00000000
00000000
00000300
,
00002000
00000000
00000000
00003000
,
00000001
00000000
00002002
00000000
,
00000000
00000000
00000000
00000000
,
00000000
00000000
00003003
00000000
;

//--------------- dance-double - forcednature ----------------
#NOTEDATA:;
#STEPSTYPE:dance-double;
#DESCRIPTION:forcednature;
#DIFFICULTY:Medium;
#METER:11;
#RADARVALUES:0,0,0,0,0;
#CREDIT:forcednature;
#NOTES:
00000000
00000000
00000000
00000000
,
00000000
00000000
00000000
00000000
,
00000000
00000000
00000000
00000000
,
00000000
00000000
00000000
00000000
,
00000000
00000000
00000000
00000000
,
00000000
00000000
00000000
00000000
,
00020200
00000000
00030300
00000000
,
02002000
00000000
03003000
00000000
,
00011000
00011000
00011000
00011000
,
00000020
00000000
00000030
00000100
,
00000002
00002003
00003200
00020300
,
00032000
00000000
02003000
03020000
,
00230000
00000000
02300000
00000000
,
23000000
30200000
02300000
03000000
,
00020000
00230000
00302000
00023000
,
00030020
00002030
00003200
00000000
,
00000310
00000011
00000100
00001100
,
00010000
00000000
00001000
00000000
00010000
00000000
00002000
00000000
00000000
00003000
00000000
00000000
,
01010000
00010000
01000000
00100000
,
10000000
01000000
00100000
00010000
,
00100000
00001000
00010000
00000010
,
00000200
00000300
00000020
00000030
,
00001001
00000001
00000100
00000010
,
00001000
00010000
01000000
00100000
,
20000000
30000000
00020000
00030000
,
10000000
01000000
00010000
00001000
,
00000100
00000001
00000010
00000100
,
00000010
00000001
00000100
00001000
,
00010000
00100000
10000000
00010000
,
00200000
00300000
02000000
03000000
,
00100000
00000000
00000000
00011000
00000000
00000000
00000010
00000000
,
00000000
00011000
00000000
00000000
00010000
00000000
00001000
00000000
,
01000000
01010000
00001000
00011000
,
00000100
00001100
00010000
00011000
,
00200000
00000000
00000000
00300000
00000000
00000000
01000000
00000000
10000000
00000000
00010000
00000000
,
02000000
10000000
00100000
03010000
,
00022000
00000000
00000000
00033000
00000000
00000000
00000100
00000000
00001000
00000000
00000010
00000000
,
00000100
00000000
00000010
00000000
00001000
00000000
00000100
00000000
00000010
00000000
00000001
00000000
,
00000010
00000100
00001000
00000001
,
00000100
00000010
00000100
00000000
00001000
00000000
00010000
00000000
,
00001000
00000000
00100000
00010000
00100000
00000000
01000000
10000000
,
01000000
00010000
00001000
00000100
,
00000001
00001000
00000001
00001000
00000000
00000100
00000010
00000000
,
00000001
00001000
00000000
00000010
00000100
00000000
00001000
00000000
,
00020000
00000000
00230000
00000000
,
20300000
00000000
32000000
00000000
,
03010000
00000000
00000000
00010000
00000000
00000000
00001000
00000000
00000010
00000000
00000010
00000000
,
00000100
00001000
00002002
00003003
,
00000101
00000100
00001000
00001000
,
00010000
00100000
10000000
00010000
,
10000000
10000000
01000000
00010000
,
00001000
00000010
00000200
00000300
,
00001000
00000001
00000100
00001000
,
00010000
00000000
00000000
00100000
00000000
00000000
10000000
00000000
10000000
00000000
00000000
00000000
,
00010000
00100000
01000000
00010000
,
00001000
00000000
00001000
00010000
00000000
00010000
00002000
00000000
00000000
00003000
00000000
00000000
,
02000000
00000000
03010000
00000000
,
00100000
00001000
00011000
00000000
,
00000200
00000000
00001300
00000000
,
00000010
00010000
00011000
00000000
,
01000000
00001000
00010000
00000100
,
00010000
00001000
00100000
00001000
,
00010000
00010000
00000010
00000010
,
00001000
00000001
00000010
00000100
,
00020200
00000000
00000000
00000000
,
00030300
00000000
00000000
00000000
,
02002000
00000000
00000000
00000000
,
00000000
00000000
00000000
03003000
,
00100000
00000000
00000000
00000000
00100000
00000000
00000000
00000000
00100000
00000000
00000000
00000000
00100000
00000000
00000000
00000000
00000000
00000000
00000000
00000000
00000000
20020000
00000000
00000000
,
00000000
00000000
00000000
30030000
00000000
00000000
00000000
00000000
,
00002000
00000000
01003000
00010000
01000000
00000000
00011000
00000000
,
00020000
00000000
00030100
00001000
00000100
00000000
00011000
00000000
,
00020000
00032000
00003020
00000230
,
00001300
00000000
00000000
00000001
00000000
00000100
00000001
00000000
00000100
00000001
00000000
00000000
,
00000010
00000000
00000000
00000110
00000000
00000000
00000100
00000000
00010000
00000000
00001000
00000000
,
01000000
00000000
00000000
01100000
00000000
00000000
01000000
00000000
00001000
00000000
00010000
00000000
,
00000200
00001000
00000010
00000301
,
00000100
00001100
00010000
00011000
,
00200000
00000000
00000000
01000000
01300000
00000000
10010000
00000000
,
00020000
00000000
01030000
00001000
00010000
00000000
00011000
00000000
,
00000200
00002300
00003020
00000230
,
00002300
00100000
00023000
00000010
,
00031000
00000000
00000000
00000000
00000000
01001000
00000000
00000000
00000000
00101000
00000000
00000000
,
00010000
00000000
00000000
00000000
00000000
00010100
00000000
00000000
00000000
00010010
00000000
00000000
,
00022000
00000000
00000000
00033000
,
01000000
01000000
01000000
00010000
,
00110000
00011000
00001010
00011000
,
00000200
00000000
00000300
00000000
,
00002000
00003002
00000203
00002300
,
00023000
00100000
00230000
20300000
,
30020000
10000000
20030000
01000000
,
32000000
03020000
00032000
00003000
,
00000020
00000230
00002300
00003002
,
00000203
00002300
00023000
00000000
,
00130000
01100000
01000000
10010000
,
00001000
00000000
00001000
00000000
00010000
00000000
00020000
00000000
00000000
00000000
00000000
00000000
,
00030100
00001000
00000010
00010000
,
00001000
00100000
00010000
01000000
,
00002000
00023000
00230000
02300000
,
03020000
00030000
20200000
00000000
,
00000000
00000000
00000000
00000000
,
00000000
00000000
30300000
00000000
;

//--------------- dance-double - forcednature ----------------
#NOTEDATA:;
#STEPSTYPE:dance-double;
#DESCRIPTION:forcednature;
#DIFFICULTY:Hard;
#METER:15;
#RADARVALUES:0,0,0,0,0;
#CREDIT:forcednature;
#NOTES:
00000000
00000000
00000000
00000000
,
00000000
00000000
00000000
00000000
,
00000000
00000000
00000000
00000000
,
00000000
00000000
00000000
00000000
,
00000000
00000000
00000000
00000000
,
00000000
00000000
00000000
00000000
,
00011000
00000000
00000010
00000000
,
00011000
00000000
00100000
00000000
,
00011000
00010100
00011000
01001000
,
00200000
00000000
00300000
10000000
,
01000000
00000000
00100000
01000000
00000000
00100000
01000000
00000000
00100000
01000000
00000000
00100000
,
00020000
00000000
02030000
03002000
,
00023000
00000100
00032000
01000000
,
00013000
00000000
00000000
00001000
00000000
00000010
00000200
00000000
00000000
00000001
00000000
00000000
,
00001300
00000000
00000001
00001000
00000000
00000001
00001000
00000000
00000001
00001000
00000000
00000001
,
00000200
00000000
00000000
00001300
00010000
00001000
00020000
00000000
00000000
00000000
00000000
00000000
,
00130000
10000000
00100000
10000000
00000000
00000000
00010000
00100000
00010000
00100000
00000000
00000000
,
00001000
00000000
00010000
00000000
00001000
00000000
00022000
00000000
00000000
00033000
00000000
00000000
,
00010000
00000000
00000100
00001000
00000010
00000000
00000100
00000000
,
00000001
00000011
00001000
00001100
,
00000010
00000000
00010000
00001000
00100000
00000000
01000000
00000000
,
22000000
33000000
00220000
00330000
,
00010000
00000000
01000000
00001000
00010000
00000000
00000100
00000000
,
00001000
00001010
00000001
00000101
,
00001000
00000100
00010000
00001000
00000000
00000000
00001000
01000000
00010000
01000000
00000000
00000000
,
00100000
10000000
00100000
10000000
00000000
10000000
01000000
00000000
01000000
00010000
00000000
00000000
,
00001000
00000000
00010000
00000100
00001000
00000000
00000010
00000000
,
00000100
00001001
00000010
00001001
,
00000001
00000000
00000100
00001000
00010000
00000000
00100000
00000000
,
10000000
00010000
10000000
01000000
00000000
00000000
00100000
00010000
00100000
00001000
00000000
00000000
,
00011000
00000000
00000000
00010100
00000000
00000000
01001000
00000000
,
00000000
00010010
00000000
00000000
00101000
00000000
00011000
00000000
,
00010200
00010300
02001000
03001000
,
00010020
00010030
00201000
00301000
,
00022000
00000000
00000000
00033000
00000000
00000000
00001000
00000000
01000000
00000000
00010000
00000000
,
00200000
01000000
10000000
01300000
,
00020000
00000000
00000000
00030000
00000000
00000000
10010000
00000000
10000000
00000000
01000000
00000000
,
00010000
00000000
00001000
00000000
00000100
00000000
00000001
00000000
00000010
00000000
00000100
00000000
,
00001001
00000000
00000001
00000100
00001000
00000000
00010000
01000000
,
10000000
00010000
00010000
01000000
00100000
10000000
01000000
00100000
,
00010000
00001000
00000100
00000100
00000010
00000001
00001000
00000010
,
00000010
00000100
00001000
00010000
00001000
00100000
00001000
00010000
,
00100000
10000000
10000000
01000000
00010000
00001000
00010000
00000100
,
00001000
00000010
00001000
00000100
00000010
00000001
00000010
00001000
,
00020000
00000000
00230000
00000000
,
20300000
00000000
32000000
00000000
,
03100000
00010000
00100000
00010000
00100000
00010000
01000000
00000000
00001000
00000000
00010000
00000000
,
00000200
00000010
00002000
00003300
,
00000010
00000010
00000100
00000100
,
00000110
00000000
00000000
00000001
00000000
00000001
00001000
00000000
00000000
00000010
00000000
00000000
,
00000100
00000000
00000000
00001000
00000000
00001000
00010000
00000000
00000000
00010000
00000000
00010000
,
00001000
01001000
10010000
00000000
,
10000000
00000000
00000000
01000000
00000000
00000000
00010000
00000000
00010000
00000000
00000000
00001000
,
00010000
00000000
00000000
00000100
00000000
00001000
00000100
00000000
00000010
00000000
00000000
00000000
,
00000001
00000000
00000001
00000100
00000000
00001000
00010000
00000000
00000000
00100000
00000000
00000000
,
10000000
00000000
00010000
00100000
01000000
10000000
00010000
00000000
00000000
00000000
00000000
00000000
,
01002000
00000000
00003010
00000000
,
00000100
00001000
00000010
00000000
,
00020100
00000000
00130000
00000000
,
01000000
00010000
00100000
00000000
,
01000000
00011000
00000100
00011000
,
00100000
00011000
00000010
00011000
,
00010000
00000000
00010000
00000100
00000000
00000100
00001000
00000000
00001000
00000001
00000000
00000001
,
00000100
00000000
00000100
00000010
00000000
00000010
00010000
00000000
00010000
00001000
00000000
00001000
,
00200000
00000000
00000000
00000000
,
00300000
00000000
00000000
00000000
,
20020000
00000000
00000000
00000000
,
00000000
00000000
00000000
30030000
,
10000000
00000000
00000000
00000000
01000000
00000000
00000000
00000000
00010000
00000000
00000000
00000000
00001000
00000000
00000000
00001000
00000000
00000000
00000000
00000000
00000000
00022000
00000000
00000000
,
00000000
00000000
00000000
00033000
00000000
00000000
00000000
00000000
,
00010100
00000000
00000100
00001000
00000010
00000000
00011000
00000000
,
01001000
00000000
01000000
00010000
00100000
00000000
00011000
00000000
,
00000100
00000000
00000100
00001000
00000000
00001000
00000010
00000000
00000010
00010000
00000000
00010000
,
00001000
00000000
00000000
00100000
00000000
00010000
00100000
00000000
00010000
10000000
00000000
00000000
,
00100000
00000000
00000000
10010000
00000000
00000000
01000000
00000000
00100000
00000000
01100000
00000000
,
01000000
00000000
00000000
00011000
00000000
00000000
00000100
00000000
00000010
00000000
00000110
00000000
,
00000002
00000203
00002300
00023000
,
00130000
10000000
00100000
10000000
00000000
10000000
01000000
00000000
01000000
00020000
00000000
00000000
,
00031000
00010000
00001000
00010000
00000100
00001000
00000100
00001000
00000001
00000100
00000000
00000000
,
00010010
00000000
00000100
00001000
00000010
00000000
00011000
00000000
,
01000000
00000000
00010000
01000000
00000000
00100000
01000000
00000000
10000000
01000000
00000000
00100000
,
01000000
00000000
00010000
00100000
00000000
00001000
00010000
00000000
00000010
00001000
00000000
00000100
,
00000010
00000000
00000000
00000100
00000000
00000110
00000000
00000000
00001000
00010000
00000000
00000000
,
00100000
00000000
00000000
01000000
00000000
01100000
00000000
00000000
00010000
00001000
00000000
00000000
,
00022000
00000000
00000000
00033000
,
00001000
00000000
01000000
00001000
00000000
01000000
00010000
00000000
00000000
00100000
00000000
00000000
,
01000000
00010000
00000100
00010000
,
00002000
00000000
00003000
00000000
,
00000100
00000000
00000001
00000100
00000000
00000001
00000100
00000000
00000001
00000100
00000000
00000010
,
00002000
00000000
00023000
02030000
,
03200000
10000000
02300000
00010000
,
03100000
00000000
00000000
10000000
00000000
10000000
01000000
00000000
00000000
00010000
00000000
00001000
,
00010000
00000000
00000100
00010000
00000000
00000100
00010000
00000000
00000100
00010000
00000000
00001000
,
00000200
00000000
00000000
00000301
00000100
00000001
00000020
00000000
00000000
00000000
00000000
00000000
,
00000130
00010000
00001000
00100000
00000000
00000000
00001000
00010000
00001000
01000000
00000000
00000000
,
00100000
00000000
10000000
00000000
01000000
00000000
00020000
00000000
00000000
00030000
00000000
00000000
,
00001000
00000010
00000001
00000100
,
00001000
00010000
00100000
10000000
,
02000000
03020000
00032000
00003020
,
00000230
00000300
00002002
00000000
,
00000000
00000000
00000000
00000000
,
00000000
00000000
00003003
00000000
;

//--------------- dance-double - forcednature ----------------
#NOTEDATA:;
#STEPSTYPE:dance-double;
#DESCRIPTION:forcednature;
#DIFFICULTY:Challenge;
#METER:16;
#RADARVALUES:0,0,0,0,0;
#CREDIT:forcednature;
#NOTES:
00000000
00000000
00000000
00000000
,
00000000
00000000
00000000
00000000
,
00000000
00000000
00000000
00000000
,
00000000
00000000
00000000
00000000
,
00000000
00000000
00000000
00000000
,
00000000
00000000
00000000
00000000
,
00011000
00000000
00100000
00000000
,
00011000
00000000
00000010
00000000
,
00011000
01001000
00011000
00010100
,
00000100
00001000
00000100
00000010
00000001
00001000
00000001
00000000
00000000
00000200
00000000
00000000
,
00001300
00000000
00010000
00001000
00000000
00010000
00001000
00000000
00010000
00001000
00000000
00010000
,
00200000
00000000
00000000
00000000
00000000
00000000
10300000
00000000
01000000
10000000
00000000
00100000
,
01000000
00000000
01000000
00001000
00000000
00000000
00010000
00000000
00010000
00000100
00000000
00000000
,
00000110
00000000
00001000
00000001
00000000
00000100
00000010
00000000
00001000
00000010
00000000
00000000
,
00011000
00000000
00001000
00010000
00000000
00001000
00010000
00000000
00001000
00010000
00000000
00001000
,
00200000
00000000
00000000
01300000
10000000
00010000
00200000
00000000
00000000
00000000
00000000
00000000
,
00301000
00010000
00001000
00100000
00000000
00000000
00001000
00010000
00001000
00000010
00000000
00000000
,
00000011
00000000
00001100
00000000
00001010
00000000
00000202
00000000
00000000
00000303
00000000
00000000
,
00000110
00000000
00000001
00000100
00001000
00000000
00010000
00000000
,
00100000
00000000
00100000
10000000
00000000
10000000
00010000
00000000
00010000
10000000
00000000
10000000
,
01000000
00000000
00010000
00001000
00000010
00000000
00000001
00000000
,
00002100
00000000
00000000
00003010
00000000
00000000
00001000
00000100
00010000
00001000
00000000
00000000
,
00011000
00000000
00010000
00100000
10000000
00000000
01000000
00000000
,
00010000
00000000
00010000
00001000
00000000
00001000
00000010
00000100
00001000
00000100
00000000
00000000
,
00000010
00000001
00001000
00000001
00000100
00000010
00001000
00000010
00010000
00001000
00000000
00000000
,
00100000
00010000
00100000
01000000
10000000
00010000
10000000
00100000
01000000
00020000
00000000
00000000
,
00130000
00000000
01000000
00010000
00001000
00000000
00000010
00000000
,
00000100
00000000
00000100
00001000
00000000
00001000
00000001
00000000
00000100
00001000
00000000
00001000
,
00010000
00000000
00100000
10000000
01000000
00000000
00010000
00000000
,
00001000
00010000
00100000
00010000
00000000
00000000
00001000
00010000
00000100
00010000
00000000
00000000
,
00011000
00000000
00000000
00000000
00001000
00000000
01000000
00000000
00000000
01010000
00000000
00000000
00000000
00000000
00000000
00000000
00100000
00000000
00100000
00000000
00000000
00000000
10010000
00000000
,
00000000
00000000
00000000
10000000
00000000
00000000
01000000
00000000
00010000
00000000
00001000
00000000
00010000
00000000
00000000
00000000
00001000
00000000
00010000
00000000
00001000
00000000
00000100
00000000
,
00000010
00011000
01000000
00011000
,
00000100
00011000
00100000
00011000
,
00000110
00000000
00000000
00000001
00000000
00000001
00000100
00000000
00001000
00000000
01000000
00000000
,
00200000
00010000
01000000
10300000
,
01100000
00000000
00000000
10000000
00000000
01000000
00010000
00000000
00000100
00000000
00001000
00000000
,
00000010
00000000
00010000
00000000
00100000
00000000
01000000
00000000
00001000
00000000
00010000
00000000
,
00011000
00000000
00000000
00000000
00000100
00000000
00001000
00000001
00001000
00000000
00000010
00000000
00001000
00000000
00010000
00000000
,
01000000
00000000
00100000
00000000
00100000
00000000
10000000
00000000
01000000
00000000
00100000
00000000
00010000
10000000
00010000
00000000
,
01000000
00001000
00010000
00010000
00000100
00001000
00000010
00000100
,
00000100
00000000
00001000
00000000
00010000
00000000
00000100
00000000
00001000
00000001
00001000
00000000
00000010
00000000
00010000
00000000
,
00001000
00100000
00100000
01000000
00010000
00001000
01000000
00100000
,
10000000
00010000
10000000
00000000
01000000
00000000
00010000
00001000
00010000
00000000
00000100
00000000
00000010
00000000
00000100
00000000
,
00002000
00003000
00000020
00000030
,
00020000
00030000
00200000
00300000
,
10000000
01000000
00100000
00010000
00100000
00001000
00010000
00000000
00010100
00000000
01001000
00000000
,
00001000
00010000
00001000
01000000
00000000
01000000
00200000
00000000
00000000
00300000
00000000
00000000
,
10000000
00000000
01000000
10000000
00000000
01000000
00100000
00000000
00010000
10000000
00000000
00000000
,
00100000
00000000
00000000
01000000
00000000
00010000
10000000
00000000
00000000
01000000
00000000
00000000
,
00010000
00000000
00000000
01000000
00000000
00100000
00010000
00000000
00000000
10000000
00000000
00100000
,
01000000
00000000
01000000
00010000
10000000
01000000
00200000
00000000
00000000
00300000
00000000
00000000
,
00001000
00000000
00000000
00000010
00000000
00000000
00000001
00000000
00000100
00000001
00000000
00000100
,
00001000
00000000
00000000
00000100
00000000
00000010
00001000
00000000
00001001
00000000
00000000
00000000
,
00000001
00000000
00000010
00000001
00000000
00000010
00000100
00000000
00000000
00000110
00000000
00000000
,
00001000
00000000
00000100
00000001
00000100
00001000
00000020
00000000
00000000
00000030
00000000
00000000
,
00021000
00000000
00130000
00000000
,
00010100
00011000
00101000
00000000
,
00012000
00000000
00003010
00000000
,
01001000
00011000
00010010
00000000
,
00010100
00000010
01001000
00100000
,
00010100
00000010
01001000
00100000
,
00001000
00010000
00000100
00010000
00001000
01000000
00001000
00010000
00000010
00010000
00001000
00100000
,
00010000
01000000
00001000
00010000
00000100
00001000
00000010
00010000
00001000
00100000
00001000
00010000
,
00000200
00000000
00000000
00000000
,
00000300
00000000
00000000
00000000
,
00002002
00000000
00000000
00000000
,
00000000
00000000
00000000
00003003
,
00000001
00000000
00000000
00000000
00000100
00000000
00000000
00000000
00001000
00000000
00000000
00000000
00010000
00000000
00000000
00100000
00000000
00000000
00000000
00000000
00000000
20020000
00000000
00000000
,
00000000
00000000
00000000
30030000
00000000
00000000
00000000
00000000
,
10000000
00000000
01000000
00010000
00000000
00010000
00001000
00000000
00000000
00000110
00000000
00000000
,
00000001
00000000
00000100
00001000
00000000
00001000
00010000
00000000
00000000
01100000
00000000
00000000
,
10000000
00000000
01000000
00100000
00000000
00010000
00100000
00000000
00001000
00010000
00000000
00000010
,
00001000
00000100
00000010
00000001
00000000
00000001
00000100
00000000
00000100
00001000
00010000
00001000
,
00200000
00000000
00000000
01300000
00000000
00000000
01100000
00000000
00101000
00000000
00011000
00000000
,
00000020
00000000
00000000
00000130
00000000
00000000
00000110
00000000
00010010
00000000
00011000
00000000
,
00001000
00000000
00001000
00010000
00000000
00010000
00001000
00000000
00001000
00010000
00000000
00010000
,
00000100
00001000
00000100
00000010
00000000
00000010
00000001
00001000
00000001
00000200
00000000
00000000
,
00001300
00010000
00100000
01000000
00010000
00100000
01000000
10000000
00100000
01000000
00000000
00000000
,
00010000
00000000
00010000
00100000
00000000
00100000
00001000
00000000
00000000
00000110
00000000
00000000
,
00000001
00000000
00000100
00000010
00000000
00001000
00000010
00000000
00010000
00001000
00000000
00100000
,
00010000
01000000
00100000
10000000
00000000
10000000
01000000
00000000
01000000
00010000
00001000
00010000
,
00000020
00000000
00000100
00000130
00000000
00001001
00000000
00000000
00010000
00001000
00000000
00000000
,
00200000
00000000
01000000
01300000
00000000
10010000
00000000
00000000
00001000
00010000
00000000
00000000
,
00022000
00000000
00000000
00033000
,
00000100
00000000
00001000
00000100
00000000
00000010
00000001
00000000
00000000
00000100
00000000
00000000
,
00002000
02003000
03020000
00230000
,
02300000
00000000
03000000
00000000
,
00010000
00000000
00001000
00010000
00000000
00001000
00010000
00000000
00001000
00010000
00000000
00001000
,
00000020
00000000
00000000
00000000
00000000
00000000
00000031
00000000
00000100
00000001
00000000
00000100
,
00001000
00000000
00001000
00010000
00000000
00010000
00100000
00000000
00100000
10000000
00000000
10000000
,
01000000
00000000
00010000
00001000
00000000
00010000
00000010
00000000
00010000
00001000
00000000
00000000
,
00011000
00000000
00010000
00001000
00000000
00010000
00001000
00000000
00010000
00001000
00000000
00010000
,
00200000
00000000
00000000
10300000
00010000
00100000
02000000
00000000
00000000
00000000
00000000
00000000
,
03010000
00001000
00000010
00001000
00000000
00000000
00001000
00010000
00100000
00010000
00000000
00000000
,
00010100
00000000
01001000
00000000
00010010
00000000
00202000
00000000
00000000
00303000
00000000
00000000
,
00001000
00000000
00001000
00010000
00000000
00010000
00100000
00000000
00100000
10000000
00000000
10000000
,
01000000
00000000
00010000
00001000
00000000
00010000
00000010
00000000
00010000
00001000
00000000
00010000
,
00100000
00000000
10000000
10000000
00000000
01000000
01000000
00000000
00010000
00010000
00000000
00001000
,
00002000
00003000
00000220
00000000
,
00000000
00000000
00000000
00000000
,
00000000
00000000
00000330
00000000
;
