#VERSION:0.83;
#TITLE:麗 ~うらら~;
#SUBTITLE:;
#ARTIST:SOUND HOLIC feat. Nana Takahashi;
#TITLETRANSLIT:Urara;
#SUBTITLETRANSLIT:;
#ARTISTTRANSLIT:;
#GENRE:WINTER GLOW;
#CREDIT:;
#MUSIC:Urara.ogg;
#BANNER:Urara.png;
#BACKGROUND:Urara-bg.png;
#CDTITLE:./CDTitles/bm IIDX 23 copula.png;
#SAMPLESTART:52.993;
#SAMPLELENGTH:15.000;
#SELECTABLE:YES;
#OFFSET:0.797;
#BPMS:0.000=155.000;
#STOPS:202.000=0.387;
#TIMESIGNATURES:0.000=4=4,
200.000=3=4,
203.000=4=4
;
#BGCHANGES:0.000=Urara.mp4=1.000=0=0=0=StretchNoLoop====,
99999.000=-nosongbg-=1.000=0=0=0=StretchNoLoop====
;
#FGCHANGES:;

//--------------- dance-single - forcednature ----------------
#NOTEDATA:;
#STEPSTYPE:dance-single;
#DESCRIPTION:forcednature;
#CREDIT:forcednature;
#DIFFICULTY:Beginner;
#METER:1;
#RADARVALUES:0,0,0,0,0;
#NOTES:
0000
0000
0000
0000
,
0000
0000
0000
0000
,
0000
0000
0000
0000
,
0001
0000
0000
0000
,
0000
0000
0000
0000
,
0000
0000
0000
0000
,
0000
0000
0000
0000
,
1000
0000
0000
0000
,
0000
0000
0000
0000
,
0000
0000
0000
0000
,
0000
0000
0000
0000
,
0010
0000
0000
0000
,
0000
0000
0000
0000
,
0000
0000
0000
0000
,
0000
0000
0000
0000
,
0000
0000
0000
0000
,
0000
0000
0000
0000
,
0000
0000
0000
0000
,
0000
0000
0000
0000
,
0100
0000
0000
0000
,
0000
0000
0000
0000
,
0000
0000
0000
0000
,
0000
0000
0000
0000
,
0001
0000
0000
0000
,
0000
0000
0000
0000
,
0000
0000
0000
0000
,
0000
0000
0000
0000
,
1000
0000
0000
0000
,
0000
0000
0000
0000
,
0000
0000
0000
0000
,
0000
0000
0000
0000
,
0010
0000
0000
0000
,
0000
0000
0000
0000
,
0000
0000
0000
0000
,
0000
0000
0000
0000
,
1000
0000
0000
0000
,
0000
0000
0000
0000
,
0100
0000
0000
0000
,
0000
0000
0000
0000
,
0010
0000
0000
0000
,
0000
0000
0000
0000
,
0001
0000
0000
0000
,
0000
0000
0000
0000
,
0100
0000
0000
0000
,
0000
0000
0000
0000
,
0000
0000
0000
0000
,
0000
0000
0000
0000
,
0010
0000
0000
0000
,
0000
0000
0000
0000
,
1000
0000
0000
0000
,
0001
0000
0000
0000
,
0000
0000
0000
0000
,
0000
0000
0000
0000
,
0000
0000
0000
0000
,
0000
0000
0000
0010
,
0000
0000
0000
0000
,
0000
0000
0000
0100
,
0000
0000
0000
0000
,
0000
0000
0000
1000
,
0000
0000
0000
0000
,
0000
0000
0000
0001
,
0000
0000
0000
0000
,
0000
0000
0000
0100
,
0000
0000
0000
0000
,
0000
0000
0000
0010
,
0000
0000
0000
0000
,
0000
0000
0000
1000
,
0000
0000
0000
0000
,
0000
0000
0000
0000
,
0000
0000
0000
0000
,
0000
0000
0000
0100
,
0000
0000
0000
0000
,
0000
0000
0000
0000
,
0000
0000
0000
0010
;

//--------------- dance-single - forcednature ----------------
#NOTEDATA:;
#STEPSTYPE:dance-single;
#DESCRIPTION:forcednature;
#CREDIT:forcednature;
#DIFFICULTY:Easy;
#METER:3;
#RADARVALUES:0,0,0,0,0;
#NOTES:
0000
0000
0000
0000
,
0000
0000
0000
0000
,
0000
0000
0000
0000
,
0001
0000
0000
0000
,
0100
0000
0100
0000
,
0001
0000
0000
0000
,
1000
0000
0000
0000
,
0010
0000
0000
0000
,
1000
0000
1000
0000
,
0100
0000
0000
0000
,
0010
0000
0010
0000
,
0001
0000
0000
0000
,
0000
0000
0000
0000
,
0100
0000
0000
0000
,
0000
0000
0000
0000
,
0010
0000
0000
0000
,
0000
0000
0000
0000
,
1000
0000
0000
0000
,
0001
0000
0000
0000
,
0010
0000
0000
0000
,
0010
0000
0000
0000
,
0100
0000
0000
0000
,
1000
0000
0000
0000
,
0001
0000
0000
0000
,
0100
0000
0000
0000
,
0010
0000
0010
0000
,
0010
0000
0000
0000
,
1001
0000
0000
0000
,
0110
0000
0000
0000
,
0001
0000
0001
0000
,
0001
0000
0000
0000
,
1001
0000
0000
0000
,
0110
0000
0000
0000
,
1000
0000
1000
0000
,
1000
0000
0000
0000
,
0010
0000
0100
0000
,
0010
0000
0000
0000
,
1000
0000
1000
0000
,
0001
0000
0000
0000
,
0010
0000
0100
0000
,
0010
0000
0000
0000
,
0001
0000
0001
0000
,
1000
0000
0000
0000
,
1001
0000
0000
0000
,
0001
0000
0000
0000
,
0100
0000
0100
0000
,
0010
0000
0000
0000
,
1000
0000
1000
0000
,
0100
0000
0100
0000
,
0010
0000
0010
0000
,
0001
0000
0001
0000
,
0000
0000
0000
0200
,
0000
0000
0000
0300
,
0000
0000
0000
0020
,
0000
0000
0000
1030
,
0000
0000
0000
0001
,
0000
0000
0000
0010
,
0000
0100
0000
0010
,
0000
0000
0000
0110
,
0000
0000
0000
1001
,
0000
0000
0000
1000
,
0000
1000
0000
0001
,
0000
0001
0000
0100
,
0000
0000
0000
0010
,
0000
0000
0000
1000
,
0000
1000
0000
0001
,
0000
0001
0000
0020
,
0000
0000
0000
0030
,
0000
0000
0000
0200
,
0000
0000
0000
0300
,
0000
0000
0000
2000
,
0000
0000
0000
3000
,
0000
0000
0000
0002
,
0000
0000
0000
0203
,
0000
0000
0000
0320
,
0000
0000
0000
0000
0000
0000
0000
0030
;

//--------------- dance-single - forcednature ----------------
#NOTEDATA:;
#STEPSTYPE:dance-single;
#DESCRIPTION:forcednature;
#CREDIT:forcednature;
#DIFFICULTY:Medium;
#METER:9;
#RADARVALUES:0,0,0,0,0;
#NOTES:
0000
0000
0000
0000
,
0000
0000
0000
0000
,
0000
0000
0000
0000
,
0001
0000
0010
0001
0000
0010
0100
0000
,
2000
3020
0130
1001
,
1000
0000
0100
0010
0000
0100
2000
0000
,
3001
0000
0100
0010
0000
0100
0002
0000
,
0013
0000
0100
1000
0000
0001
0100
0000
,
0020
2030
3100
1001
,
0001
0000
0010
0001
0010
0000
0100
1000
,
0100
0000
1000
0000
0010
0010
0010
0000
,
0100
0100
0001
1000
,
0001
0000
0002
0000
0000
0003
0010
0000
,
0100
1000
0001
0100
,
0010
0000
0020
0000
0000
0000
0000
0030
,
1000
0100
1000
0010
,
0100
0000
0200
0000
0000
0300
0001
0000
,
0020
0030
0100
1000
,
0002
0000
0003
0110
,
1001
1000
0100
0010
,
1001
0000
0001
0000
0100
0010
0100
0000
,
0010
0000
1000
0100
0000
1000
0001
0000
,
0010
0000
0001
0000
1000
0001
1000
0000
,
0010
0000
0100
0010
1000
0000
0100
0000
,
0010
0000
0100
0010
0001
0000
0100
0000
,
0010
1000
0001
0000
0010
0000
0010
0100
,
0000
0100
1000
0020
0000
0000
0030
0000
,
0100
1001
0010
1001
,
0110
0000
0001
1000
0002
0000
0000
0003
,
1000
1100
0001
0101
,
2000
3020
0230
0302
,
0013
1001
0100
1001
,
0110
0000
1000
0001
1000
0000
0010
0100
,
0001
0010
0001
0100
,
0010
1000
0010
0000
1001
0000
0001
0010
,
0200
0000
1300
0010
0200
0000
0301
1000
,
0020
0000
1030
0001
0020
0000
0030
0000
,
0200
0000
1300
0001
0100
0000
0010
0000
,
2000
3200
0320
0032
,
2003
0000
3010
0100
0002
0000
0013
0100
,
2000
0000
3100
0010
0002
0000
0103
0000
,
1001
0000
0001
0100
0001
0000
1000
0000
,
0010
0010
0100
0001
0010
0000
0110
0000
,
2000
3020
0230
2300
,
3002
0023
2030
3002
,
0103
0010
1000
0001
,
0010
0100
0010
0200
0000
0000
0300
0000
,
1000
0000
1000
0010
0000
0010
0200
0000
,
0301
0000
0001
0010
0000
0010
0200
0000
,
0310
0110
0100
1001
,
1000
0100
0010
0001
0100
0000
0020
0000
,
0000
0030
2000
0000
0000
3000
0002
0000
,
0000
0003
0200
0000
0000
0300
0002
0000
,
0000
0003
0020
0000
0000
0030
0200
0000
,
0000
0000
0300
1000
,
0010
1000
0010
0000
0100
0000
0001
0000
,
0010
0001
0010
0000
0100
0000
1000
0000
,
0001
1000
0001
0000
0100
0000
0010
0010
,
0100
0220
0330
0101
,
0110
2020
3030
1100
,
0110
0022
0033
0001
,
0100
0000
0010
0000
1000
0000
0100
0010
,
0100
0000
0010
0001
1000
0000
1010
0000
,
1100
2002
3003
0011
,
0101
0000
2002
0000
3003
0000
1000
0010
,
1000
0000
0001
0010
0001
0000
0100
0010
,
1000
0001
0100
0100
0100
0000
0002
0000
,
0203
0320
0030
2000
,
3200
0320
0030
0002
,
2003
3020
0230
0302
,
0000
0000
0003
0010
,
0100
0220
0330
1000
,
0001
2002
3003
0002
,
0203
0000
0320
0000
2030
0000
3100
0010
,
0001
1000
0010
0100
0001
0010
0100
1000
,
0002
0000
0000
0000
0000
0000
0000
0003
;

//--------------- dance-single - forcednature ----------------
#NOTEDATA:;
#STEPSTYPE:dance-single;
#DESCRIPTION:forcednature;
#CREDIT:forcednature;
#DIFFICULTY:Hard;
#METER:14;
#RADARVALUES:0,0,0,0,0;
#NOTES:
0000
0000
0000
0000
,
0000
0000
0000
0000
,
0000
0000
0000
0000
,
0001
1000
0010
2000
0000
3200
0000
0320
,
0000
0130
1000
0002
0000
0013
0010
0000
,
0001
0100
0001
0020
0000
0130
1000
0002
,
0000
0103
0100
0020
0000
1030
0001
0020
,
0000
0130
1000
0002
0000
0203
0000
0320
,
0000
0130
0001
2000
0000
3010
0010
0100
,
0001
0000
0000
0001
0010
0000
0100
0000
1000
0000
0000
1000
0010
0000
0000
0000
,
1000
0000
1000
0000
0001
0000
0001
0000
1000
0001
1000
0001
0010
0000
0000
0000
,
0000
0100
1000
0100
1000
0001
0010
0001
,
1000
0010
0100
0002
0000
0003
0100
0020
,
0000
1030
1000
0001
0100
0001
1000
0010
,
1000
0100
0010
0002
0000
0000
0000
0003
,
0000
0100
0001
0100
0001
1000
0010
1000
,
0001
0010
0100
2000
0000
3100
0010
0002
,
0000
0003
0100
0010
1000
0010
0100
0001
,
1000
0100
0010
0002
0000
0000
0103
0000
,
2010
0000
0001
0000
3100
0000
1000
0001
,
0012
0000
1000
0000
0103
0010
0010
1000
,
0001
0000
0010
0010
0001
0100
0001
2000
,
0010
0000
0001
0000
3100
1000
0001
0010
,
0001
0000
0100
0000
0010
0000
1000
0020
0000
0000
0000
0000
0000
0000
0030
0000
,
1000
0000
0100
0000
0010
0000
0001
0010
0000
0000
0001
0000
1000
0000
0010
0000
,
0100
0000
0100
0000
0001
0000
0001
0000
0100
0010
0100
0010
1000
0000
0002
0000
,
0000
0013
0010
0200
0000
0000
0300
0000
,
1001
0000
1000
0100
0110
0000
0001
0100
,
0110
0000
0000
0010
1000
0000
0001
0000
0200
0000
0000
0000
1300
0000
0000
0000
,
0101
0000
1000
0010
1010
0000
0001
0000
,
1000
0000
0000
1000
0100
0000
0000
0100
0010
0000
0000
0010
0001
0000
0100
0000
,
0110
0000
1000
0100
0110
0000
0001
1000
,
1001
0000
0000
0001
0010
0000
0100
0000
1000
0000
0000
1000
0010
0000
0100
0000
,
0002
0000
0013
0100
0010
0001
1000
0010
,
1000
0000
1000
0000
0001
0000
0001
0000
1000
0001
1000
0001
0010
0000
0000
0000
,
0100
0000
1000
0100
1000
0000
0001
0000
0010
0000
0001
0010
0001
0000
1000
0000
,
0010
0100
0001
0010
0200
1000
1300
0000
,
0001
0000
0100
0001
0100
0000
0010
0000
1000
0000
0100
1000
0100
0000
0010
0000
,
0001
0000
0000
0001
0100
0000
0000
0100
0010
0000
0000
0010
1000
0000
1000
0000
,
0001
0000
0010
0001
0010
0000
0100
0000
1000
0000
0010
1000
0010
0000
0100
0000
,
0001
0000
0000
0001
1000
0000
0100
1000
0100
0000
0010
0000
0100
0010
0100
0010
,
0001
0000
0100
0010
1000
0100
1000
0001
,
0100
0000
0100
0000
0010
0000
0010
0000
0100
0010
0100
0010
1000
0000
0000
0000
,
0001
0010
0100
1000
0010
0100
1000
0001
,
0010
1000
0001
1000
0100
0001
1000
0010
,
0002
0000
0103
0020
0000
1030
0001
0010
,
0001
0100
0010
2000
0000
0001
3001
0000
,
1000
0100
0001
1000
0010
0001
2000
0000
,
3001
0100
1000
0001
0010
1000
0002
0000
,
0013
0000
0100
0000
0010
0100
0010
0000
0001
0000
0001
0000
1000
0001
1000
0000
,
0010
0000
1000
0010
1000
0000
0010
0100
0001
0000
0000
0000
2000
0000
0000
0000
,
0000
3000
0200
0000
0000
0300
0020
0000
,
0032
0000
0023
0000
0000
0030
0002
0000
,
0000
0003
0200
0000
0000
0300
0002
0000
,
0023
0000
0230
0000
2300
0000
3010
1000
,
0001
0000
0101
0000
1000
0100
0010
0001
,
1000
0000
2100
0000
3010
0000
0001
0100
,
0010
0100
0001
1000
0010
0100
0001
0001
,
1000
0000
1000
0000
0001
1000
0001
1000
0000
0000
0000
0000
0001
0100
0000
0000
,
1000
0100
0000
0000
0001
0000
0010
0000
0011
0000
0000
0000
1000
0100
0000
0000
,
0001
0100
0000
0000
1000
0000
0010
0000
1010
0000
0000
0000
0001
0010
0000
0000
,
0100
0000
0010
0000
0100
1000
0000
0000
0001
0000
0010
0000
0001
0000
0000
0001
,
0100
0000
0000
0100
0010
0000
0000
0010
1000
0000
1000
0000
0001
0010
0000
0000
,
1000
0010
0000
0000
0001
0000
0100
0000
0101
0000
0000
0000
1000
0010
0000
0000
,
0001
0010
0000
0000
1000
0000
0100
0000
1100
0000
0000
0000
0001
0100
0001
0000
,
0100
0000
0010
0000
1000
0100
1000
0000
0100
0000
0010
0000
0001
0000
0001
0000
,
1000
0000
1000
0000
0001
1000
0001
1000
0010
0000
0000
0000
0200
0000
0000
0000
,
0302
0023
0030
0200
,
2300
3020
0030
2000
,
3200
0320
0032
0203
,
0000
0000
0300
1010
,
1100
2002
3003
0011
,
0101
2002
3003
2100
,
3010
0000
0102
0000
0013
0000
0001
0001
,
1000
0000
0010
0000
0100
0000
0010
0000
1000
0001
1000
0001
0100
0000
0001
0000
,
0020
0000
0000
0000
0000
0000
0000
0030
;

//--------------- dance-double - forcednature ----------------
#NOTEDATA:;
#STEPSTYPE:dance-double;
#DESCRIPTION:forcednature;
#CREDIT:forcednature;
#DIFFICULTY:Easy;
#METER:2;
#RADARVALUES:0,0,0,0,0;
#NOTES:
00000000
00000000
00000000
00000000
,
00000000
00000000
00000000
00000000
,
00000000
00000000
00000000
00000000
,
00001000
00000000
00000000
00000000
,
00000000
00000000
00000000
00000000
,
00010000
00000000
00000000
00000000
,
00000000
00000000
00000000
00000000
,
00000010
00000000
00000000
00000000
,
00000000
00000000
00000000
00000000
,
00001000
00000000
00000000
00000000
,
00001000
00000000
00000000
00000000
,
00000100
00000000
00000000
00000000
,
00000000
00000000
00000000
00000000
,
00000010
00000000
00000000
00000000
,
00000000
00000000
00000000
00000000
,
00000001
00000000
00000000
00000000
,
00000000
00000000
00000000
00000000
,
00000100
00000000
00000000
00000000
,
00000000
00000000
00000000
00000000
,
00000010
00000000
00000000
00000000
,
00000010
00000000
00000000
00000000
,
00001000
00000000
00000000
00000000
,
00000000
00000000
00000000
00000000
,
00000100
00000000
00000000
00000000
,
00000100
00000000
00000000
00000000
,
00010000
00000000
00000000
00000000
,
00000000
00000000
00000000
00000000
,
00011000
00000000
00000000
00000000
,
00000000
00000000
00000000
00000000
,
01000000
00000000
00000000
00000000
,
00010000
00000000
00000000
00000000
,
01000000
00000000
00000000
00000000
,
00000000
00000000
00000000
00000000
,
00100000
00000000
00000000
00000000
,
10000000
00000000
00000000
00000000
,
00010000
00000000
00000000
00000000
,
00010000
00000000
00000000
00000000
,
00100000
00000000
00000000
00000000
,
00001000
00000000
00000000
00000000
,
00010000
00000000
00000000
00000000
,
00010000
00000000
00000000
00000000
,
00000100
00000000
00000100
00000000
,
00000100
00000000
00000000
00000000
,
00001000
00000000
00000000
00000000
,
00000000
00000000
00000000
00000000
,
00000001
00000000
00000000
00000000
,
00000000
00000000
00000000
00000000
,
00000100
00000000
00000000
00000000
,
00000010
00000000
00000000
00000000
,
00000100
00000000
00000100
00000000
,
00000100
00000000
00000000
00000001
,
00000000
00000000
00000000
00000000
,
00000000
00000000
00000000
00000010
,
00000000
00000000
00000000
00000000
,
00000000
00000000
00000000
00000100
,
00000000
00000000
00000000
00000100
,
00000000
00000000
00000000
00001000
,
00000000
00000000
00000000
00000100
,
00000000
00000000
00000000
00010000
,
00000000
00000000
00000000
00010000
,
00000000
00000000
00000000
00001000
,
00000000
00000000
00000000
01000000
,
00000000
00000000
00000000
00010000
,
00000000
00000000
00000000
00010000
,
00000000
00000000
00000000
10000000
,
00000000
00000000
00000000
00100000
,
00000000
00000000
00000000
10000000
,
00000000
00000000
00000000
00000000
,
00000000
00000000
00000000
01000000
,
00000000
00000000
00000000
00000000
,
00000000
00000000
00000000
00100000
,
00000000
00000000
00000000
00000000
,
00000000
00000000
00000000
00010000
,
00000000
00000000
00000000
02000000
,
00000000
00000000
00000000
00000000
,
00000000
00000000
00000000
00000000
00000000
00000000
00000000
03000000
;

//--------------- dance-double - forcednature ----------------
#NOTEDATA:;
#STEPSTYPE:dance-double;
#DESCRIPTION:forcednature;
#CREDIT:forcednature;
#DIFFICULTY:Medium;
#METER:9;
#RADARVALUES:0,0,0,0,0;
#NOTES:
00000000
00000000
00000000
00000000
,
00000000
00000000
00000000
00000000
,
00000000
00000000
00000000
00000000
,
00001000
00010000
00001000
01000000
,
00010000
10000000
00100000
00000000
,
10000000
01000000
00010000
00001000
,
00000010
00000100
00001000
00000000
,
00000001
00000100
00001000
00010000
,
00000010
00001000
00000100
00000000
,
00011000
00010000
00011000
00100000
,
00010000
00000000
10000000
00000000
00010000
00010000
00010000
00000000
,
00000000
01000000
00010000
10000000
,
00010000
00000000
00020000
00000000
00000000
00030000
00100000
00000000
,
00001000
00010000
00000100
00001000
,
00000100
00000200
00000000
00000300
,
00000000
00000010
00000001
00001000
,
00000010
00000020
00000030
00000200
,
00000000
00000300
00000001
00001000
,
00000020
00000000
00000030
00000110
,
00001001
00000000
00001000
00000100
,
00011000
00000000
01000000
00010000
,
10000000
00100000
10000000
01000000
,
00200000
00000000
00310000
10000000
,
10010000
00010000
01000000
00001000
,
00011000
00010000
00000100
00001000
,
00000010
00000100
00000010
00000000
00001000
00000000
00000000
00001001
,
00000000
00000000
00000000
00000220
00000000
00000000
00000330
00000000
,
00000001
00000100
00001000
00010000
,
01000000
10000000
20020000
30030000
,
10000000
11000000
00010000
01010000
,
20000000
30200000
02300000
03020000
,
10030000
01000000
00010000
00001000
,
00000100
00000000
00000001
00000000
00000010
00000000
00000001
00001000
,
00000001
00000010
00000100
00010000
,
00001000
00010000
00001000
00000000
00022000
00000000
00033000
00000000
,
01000000
01010000
00001000
00011000
,
00100000
00010000
02000000
03000000
,
00100000
10000000
01000000
00010000
,
00200000
00302000
00023000
00030200
,
00001300
00001100
00010000
00011000
,
00000010
00001000
00000100
00000110
,
00001001
00000000
00001000
00000100
00010000
00000000
00001000
00000000
,
00100000
00010000
00100000
00000000
02200000
00000000
03300000
00000000
,
20000000
32000000
03200000
00302000
,
00023000
00030200
00000320
00000032
,
00001003
00000010
00000100
00000001
,
00000010
00000100
00000010
00000200
00000000
00000000
00000300
00000000
,
00001000
00000010
00010000
00011000
,
00001000
00100000
00010000
10010000
,
10000000
00100000
01000000
00001000
,
00010000
00001000
00010000
00001000
00010000
00000000
00000200
00000000
,
00000000
00000000
00000300
00002000
,
00000000
00000000
00003000
00000020
,
00000000
00000030
00000200
00000000
00000000
00000300
00000002
00000000
,
00000000
00000000
00000003
00000010
,
00000001
00000010
00000001
00000000
00000100
00000000
00000010
00000000
,
00001000
00000010
00001000
00000000
00000100
00000000
00010000
00000000
,
00001000
00010000
00001000
00000000
01000000
00000000
00010000
00010000
,
10000000
20020000
30030000
00001000
,
00010000
00202000
00303000
00010000
,
00001000
00020020
00030030
00000010
,
00001000
00000000
00000001
00000000
00000010
00000000
00000100
00001000
,
00000100
00000000
00010000
00001000
00100000
00000000
00101000
00000000
,
00011000
00020200
00030300
00010010
,
00011000
02002000
03003000
00001000
,
00010000
00000000
00001000
00000000
00100000
00000000
00010000
01000000
,
00010000
00000000
10000000
10000000
10000000
00000000
00020000
00000000
,
00230000
00302000
00003000
00020000
,
00030200
00002300
00003000
00000020
,
00000230
00000302
00002003
00003020
,
00000000
00000000
00000030
00000100
,
00000010
00000220
00000330
00001000
,
00010000
00022000
00033000
02000000
,
03020000
20030000
30200000
10300000
,
01000000
00000000
00010000
00000000
00001000
00000000
00000010
00000100
,
00002000
00000000
00000000
00000000
00000000
00000000
00000000
00003000
;

//--------------- dance-double - forcednature ----------------
#NOTEDATA:;
#STEPSTYPE:dance-double;
#DESCRIPTION:forcednature;
#CREDIT:forcednature;
#DIFFICULTY:Hard;
#METER:14;
#RADARVALUES:0,0,0,0,0;
#NOTES:
00000000
00000000
00000000
00000000
,
00000000
00000000
00000000
00000000
,
00000000
00000000
00000000
00000000
,
00001000
00010000
00000100
00020000
00000000
00032000
00000000
00003020
,
00000000
00000031
00001000
00000200
00000000
00010300
00010000
00000000
,
00000100
00001000
00000010
00002000
00000000
00013000
01000000
00200000
,
00000000
10300000
10000000
00020000
00000000
00130000
01000000
20000000
,
00000000
31000000
00010000
00002000
00000000
00003020
00000000
00000230
,
00000000
00001300
00000001
00000200
00000000
00001300
00001000
00000100
,
00000001
00000000
00000000
00000001
00000010
00000000
00000100
00000000
00010000
00000000
00000000
00010000
00000010
00000000
00000000
00000000
,
00000100
00000000
00001000
00000000
00010000
00000000
00001000
00000000
00010000
00001000
00010000
00001000
00100000
00000000
00000000
00000000
,
00000000
01000000
10000000
01000000
10000000
00010000
00100000
00010000
,
00001000
00000100
00001000
00000020
00000000
00000030
00000100
00000002
,
00000000
00000013
00000010
00000001
00001000
00000100
00001000
00000010
,
00000100
00001000
00010000
00200000
00000000
00000000
00000000
00300000
,
00000000
01000000
00010000
01000000
00010000
00100000
00001000
00100000
,
00010000
00001000
00000100
00000020
00000000
00000031
00001000
00000200
,
00000000
00000300
00001000
00000001
00000100
00000001
00001000
00000010
,
00001000
00010000
01000000
00200000
00000000
00000000
10300000
00000000
,
10020000
00000000
01000000
00000000
10000000
00000000
00130000
00010000
,
00002000
00000000
00000100
00000000
00000001
00000000
00003010
00001000
,
00010000
00000000
01000000
01000000
00010000
01000000
00010000
20000000
,
00100000
00000000
00010000
00000000
31000000
10000000
01000000
00010000
,
00001000
00000000
00100000
00000000
00010000
00000000
00100000
00020000
00000000
00000000
00000000
00000000
00000000
00000000
00030000
00000000
,
01000000
00000000
00001000
00000000
00010000
00000000
00001000
00010000
00000000
00000000
00000100
00000000
00001000
00000000
00000010
00000000
,
00000100
00000000
00000100
00000000
00000001
00000000
00000001
00000000
00000100
00000010
00000100
00000010
00001000
00000000
00000002
00000000
,
00000000
00000013
00001000
00020000
00000000
00000000
00030000
00000000
,
00011000
00000000
00001000
00010000
00100000
00000000
00010000
00001000
,
00000010
00000000
00000100
00001000
00000002
00000000
00000103
00000000
,
00001001
00000000
00000001
00000010
00001000
00000000
00010000
00000000
,
00100000
00000000
00000000
00100000
10000000
00000000
00000000
10000000
01000000
00000000
00000000
01000000
00100000
00000000
00001000
00000000
,
00010000
00000000
00000010
00010000
00001000
00000000
00000010
00000001
,
00000100
00000000
00001000
00010000
00100000
00000000
10000000
01000000
,
00020000
00000000
00031000
00100000
00010000
00100000
00001000
00000010
,
00000100
00000000
00001000
00000000
00000001
00000000
00000010
00000000
00000001
00001000
00000001
00001000
00000001
00000000
00000000
00000000
,
00000100
00001000
00010000
00100000
01000000
00010000
10000000
00100000
,
10000000
01000000
00010000
00001000
00200000
00000000
01300000
00000000
,
00100000
00001000
00010000
00000100
00001000
00000010
00000100
00000000
,
00000001
00000000
00000000
00000001
00000100
00000000
00000000
00000100
00001000
00000000
00000000
00001000
00010000
00000000
00010000
00000000
,
00100000
10000000
00010000
00100000
01000000
00010000
00001000
00000010
,
00000100
00000000
00010000
00000000
00000010
00000000
00001000
00000000
00000001
00000000
00000100
00000000
00000001
00001000
00000001
00001000
,
00000020
00000000
00000130
00001000
00010000
00100000
01000000
00010000
,
10000000
00000000
10000000
00000000
01000000
00000000
10000000
00000000
01000000
00100000
01000000
00100000
00010000
00000000
00000000
00000000
,
10000000
00100000
10000000
01000000
00010000
00001000
00000100
00000001
,
00000010
00000100
00001000
00000001
00000100
00001000
00010000
01000000
,
00200000
00000000
00301000
00020000
00000000
00130000
10000000
00010000
,
00100000
01000000
00010000
00002000
00000000
00100000
00103000
00000000
,
00001000
00000010
00001000
00010000
00100000
00010000
00002000
00000000
,
00013000
01000000
00010000
00001000
00000100
00001000
00020000
00000000
,
00130000
00000000
01000000
00000000
00100000
01000000
00100000
00000000
10000000
00000000
00010000
00000000
10000000
00010000
10000000
00000000
,
01000000
00010000
00001000
00000010
00000110
00000000
00000002
00000000
,
00000000
00000003
00000200
00000000
00000000
00000300
00002000
00000000
,
00023000
00000000
00032000
00000000
00000000
00003000
00020000
00000000
,
00000000
00030000
00200000
00000000
00000000
00300000
20000000
00000000
,
32000000
00000000
03020000
00000000
00032000
00000000
00103000
00001000
,
00010000
00000000
00010100
00000000
00010000
00000010
00001000
00000010
,
00010000
00000000
00012000
00000000
00103000
00000000
00001000
00010000
,
01000000
10000000
01000000
00010000
00001000
00100000
00010000
00010000
,
10000000
00000000
10000000
00000000
00010000
10000000
00010000
10000000
00000000
00000000
00000000
00000000
01100000
00000000
00000000
00000000
,
00011000
00000000
00000010
00001000
00000100
00000000
00000110
00000000
,
00011000
00000000
00100000
00010000
01000000
00000000
00100000
10000000
,
01000000
00000000
00010000
00000000
00001000
00000000
00100000
00000000
00010000
00000000
00100000
00000000
00001000
00000000
00000000
00001000
,
00000010
00000000
00000000
00000010
00000001
00000000
00000000
00000001
00000100
00000000
00000010
00000000
00000110
00000000
00000000
00000000
,
00011000
00000000
01000000
00010000
00100000
00000000
01100000
00000000
,
00011000
00000000
00000000
00000000
00000100
00000000
00001000
00000000
00000010
00000000
00000000
00000000
00000100
00000001
00000100
00000000
,
00000001
00000000
00000010
00000000
00000100
00001000
00000100
00000000
00010000
00000000
00001000
00000000
00100000
00000000
00100000
00000000
,
00010000
00000000
00100000
00000000
01000000
00100000
01000000
00100000
01000000
00000000
00000000
00000000
20000000
00000000
00000000
00000000
,
32000000
03020000
00030000
00002000
,
00003200
00000302
00000003
00000020
,
00000230
00020300
00032000
00003020
,
00000000
00000000
00000030
00001001
,
00001100
00020200
00030300
01001000
,
01010000
20020000
30030000
00002000
,
00023000
00000000
00030200
00000000
00002300
00000000
00003001
00000100
,
00000010
00001000
00010000
01000000
00100000
10000000
01000000
00010000
,
00002000
00000000
00000000
00000000
00000000
00000000
00000000
00003000
;
