#VERSION:0.83;
#TITLE:UNITE THE HEART;
#SUBTITLE:;
#ARTIST:BEMANI Sound Team "T.Kakuta" feat. 709sec. / 花たん;
#TITLETRANSLIT:;
#SUBTITLETRANSLIT:;
#ARTISTTRANSLIT:T.Kakuta feat. 709sec. / Hanatan;
#GENRE:DANCE POP DUET;
#CREDIT:;
#MUSIC:UNITE THE HEART.ogg;
#BANNER:UNITE THE HEART.png;
#BACKGROUND:UNITE THE HEART-bg.png;
#CDTITLE:./CDTitles/bm IIDX 27 HEROIC VERSE.png;
#SAMPLESTART:96.176;
#SAMPLELENGTH:15.000;
#SELECTABLE:YES;
#OFFSET:0.290;
#BPMS:0.000=185.000;
#STOPS:;
#TIMESIGNATURES:0.000=4=4;
#BGCHANGES:0.000=../BGAs/27hv.mp4=1.000=0=0=0=StretchNoLoop====,
99999.000=-nosongbg-=1.000=0=0=0=StretchNoLoop====
;
#FGCHANGES:;

//--------------- dance-single - forcednature ----------------
#NOTEDATA:;
#STEPSTYPE:dance-single;
#DESCRIPTION:forcednature;
#CREDIT:forcednature;
#DIFFICULTY:Beginner;
#METER:5;
#RADARVALUES:0,0,0,0,0;
#NOTES:
0000
0000
0000
0000
,
0000
0000
0000
0000
,
0000
0000
0000
0000
,
0000
0000
0000
0000
,
0000
0000
0000
0000
,
0000
0000
0000
0000
,
1001
0000
0000
0000
,
0001
0000
0100
0000
,
0001
0000
1000
0000
,
0100
0000
0000
0000
,
0110
0000
0000
0000
,
0010
0000
0000
0000
,
0001
0000
1000
0000
,
0001
0000
0000
0000
,
0100
0000
0000
0000
,
0010
0000
0000
0000
,
1000
0000
0001
0000
,
1000
0000
1000
0000
,
0100
0000
0000
0000
,
0010
0000
0000
0000
,
0001
0000
1000
0000
,
0001
0000
0000
0000
,
0100
0000
0000
0000
,
0001
0000
0000
0000
,
1000
0000
0001
0000
,
1000
0000
0000
0000
,
0100
0000
0000
0000
,
0010
0000
0000
0000
,
0001
0000
0000
0000
,
0001
0000
0001
0000
,
0100
0000
0000
0000
,
0010
0000
0000
0000
,
1000
0000
0000
0000
,
1000
0000
1000
0000
,
0100
0000
0000
0000
,
1000
0000
0000
0000
,
0001
0000
0001
0000
,
0001
0000
0000
0000
,
0100
0000
0100
0000
,
0010
0000
0010
0000
,
1000
0000
0000
0001
,
0000
0000
0000
0000
,
1001
0000
0000
0000
,
1000
0000
0100
0000
,
1000
0000
0000
0000
,
0100
0000
0010
0000
,
0100
0000
0100
0000
,
0010
0000
0010
0000
,
0001
0000
0001
0000
,
0100
0000
0010
0000
,
1000
0000
0000
0000
,
0001
0000
0100
0000
,
0001
0000
0000
0000
,
0100
0000
0010
0000
,
0100
0000
0000
0000
,
0010
0000
0010
0000
,
1000
0000
1000
0000
,
0001
0000
1000
0000
,
0100
0000
0000
0000
,
0010
0000
0000
0000
,
0001
0000
1000
0000
,
0001
0000
0000
0000
,
0100
0000
0100
0000
,
0010
0000
0010
0000
,
1000
0000
0001
0000
,
1000
0000
0000
0000
,
2002
0000
3003
0000
,
0110
0000
0000
0000
,
0001
0000
0000
0000
,
1000
0000
0000
0000
,
0100
0000
0010
0000
,
0100
0000
0000
0000
,
0010
0000
0001
0000
,
0010
0000
0010
0000
,
0001
0000
0000
0000
,
1001
0000
0000
0000
,
1000
0000
0010
0000
,
1000
0000
0000
0000
,
0001
0000
0010
0000
,
0001
0000
0001
0000
,
0100
0000
0100
0000
,
0010
0000
1000
0000
,
0001
0000
0000
0000
,
1001
0000
0000
0000
,
1000
0000
0100
0000
,
1000
0000
0000
0000
,
0100
0000
0010
0000
,
0100
0000
0000
0000
,
0010
0000
0010
0000
,
0001
0000
0001
0000
,
1000
0000
0000
0000
,
1001
0000
0000
0000
,
0001
0000
0100
0000
,
0001
0000
0000
0000
,
0100
0000
0010
0000
,
0100
0000
0000
0000
,
0010
0000
1000
0000
,
0010
0000
0010
0000
,
1000
0000
0001
0000
,
0000
0000
0010
0000
0010
0000
0000
0100
;

//--------------- dance-single - forcednature ----------------
#NOTEDATA:;
#STEPSTYPE:dance-single;
#DESCRIPTION:forcednature;
#CREDIT:forcednature;
#DIFFICULTY:Easy;
#METER:9;
#RADARVALUES:0,0,0,0,0;
#NOTES:
0000
0000
0000
0000
,
0000
0000
0000
0000
,
0000
0000
0000
0000
,
0000
0000
0000
0000
,
0000
0000
0000
0000
,
0000
0000
0000
0000
,
1001
0000
0001
0100
,
0001
1000
0010
0000
,
1000
1000
0100
0010
,
0002
0003
0000
0000
,
1001
0000
1000
0010
,
1000
0001
0010
0100
,
1000
0001
0100
0001
,
0010
0001
0100
0000
,
1001
0000
0001
0100
,
0010
1000
0001
1000
,
0100
0000
0010
0001
,
0100
0100
0000
0010
,
0010
0000
1000
0001
,
1000
0100
1000
0001
,
0100
0001
0010
0001
,
1000
0010
0000
0010
,
0110
0000
0100
0001
,
1000
0001
0010
0000
,
0100
0000
0100
0000
0000
1000
0000
1000
,
0000
0001
0000
0001
0000
0000
0100
0000
,
0020
0000
2030
0000
,
3002
0000
0023
0000
,
0130
1000
0100
0010
,
0001
1000
0001
0100
,
0020
0000
2030
0000
,
3002
0000
0023
0000
,
0130
0010
0001
1000
,
0001
0100
0010
1000
,
0200
0000
0320
0000
,
0230
0000
2300
0000
,
3001
0100
0010
0100
,
0001
0010
0100
1000
,
0010
0010
0100
0100
,
0001
0001
1000
1000
,
0100
0000
0100
0000
0000
0010
0000
0020
,
0000
0030
0000
0000
,
1001
0001
0100
0001
,
1000
0000
0010
0000
1000
0100
1000
0000
,
0001
0010
0001
1000
,
0010
0000
0100
0000
0001
0100
0001
0000
,
1000
0100
0010
0100
,
0010
0001
1000
0001
,
0100
0000
0100
0001
0000
0001
1000
0000
,
0000
0010
1000
0001
,
0010
0100
1000
0100
,
0010
0000
0001
0000
1000
0010
1000
0000
,
0001
0010
0100
1000
,
0010
0000
0100
0000
0001
0010
0001
0000
,
1000
1000
0010
0010
,
0100
0100
0001
0001
,
1000
0000
0100
0000
0010
0100
0010
0000
,
0001
0001
0100
0010
,
2002
0000
0000
3003
,
1000
0100
0010
0001
,
0100
0010
1000
0001
,
0020
0000
0230
0000
,
1300
1000
0010
0010
,
0100
0100
0001
0001
,
1000
0100
1000
0000
0100
0000
0010
0000
,
0001
0010
0001
0000
0100
0000
0010
0000
,
2002
0000
0000
3003
,
1000
0010
0100
0001
,
0010
0001
1000
0100
,
0010
0100
0020
0000
0000
0000
0030
0000
,
0001
1000
0001
0100
,
0110
0010
1000
0100
,
0110
0010
0001
0100
,
0010
0010
1000
0001
,
1001
0000
0000
0000
,
0110
0001
1000
0100
,
0010
0000
0001
0000
1000
0010
1000
0000
,
0001
0010
0100
1000
,
0010
0000
0100
0000
0001
1000
0001
0000
,
0010
0010
0100
0100
,
1000
1000
0001
0001
,
0100
0000
0000
0010
0000
0000
1000
0000
,
0000
1000
0100
0000
0010
0000
0010
0000
,
0001
1000
0001
0100
,
0010
0000
1000
0000
0100
0010
0100
0000
,
1000
0001
0100
0010
,
1000
0000
0001
0000
0010
0100
0010
0000
,
0001
0001
0100
0100
,
0010
0010
1000
1000
,
0100
0010
0100
0000
0010
0100
0020
0000
,
0000
0030
0000
0100
,
1001
0001
1000
0010
,
1000
0000
0100
0000
0010
0000
0001
0100
,
0001
1000
0010
1000
,
0100
0000
0010
0000
0001
0000
1000
0100
,
1000
0001
0100
0010
,
1000
0000
0100
0000
0010
0000
0001
1000
,
0001
0001
0100
0100
,
0000
0010
0000
0000
1000
0000
1000
0000
,
0000
0100
0000
0100
0010
0000
0000
2002
,
0000
0000
3003
0000
;

//--------------- dance-single - forcednature ----------------
#NOTEDATA:;
#STEPSTYPE:dance-single;
#DESCRIPTION:forcednature;
#CREDIT:forcednature;
#DIFFICULTY:Medium;
#METER:14;
#RADARVALUES:0,0,0,0,0;
#NOTES:
0000
0000
0000
0000
,
0000
0000
0000
0000
,
0000
0000
0000
0000
,
0000
0000
0000
0000
,
0000
0000
0000
0000
,
0000
0000
0000
0000
,
1001
0000
0001
0100
0010
1000
0100
0000
,
0110
0000
0010
0001
1000
0010
0100
0001
,
0010
0000
0010
0000
0100
0000
0100
0000
1000
0000
0000
0001
0000
0000
0100
0000
,
2002
3003
0000
0000
,
0110
0000
0001
0100
0010
0000
1000
0100
,
0010
0100
1000
0001
1000
0000
0010
0100
,
0001
0010
0100
0000
1000
0010
0100
0000
,
0010
0001
0010
0100
1000
0100
0001
1000
,
1001
0000
1000
0100
0010
0000
0001
0100
,
0010
1000
0001
0010
0100
0000
1000
0010
,
0110
0000
0001
1000
0100
0000
0110
0000
,
1001
0001
1000
1001
0000
1000
0001
0100
,
0110
0000
0001
1000
0100
0000
0010
0001
,
0100
0010
1000
0100
0010
0000
0100
1000
,
0001
0100
0010
0000
1000
0100
0010
0000
,
0100
0001
0100
0010
1000
0010
0001
1000
,
0010
0000
0010
1000
0001
0000
0100
0001
,
0010
0100
1000
0000
0001
1000
1001
0000
,
0100
0100
0100
0100
0000
1001
0000
0110
,
0000
1000
0001
0100
0000
0001
1000
0001
,
0100
0010
1000
0001
0010
0100
1000
0001
,
0100
0010
1000
0001
0010
0100
1000
0001
,
0100
1000
0200
0000
1000
0000
0001
0000
,
0310
1000
0001
0000
1000
0100
0010
0001
,
0100
0001
0010
0100
1000
0010
1000
0001
,
0100
0001
0010
0100
1000
0010
1000
0001
,
0010
0100
2000
0000
0010
0000
0100
0000
,
3010
1000
0100
0000
0010
0001
0100
0001
,
0100
1000
0100
0001
0010
1000
0010
0001
,
0100
1000
0100
0001
0010
1000
0010
0001
,
0100
1000
0200
0000
1000
0000
0301
0000
,
0110
0000
1000
0001
1000
0100
0010
0001
,
0100
0001
0100
0001
1000
0010
1000
0010
,
1000
0100
1000
0100
0010
0001
0010
0001
,
0100
0001
1000
0100
0000
0010
0010
0220
,
0000
0330
0000
1000
0001
1000
0010
0100
,
0000
0001
0010
0100
1000
0000
0002
0200
,
0000
0000
0303
0001
1000
0100
0010
0001
,
0000
1000
0010
1000
0001
0000
2000
0200
,
0000
0000
0000
0000
3300
0000
1000
0000
0001
0000
0100
0000
0001
1000
0001
0000
,
0100
0010
1000
0100
0010
0001
0100
0000
,
0010
1000
0001
1000
0100
0010
0001
0000
,
0101
0000
0000
1100
0000
0000
1001
0000
,
0000
0000
1000
0000
0001
0000
0100
0000
0001
0000
0000
1000
0000
0000
0100
0000
,
0010
0001
0100
0010
1000
0000
0002
2000
,
0000
0000
3003
1000
0100
1000
0010
0100
,
0000
0001
0010
0100
1000
0001
0200
0020
,
0000
0000
0330
0100
0001
1000
0100
0010
,
0001
0000
0100
0010
1000
0001
1000
0100
,
0001
0000
0100
1000
0001
0100
1000
0100
,
0010
0010
1000
1000
0001
0001
0010
0010
,
0001
1000
0001
0000
1000
0001
1000
0000
0010
0000
0100
0001
0100
0000
0000
0000
,
0020
0000
1030
0200
0000
0310
0002
0000
,
0103
1000
0100
0010
0100
0001
0200
0000
,
0320
0000
1030
0001
1000
0100
0010
0001
,
0200
1000
0002
0303
,
0001
0100
0001
0100
0010
1000
0100
0010
0001
1000
0000
0000
,
0100
1000
0100
1000
0001
1000
0100
0010
0001
0100
0000
0000
,
0010
1000
0010
1000
0001
0010
0001
0010
,
0001
1000
0001
0000
1000
0001
1000
0000
0010
0000
1000
0100
1000
0000
0000
0000
,
0010
0010
0010
0010
0100
0001
1000
0001
,
0100
0010
0001
1000
0100
0010
1000
0001
,
0010
0100
0001
1000
0010
0100
1000
0001
,
0100
0010
2000
0000
0100
0000
3001
0000
,
1000
0010
0100
0001
0010
0001
0010
1000
,
0010
0001
0010
0001
1000
0010
1000
0010
,
0100
0001
0100
0001
1000
0100
1000
0100
,
0001
0000
0100
0000
1000
0000
0010
0000
0100
0000
0000
1000
0000
0000
0100
0000
,
0002
0000
0003
0100
0010
1000
0001
0010
,
0000
0100
1000
0001
0100
0000
0010
2020
,
0000
0000
3030
1000
0100
1000
0001
0010
,
0000
0001
0100
0010
1000
0001
0010
0220
,
0000
0000
0000
0000
0330
0000
0100
0000
1000
0000
0001
0000
1000
0010
1000
0000
,
0001
0100
1000
0100
0010
1000
0001
1000
,
0100
0000
0001
0000
0100
0000
0010
0000
0001
0000
1000
0000
0010
0000
1000
0100
,
1000
0000
0000
1001
0000
0000
0110
0000
,
0000
0000
0001
0000
0100
0000
0010
0000
1000
0000
0000
0100
0000
0000
0010
0000
,
0001
1000
0010
1000
0001
0010
0100
2200
,
0000
0000
3300
1000
0001
0100
0001
1000
,
0010
0001
0010
0100
0001
0010
0100
0220
,
0000
0000
0000
0000
0330
0000
0001
0000
0100
0000
0010
0000
1000
0100
1000
0000
,
0010
0100
0001
0100
0010
1000
0001
1000
,
0100
0000
0001
0000
0100
0000
0010
0000
0001
0000
1000
0000
0010
0000
0100
0001
,
0100
0010
0001
0010
1000
0100
0010
0002
,
0000
0003
0000
0100
0010
1000
0001
0000
,
1001
0000
1000
0100
1000
0010
0100
0001
,
0010
0001
0100
0010
1000
0100
0001
0100
,
0010
0000
0001
0100
0010
0001
0010
1000
,
0001
0000
0100
0000
1000
0000
0100
0000
0010
0000
1000
0000
0001
0000
0010
0001
,
0010
0000
0100
1000
0001
1000
0010
0100
,
0001
0000
0100
0000
1000
0000
0100
0000
0010
1000
0010
0000
0100
0000
0001
0010
,
0001
0100
0010
1000
0100
0001
0100
2000
,
0000
0000
3010
0000
0100
0000
0001
0010
0001
0000
0100
0000
0001
1000
0001
1000
,
0000
0100
0100
0100
0100
0100
0000
2002
,
0000
0000
3003
0000
;

//--------------- dance-single - forcednature ----------------
#NOTEDATA:;
#STEPSTYPE:dance-single;
#DESCRIPTION:forcednature;
#CREDIT:forcednature;
#DIFFICULTY:Hard;
#METER:17;
#RADARVALUES:0,0,0,0,0;
#NOTES:
0000
0000
0000
0000
,
0000
0000
0000
0000
,
0000
0000
0000
0000
,
0000
0000
0000
0000
,
0000
0000
0000
0000
,
0000
0000
0000
0000
,
1001
0000
0001
0100
0010
1000
0100
0010
,
0110
0000
0000
0000
1000
0000
0001
0000
0100
0000
0100
0000
0010
0000
1000
0001
,
1000
0000
0010
0000
0001
0000
0010
0000
0110
0000
0000
1001
0000
0000
0110
0000
,
2002
3003
0000
0000
,
1001
0000
0001
0100
1000
0100
0010
2000
,
0000
3100
0010
0001
0100
1000
0100
0002
,
0000
0013
0200
0000
0001
0000
1000
0000
,
0310
0000
0100
0000
1000
0000
0010
0000
0100
0000
0100
0000
0001
0000
0010
0100
,
1000
0000
0010
0100
0001
0010
1000
0020
,
0000
0130
1000
0001
1000
0010
0001
0010
,
0110
0000
0001
1000
0100
0010
0001
0100
,
0101
0000
0001
0000
1000
0000
1100
0000
0000
0000
0001
0000
0100
0000
0010
1000
,
0001
0000
1000
0100
0001
0100
0010
0002
,
0000
0103
0010
0001
0010
1000
0100
0020
,
0000
0031
0200
0000
1000
0000
0001
0000
,
0310
0000
0100
0000
0001
0000
1000
0000
0100
0000
0100
0000
0010
0000
0001
0100
,
0010
0000
1000
0001
0100
1000
0100
0020
,
0000
0000
1030
0000
0100
0000
0001
0000
0100
0000
0010
0000
0001
0000
1000
0100
,
0010
0001
0100
0110
0000
1010
0000
0011
,
0000
0000
0110
0000
0100
0000
1001
0000
0000
0000
0001
0000
1000
0000
0100
0010
,
0002
0000
0103
0000
0010
0000
1000
0001
0020
0000
0130
0000
1000
0000
0001
0100
,
0020
0000
1030
0000
0001
0000
1000
0100
0020
0000
0130
0000
1000
0000
0001
0100
,
0010
1000
0200
0000
0001
0000
1000
1000
,
1300
0000
0100
0000
0010
0000
0001
0000
1000
0010
0100
0000
0001
0000
0010
0100
,
2000
0000
3100
0000
0001
0000
0100
0010
0002
0000
1003
0000
0010
0000
1000
0001
,
0200
0000
0310
0000
1000
0000
0100
0010
0002
0000
0103
0000
1000
0000
0100
0001
,
0010
0001
0200
0000
1000
0000
0001
0001
,
0301
0000
0100
0000
1000
0000
0100
0000
0010
1000
0100
0000
0010
0000
0001
0100
,
0020
0000
1030
0000
0001
0000
1000
0100
0020
0000
0130
0000
0001
0000
0100
0010
,
0002
0000
0103
0000
1000
0000
0100
0010
2000
0000
3001
0000
0010
0000
0100
1000
,
0001
0100
0020
0000
1000
0000
0001
0100
,
1030
0000
0010
0000
1000
0000
0100
0000
0010
0001
0010
0000
0100
0000
1000
0001
,
1000
0000
0010
0000
0001
0000
0010
0000
0100
0000
1000
0000
0100
0000
0001
1000
,
0001
0010
0100
0000
0001
0000
0100
0010
0100
1000
0001
0000
1000
0010
0100
0001
,
1000
0001
0100
0120
0000
1030
0001
2002
,
0000
0000
3003
0000
0000
0000
1000
0000
0100
0000
0010
0000
0001
0000
0100
0010
,
1000
0100
0001
0100
0010
0001
0100
0201
,
0000
0000
1000
0000
0000
0000
0301
0000
0100
0000
1000
0000
0100
0000
0010
1000
,
0001
1000
0010
0100
0001
1000
0100
1200
,
0000
0000
0001
0000
0000
0000
1300
0000
0100
0000
0010
0000
0001
1000
0001
0000
,
1000
0100
0010
0000
0100
0000
1000
0000
0010
0000
0100
0000
0001
0000
0001
0000
,
1000
0010
0100
0000
0001
0000
0010
0000
0100
0000
0100
0000
0100
0000
1000
0001
,
0100
0000
0010
1010
0000
0100
0101
0000
,
0001
0000
0011
0000
0011
0000
0001
0000
1001
0000
0000
0110
0000
0000
0001
1000
,
0010
0100
1000
0100
0001
0100
0010
1020
,
0000
0000
0001
0000
0000
0000
1030
0000
0010
0000
0100
0000
0001
0000
0010
0100
,
1000
0001
1000
0100
0001
0100
0010
0021
,
0000
1000
0000
0031
0010
0010
0010
0100
,
1000
0001
0100
0000
0010
0000
0001
0000
0010
0000
1000
0000
0001
0000
0001
0000
,
1000
0100
0010
0000
0001
0000
0100
0000
1000
0000
0100
0000
0010
0000
1000
0001
,
0100
0000
0001
0000
1000
0000
0010
0000
1000
0100
0010
0000
0001
0000
0010
0000
,
0100
1000
0100
1000
0001
0100
0001
0100
0010
0000
1000
0001
1000
0000
0100
0000
,
0010
0001
0010
0000
0100
0000
0010
0001
0010
0000
0100
0000
0010
0001
1000
0000
,
0010
1000
0001
0000
1000
0100
0010
0000
0001
0100
0010
0000
2000
0000
3001
0000
,
1000
0000
0100
0010
0001
0000
0200
0000
0000
0000
0310
1000
0001
0000
0010
0000
,
0200
2300
0000
3002
0203
0000
0310
0010
,
0100
0001
0010
0100
1000
0010
0100
0001
0010
0100
0010
0001
,
0100
0000
0000
0000
0010
0000
0000
0000
1000
0000
0000
0000
0100
0000
0000
0000
0001
0000
0000
0000
0100
0000
0000
0000
1000
0000
0000
0000
0001
0000
0000
0000
0100
0000
0000
0000
0010
0000
0000
1000
0000
0000
0001
0000
0000
0000
0000
0000
,
0102
0100
1000
0013
2100
0100
0001
3010
,
1000
0000
0000
0010
0000
0000
1000
0000
0000
0010
0000
0000
0100
0000
0000
0001
0000
0000
0100
0000
0000
0001
0000
0000
1000
0000
0000
0000
0000
0000
0001
0000
1000
0000
0001
0000
1000
0000
0000
0000
0000
0000
0100
0000
0000
0000
0000
0000
,
0010
0000
0000
0000
0000
0000
0010
0000
0000
0000
0000
0000
0001
0000
0000
0000
0000
0000
0001
0000
0000
0000
0000
0000
1000
0000
0000
0001
0000
0000
1000
0000
0001
0000
1000
0000
0001
0000
0000
0000
0000
0000
0100
0000
0000
0001
0000
0000
,
0020
0000
0130
0000
0001
0000
0100
1000
0002
0000
0103
0000
1000
0000
0100
0010
,
2000
0000
3100
0000
0010
0000
0001
0100
0020
0000
0031
0000
0010
0000
1000
0001
,
0010
0001
0200
0000
1000
0000
0001
0010
,
1300
0000
0100
0000
0001
0000
1000
0000
0100
0010
0100
0000
1000
0000
0001
0100
,
0001
0000
0010
0000
1000
0000
0010
0000
0100
0000
0001
0000
0100
0000
1000
0001
,
1000
0010
0100
0000
0001
0000
0010
0100
1000
0001
0100
0000
0010
1000
0001
1000
,
0100
0000
0001
0000
0100
0000
1000
0000
1001
0000
0000
1100
0000
0000
0101
0000
,
2002
0000
0000
0000
3003
0000
0001
0000
0100
0000
0010
0000
1000
0000
0100
0010
,
0001
0010
1000
0010
0100
1000
0010
0021
,
0000
0000
1000
0000
0000
0000
0031
0000
0010
0000
1000
0000
0001
0000
0010
0100
,
1000
0001
0100
1000
0100
0001
0010
1020
,
0000
0000
0001
0000
0000
0000
1030
0000
0010
0000
0001
0000
1000
0010
1000
0000
,
0001
0010
0100
0000
1000
0000
0001
0000
0100
0000
1000
0000
0100
0000
0100
0000
,
0001
1000
0100
0000
0010
0000
0001
0000
0100
0000
0100
0000
0100
0000
0010
1000
,
0001
0000
0010
0011
0000
0100
1100
0000
,
1000
0000
1001
0000
1001
0000
0100
0000
0110
0000
0000
1001
0000
0000
1000
0010
,
0100
1000
0001
0010
1000
0001
0100
1200
,
0000
0000
0001
0000
0000
0000
1300
0000
0100
0000
0001
0000
1000
0000
0001
0010
,
0100
0001
1000
0010
0001
1000
0100
0201
,
0000
0000
1000
0000
0000
0000
0301
0000
0100
0000
0100
0000
0100
1000
0001
0000
,
0100
0001
0010
0000
0100
0000
0001
0000
0100
0000
1000
0000
0010
0000
0010
0000
,
1000
0001
0100
0000
1000
0000
0100
0000
0010
0000
1000
0000
0100
0000
0010
0001
,
0100
0010
1010
1000
0011
0001
1001
2002
,
0000
3003
0000
1000
0100
0001
0110
0000
,
0001
1000
0010
0000
0100
0000
1000
0000
0100
0000
0010
0000
1000
0000
0100
0000
,
0001
0000
0100
0000
0010
0000
0001
0000
1000
0000
0010
0000
0100
0001
1000
0000
,
0100
0010
0001
0000
0100
0000
1000
0000
0100
0000
0010
0000
1000
0000
0001
0000
,
0010
0000
1000
0000
0010
0000
0100
0000
1000
0000
1000
0000
0010
0000
1000
0100
,
0010
0001
0010
0000
1000
0000
0010
0000
0100
0000
1000
0000
0001
0000
0100
0000
,
0010
1000
0001
0000
0010
0000
0100
0000
1000
0001
0100
0000
0010
0000
1000
0100
,
0010
0010
0001
0001
0100
0100
0010
0210
,
0000
0000
0000
0000
0000
0000
0301
0000
0000
0000
0000
0000
0100
0000
0000
0000
0000
0000
0010
0000
1000
0000
0010
0000
1000
0000
0000
0000
0000
0000
0100
0000
0000
0000
0000
0000
0010
0000
0000
0001
0000
0000
0010
0000
0000
0001
0000
0000
,
0000
0101
1001
1100
1001
0110
0000
2002
,
0000
0000
3003
0000
;

//--------------- dance-double - forcednature ----------------
#NOTEDATA:;
#STEPSTYPE:dance-double;
#DESCRIPTION:forcednature;
#CREDIT:forcednature;
#DIFFICULTY:Easy;
#METER:9;
#RADARVALUES:0,0,0,0,0;
#NOTES:
00000000
00000000
00000000
00000000
,
00000000
00000000
00000000
00000000
,
00000000
00000000
00000000
00000000
,
00000000
00000000
00000000
00000000
,
00000000
00000000
00000000
00000000
,
00000000
00000000
00000000
00000000
,
00011000
00000000
00010000
00001000
,
01000000
00010000
01000000
00000000
,
00100000
00100000
10000000
00010000
,
00200000
00300000
00000000
00000000
,
01100000
00000000
01000000
00100000
,
00010000
00100000
00001000
00010000
,
00000010
00001000
00000010
00000100
,
00000001
00001000
00000001
00000000
,
00001001
00000000
00001000
00000100
,
00010000
00001000
01000000
00010000
,
01000000
00000000
00100000
10000000
,
00010000
00010000
00000000
00100000
,
00100000
00000000
00001000
00010000
,
00001000
00010000
00000100
00001000
,
00000100
00000010
00000001
00000010
,
00000100
00001000
00000000
00000001
,
00001001
00000000
00001000
00000010
,
00010000
00001000
01000000
00000000
,
00010000
00000000
00010000
00000000
00000000
10000000
00000000
10000000
,
00000000
01000000
00000000
01000000
00000000
00000000
00100000
00000000
,
00020000
00000000
02030000
00000000
,
03002000
00000000
00023000
00000000
,
00030100
00001000
00000100
00010000
,
00001000
01000000
00010000
01000000
,
00200000
00000000
20300000
00000000
,
30020000
00000000
20030000
00000000
,
31000000
00100000
00010000
00100000
,
00001000
00010000
00000010
00001000
,
00000020
00000000
00000230
00000000
,
00000302
00000000
00002003
00000000
,
00003100
00010000
00001000
00010000
,
00000010
00001000
00000010
00000100
,
00000001
00000001
00001000
00001000
,
00000100
00000100
00010000
00010000
,
00001000
00000000
00001000
00000000
00000000
01000000
00000000
02000000
,
00000000
03000000
00000000
00000000
,
10010000
00000000
00010000
01000000
,
00001000
00000000
00010000
00000000
00000100
00001000
00000100
00000000
,
00000010
00000000
00000001
00001000
,
00000001
00000000
00000100
00000000
00000010
00001000
00000010
00000000
,
00010000
00000000
00001000
00100000
,
00010000
00100000
01000000
10000000
,
00010000
00000000
00010000
01000000
00000000
01000000
00001000
00000000
,
00000000
00010000
00000100
00001000
,
00000001
00000100
00000001
00000010
,
00000100
00000000
00001000
00000000
00000100
00010000
00000100
00000000
,
00010000
00000000
00001000
01000000
,
00010000
00000000
01000000
00000000
00100000
10000000
00100000
00000000
,
01000000
00000000
00010000
00010000
,
00100000
00100000
00001000
00001000
,
00010000
00000000
00000010
00000000
00001000
00000010
00001000
00000000
,
00000100
00000100
00000010
00000001
,
00002002
00000000
00000000
00003003
,
00001000
00000100
00010000
00001000
,
01000000
00010000
01000000
00100000
,
20000000
00000000
30020000
00000000
,
00130000
00100000
00001000
00001000
,
00010000
00010000
00000010
00000010
,
00001000
00000100
00001000
00000000
00000100
00000000
00000010
00000000
,
00000001
00000100
00000001
00000000
00000100
00000000
00000010
00000000
,
00002002
00000000
00000000
00003003
,
00001000
00000100
00010000
00001000
,
01000000
00010000
01000000
00100000
,
10000000
00010000
20000000
00000000
00000000
00000000
30000000
00000000
,
01000000
00100000
00010000
00100000
,
01100000
00000000
01000000
10000000
,
10010000
00000000
00010000
01000000
,
00001000
00001000
00010000
00001000
,
00011000
00000000
00000000
00000000
,
00011000
00000000
00010000
00000100
,
00001000
00000000
00000001
00000000
00001000
00000010
00001000
00000000
,
00000100
00000000
00010000
00001000
,
01000000
00000000
00010000
00000000
10000000
00010000
10000000
00000000
,
01000000
00000000
00100000
00100000
,
00001000
00001000
00010000
00010000
,
00000010
00000000
00000000
00000010
00000000
00000000
00001000
00000000
,
00000000
00001000
00000100
00000000
00000010
00000000
00000010
00000000
,
00000001
00000100
00000001
00000010
,
00000100
00000000
00010000
00000000
00001000
00010000
00001000
00000000
,
00010000
00000000
00001000
01000000
,
00010000
00000000
01000000
00000000
00100000
01000000
00100000
00000000
,
10000000
00000000
01000000
01000000
,
00100000
00100000
00010000
00010000
,
01000000
00010000
01000000
00000000
00001000
00010000
00002000
00000000
,
00000000
00003000
00000000
00000000
00000000
00000000
00010000
00000000
,
00011000
00001000
00010000
00000100
,
00001000
00000000
00000100
00000000
00000010
00000000
00000001
00001000
,
00000001
00000100
00000010
00001000
,
00000010
00000000
00010000
00000000
00001000
00000000
00010000
00001000
,
00010000
00001000
00100000
00010000
,
00100000
00000000
01000000
00000000
10000000
00000000
00010000
10000000
,
00010000
00010000
01000000
01000000
,
00000000
00001000
00000000
00000000
00010000
00000000
00010000
00000000
,
00000000
00000100
00000000
00000100
00001000
00000000
00000000
00002002
,
00000000
00000000
00003003
00000000
;

//--------------- dance-double - forcednature ----------------
#NOTEDATA:;
#STEPSTYPE:dance-double;
#DESCRIPTION:forcednature;
#CREDIT:forcednature;
#DIFFICULTY:Medium;
#METER:14;
#RADARVALUES:0,0,0,0,0;
#NOTES:
00000000
00000000
00000000
00000000
,
00000000
00000000
00000000
00000000
,
00000000
00000000
00000000
00000000
,
00000000
00000000
00000000
00000000
,
00000000
00000000
00000000
00000000
,
00000000
00000000
00000000
00000000
,
00011000
00000000
00001000
01000000
00010000
10000000
01000000
00100000
,
00010000
00000000
01000000
00000000
00001000
00000000
00010000
00000000
00000100
00000000
00000100
00000000
00000100
00000000
00001000
00000001
,
00001000
00000000
00000010
00000000
00000100
00000000
00000001
00000000
00000010
00000000
00000000
00001000
00000000
00000000
00010000
00000000
,
02000000
03000000
00000000
00000000
,
10010000
00000000
00010000
01000000
00001000
00000000
00010000
00000100
,
00001000
00000001
00000100
00000000
00000010
00001000
00000100
00000010
,
00001000
00010000
01000000
00000000
00010000
00001000
00000100
00000000
,
00000010
00000000
00010000
00000000
00001000
00000000
00100000
00000000
00001000
00000000
00010000
00000000
00100000
00000000
10000000
00100000
,
10000000
00000000
01000000
00100000
00010000
00000000
01000000
00001000
,
00010000
00000100
00001000
00000000
00000001
00000100
00000010
00001000
,
00001001
00000000
00000001
00000100
00001000
00010000
00100000
10000000
,
00010000
00000000
10000000
00000000
01000000
00000000
00010000
00000000
00000000
00000000
00001000
00000000
00000010
00000000
00000001
00001000
,
00000001
00000000
00000100
00000010
00000100
00001000
00010000
00100000
,
00000000
01000000
00010000
10000000
00100000
10000000
01000000
00100000
,
00000000
01000000
10000000
00000000
00010000
00000000
01000000
00000000
,
00100000
00000000
10000000
00000000
00010000
00000000
00100000
00000000
00001000
00000000
00010000
00000000
00000010
00000000
00001000
00000010
,
00001000
00000000
00000001
00000010
00000100
00001000
00000001
00000000
,
00000100
00000000
00001000
00000000
00010000
00000000
00100000
00000000
00010000
00000000
00001000
00000000
00010000
00000000
00001000
01000000
,
00001000
00100000
00010000
10000000
00000000
10010000
00000000
01100000
,
00000000
10000000
01000000
00010000
00000000
00001000
00000010
00000001
,
00001000
00000001
00000100
00001000
00010000
00100000
10000000
00010000
,
10000000
01000000
00010000
00001000
00000010
00000001
00001000
00000001
,
00000100
00001000
00020000
00000000
00100000
00000000
00001000
00000000
,
00000100
00000000
00031000
00000000
00010000
01000000
10000000
00010000
,
10000000
00100000
00010000
00001000
00000100
00000001
00001000
00000001
,
00000010
00001000
00010000
01000000
10000000
00010000
10000000
00100000
,
00010000
00001000
00020000
00000000
01000000
00000000
00001000
00000000
,
00030010
00000000
00010000
00000000
00001000
00010000
01000000
10000000
,
01000000
00010000
00001000
00000010
00000001
00000100
00001000
00010000
,
00100000
10000000
01000000
00010000
00001000
00000010
00000001
00000100
,
00001000
00010000
00002000
00000000
00100000
00000000
00010000
00000000
,
00003010
00000000
00001000
00000000
00010000
00000000
00001000
00000000
00100000
00010000
00100000
00000000
01000000
00000000
10000000
00000000
,
00010000
01000000
00010000
01000000
00001000
00010000
00001000
00010000
,
00000100
00001000
00000100
00001000
00000010
00010000
00000010
00010000
,
00001000
00100000
00001000
00011000
00000000
00000100
00001000
00002020
,
00000000
00003030
00000000
00000001
00000010
00000100
00001000
00000100
,
00000000
00000010
00000001
00000100
00001000
00000000
00020000
00200000
,
00000000
00000000
00330000
10000000
00010000
10000000
01000000
00100000
,
00000000
00010000
01000000
00001000
00010000
00000100
00002000
00000002
,
00000000
00000000
00003003
00000001
00000100
00000010
00001000
00000100
,
00000010
00001000
00010000
01000000
00010000
00001000
00010000
00100000
,
01000000
00001000
00010000
00001000
00000010
00001000
00010000
00001000
,
00000100
00000000
00000000
00000101
00000000
00000000
00001100
00000000
,
00000000
00000000
00010000
00000000
00001000
00000000
00010000
00000000
01000000
00000000
00000000
10000000
00000000
00000000
00010000
00000000
,
10000000
00100000
01000000
00010000
00100000
00000000
00002000
00020000
,
00000000
00000000
00033000
00001000
00000010
00000001
00001000
00000010
,
00000000
00000100
00001000
00010000
01000000
00010000
00002000
00000020
,
00000000
00000000
00003030
00000001
00001000
00000001
00000100
00001000
,
00010000
00000000
01000000
00100000
00010000
10000000
00100000
10000000
,
01000000
00000000
00100000
00010000
01000000
00001000
00010000
00000100
,
00001000
00000010
00001000
00000010
00010000
00001000
00010000
00001000
,
01000000
00000000
00010000
00000000
00100000
00000000
00001000
00000000
00010000
00000000
00000000
00000010
00001000
00000000
00000001
00000000
,
00000200
00000000
00001300
00020000
00000000
01030000
00200000
00000000
,
00310000
10000000
00010000
01000000
00100000
00010000
00002000
00000000
,
00003020
00000000
00000130
00002000
00000000
00003001
00000100
00000010
,
00002000
00000100
00000020
00003030
,
00001000
00000001
00000100
00000001
00000010
00000100
00001000
00000010
00010000
00001000
00000000
00000000
,
00100000
00010000
01000000
00010000
10000000
01000000
00100000
00010000
01000000
00001000
00000000
00000000
,
00010000
00100000
00010000
00100000
00010000
00000100
00010000
00000100
,
00001000
00000000
00000010
00000000
00001000
00000000
00000001
00000000
00000010
00000000
00000000
00001000
00010000
00000000
00000000
00000000
,
00022000
00000000
00000000
00000000
00000000
00000000
00033000
00001000
,
00010000
01000000
10000000
00100000
00010000
00001000
00000100
00000001
,
00000010
00001000
00010000
01000000
10000000
00100000
00010000
00001000
,
00000100
00001000
00020000
00000000
01000000
00000000
00001000
00000000
,
00030010
00010000
00001000
00100000
00001000
00010000
00100000
10000000
,
00010000
10000000
00010000
10000000
01000000
00010000
01000000
00010000
,
00001000
00000100
00001000
00000100
00000001
00001000
00000001
00001000
,
00000010
00000000
00010000
00000000
00001000
00000000
00010000
00000000
00100000
00000000
00000000
10000000
00000000
00000000
01000000
00000000
,
00020000
00000000
00030000
00001000
00010000
00001000
00000010
00000100
,
00000000
00001000
00000001
00000100
00001000
00000000
00010000
00022000
,
00000000
00000000
00033000
00001000
00010000
01000000
00100000
00010000
,
00000000
10000000
00100000
10000000
00010000
00100000
00001000
00022000
,
00000000
00000000
00000000
00000000
00033000
00000000
00001000
00000000
00010000
00000000
00000010
00000000
00001000
00000100
00001000
00000000
,
00000001
00000100
00000010
00001000
00000100
00000010
00001000
00010000
,
00100000
00000000
01000000
00000000
00001000
00000000
00010000
00000000
01000000
00000000
00100000
00000000
00010000
00000000
10000000
00100000
,
10000000
00000000
00000000
01001000
00000000
00000000
00010100
00000000
,
00000000
00000000
00001000
00000000
00000001
00000000
00001000
00000000
00000010
00000000
00000000
00000100
00000000
00000000
00001000
00000000
,
00010000
00100000
01000000
00001000
00010000
01000000
00100000
00202000
,
00000000
00000000
00303000
00001000
00010000
00000010
00001000
00000001
,
00000010
00001000
00000010
00000100
00010000
00001000
00000100
00000220
,
00000000
00000000
00000330
00000001
00001000
00000001
00000010
00001000
,
00010000
00100000
00010000
00001000
00010000
01000000
10000000
00010000
,
01000000
00001000
00010000
00001000
00000010
00000010
00000010
00000010
,
00000001
00000010
00000100
00001000
00010000
00100000
01000000
20000000
,
00000000
30000000
00000000
00100000
10000000
00010000
01000000
00000000
,
10010000
00000000
10000000
01000000
00010000
00001000
00000100
00000001
,
00000010
00000001
00000100
00001000
00010000
01000000
10000000
00100000
,
01000000
00000000
00001000
00010000
00001000
00000010
00001000
00010000
,
00001000
00000100
00001000
00010000
00001000
01000000
00001000
00010000
,
00001000
00000000
00010000
00100000
00010000
00001000
00000010
00001000
,
00010000
00100000
00010000
00001000
00000010
00001000
00010000
01000000
,
00100000
00001000
00010000
00100000
00010000
00001000
00000010
00000002
,
00000000
00000103
00001000
00010000
00100000
10000000
01000000
00010000
,
00000000
00001000
00000010
00000001
00001000
00000010
00000000
00022000
,
00000000
00000000
00033000
00000000
;

//--------------- dance-double - forcednature ----------------
#NOTEDATA:;
#STEPSTYPE:dance-double;
#DESCRIPTION:forcednature;
#CREDIT:forcednature;
#DIFFICULTY:Hard;
#METER:18;
#RADARVALUES:0,0,0,0,0;
#NOTES:
00000000
00000000
00000000
00000000
,
00000000
00000000
00000000
00000000
,
00000000
00000000
00000000
00000000
,
00000000
00000000
00000000
00000000
,
00000000
00000000
00000000
00000000
,
00000000
00000000
00000000
00000000
,
00011000
00000000
00001000
00000100
00000001
00001000
00000100
00000010
,
00000110
00000000
00000000
00000000
00000001
00000000
00000100
00000000
00001000
00000000
00001000
00000000
00010000
00000000
00100000
10000000
,
00100000
00000000
01000000
00000000
00001000
00000000
00010000
00000000
00011000
00000000
00000000
00010100
00000000
00000000
00001001
00000000
,
00000220
00000330
00000000
00000000
,
00011000
00000000
00010000
01000000
10000000
00010000
01000000
00200000
,
00000000
00310000
00001000
00000010
00000100
00001000
00000001
00000200
,
00000000
00001300
00020000
00000000
01000000
00000000
00001000
00000000
,
00130000
00000000
00010000
00000000
00001000
00000000
00000010
00000000
00000100
00000000
00000100
00000000
00001000
00000000
00000001
00000100
,
00000010
00000000
00010000
00001000
00100000
00010000
10000000
00200000
,
00000000
00310000
00001000
00100000
01000000
00010000
00001000
00000100
,
00000101
00000000
00000010
00010000
00001000
01000000
00100000
10000000
,
01000000
00000000
00010000
00000000
00001000
00000000
00000010
00000000
00000000
00000000
00000100
00000000
00001000
00000000
00000001
00000100
,
00000010
00000000
00000100
00001000
00010000
01000000
00100000
00020000
,
00000000
10030000
00100000
00010000
00001000
00000010
00000001
00002000
,
00000000
00003100
00000020
00000000
00010000
00000000
00001000
00000000
,
00000031
00000000
00000010
00000000
00000100
00000000
00001000
00000000
00000010
00000000
00000010
00000000
00010000
00000000
00001000
01000000
,
00100000
00000000
10000000
00010000
00100000
00001000
00010000
00000200
,
00000000
00000000
00001300
00000000
00000001
00000000
00000100
00000000
00001000
00000000
00010000
00000000
01000000
00000000
10000000
00010000
,
01000000
00001000
00100000
00101000
00000000
00010010
00000000
01001000
,
00000000
00000000
00010100
00000000
00000100
00000000
00001001
00000000
00000000
00000000
00000001
00000000
00000010
00000000
00000100
00010000
,
00002000
00000000
00103000
00000000
00010000
00000000
10000000
01000000
00200000
00000000
00301000
00000000
00010000
00000000
00000010
00001000
,
00000200
00000000
00000310
00000000
00000001
00000000
00001000
00000010
00000200
00000000
00001300
00000000
00010000
00000000
01000000
10000000
,
00010000
01000000
00002000
00000000
00000100
00000000
00010000
00010000
,
00013000
00000000
00001000
00000000
00000010
00000000
00000001
00000000
00000100
00000010
00001000
00000000
00000100
00000000
00010000
00001000
,
02000000
00000000
03100000
00000000
10000000
00000000
01000000
00100000
00020000
00000000
01030000
00000000
00001000
00000000
00010000
00000100
,
00002000
00000000
00003010
00000000
00000100
00000000
00000001
00000010
00000200
00000000
00010300
00000000
00001000
00000000
01000000
00010000
,
00100000
01000000
00020000
00000000
00001000
00000000
00000010
00000010
,
00030010
00000000
00010000
00000000
00001000
00000000
00100000
00000000
01000000
10000000
00010000
00000000
01000000
00000000
00001000
00010000
,
00000020
00000000
00000130
00000000
00000001
00000000
00000010
00000100
00002000
00000000
00003010
00000000
00010000
00000000
00001000
00100000
,
00020000
00000000
01030000
00000000
00100000
00000000
10000000
01000000
00200000
00000000
00301000
00000000
00010000
00000000
00000010
00000100
,
00000001
00000010
00002000
00000000
00010000
00000000
00000100
00000100
,
00003100
00000000
00001000
00000000
00010000
00000000
01000000
00000000
10000000
00010000
10000000
00000000
00100000
00000000
00010000
00001000
,
00010000
00000000
00000100
00000000
00000010
00000000
00001000
00000000
00000010
00000000
00000001
00000000
00000100
00000000
00001000
00010000
,
00001000
00010000
00100000
00000000
10000000
00000000
01000000
00100000
00010000
10000000
00100000
00000000
01000000
00001000
00010000
00000100
,
00010000
00001000
00000100
00000102
00000000
00000013
00000100
00002002
,
00000000
00000000
00003003
00000000
00000000
00000000
00010000
00000000
00001000
00000000
00100000
00000000
01000000
00000000
10000000
00010000
,
01000000
00100000
00010000
00000010
00010000
00001000
00000010
00000012
,
00000000
00000000
00001000
00000000
00000000
00000000
00000103
00000000
00000001
00000000
00000010
00000000
00001000
00000000
00010000
00000100
,
00001000
00000010
00010000
00001000
01000000
00010000
10000000
12000000
,
00000000
00000000
00010000
00000000
00000000
00000000
03100000
00000000
01000000
00000000
00010000
00000000
00001000
00010000
00001000
00000000
,
00000100
00000001
00001000
00000000
00000100
00000000
00010000
00000000
00001000
00000000
01000000
00000000
00100000
00000000
00100000
00000000
,
10000000
01000000
00100000
00000000
00001000
00000000
00010000
00000000
00000010
00000000
00000010
00000000
00000010
00000000
00000100
00000001
,
00001000
00000000
00000000
00010100
00000000
00000000
01001000
00000000
,
00000000
00000000
00100000
00000000
00001000
00000000
00000100
00000000
00000110
00000000
00000000
00001001
00000000
00000000
00001000
00000100
,
00010000
00001000
00000100
00001000
00010000
01000000
00100000
00201000
,
00000000
00000000
00010000
00000000
00000000
00000000
10300000
00000000
00100000
00000000
00010000
00000000
01000000
00000000
00001000
00010000
,
00000100
00000010
00000001
00000100
00001000
00010000
00001000
00002010
,
00000000
01000000
00000000
00003100
00001000
00001000
00001000
00010000
,
01000000
10000000
00100000
00000000
01000000
00000000
00001000
00000000
00000010
00000000
00001000
00000000
00010000
00000000
00010000
00000000
,
00000100
00001000
00000001
00000000
00000100
00000000
00001000
00000000
00010000
00000000
01000000
00000000
10000000
00000000
00010000
01000000
,
00100000
00000000
00010000
00000000
00001000
00000000
00000010
00000000
00000100
00001000
00000010
00000000
00000100
00000000
00000001
00000000
,
00001000
00000100
00001000
00000100
00010000
00001000
00010000
00001000
01000000
00000000
00010000
10000000
00010000
00000000
01000000
00000000
,
00100000
00010000
00001000
00000000
00100000
00000000
00001000
00010000
00100000
00000000
00001000
00000000
00100000
00010000
00001000
00000000
,
00000010
00000001
00001000
00000000
00000010
00010000
00001000
00000000
00100000
00001000
00010000
00000000
00200000
00000000
10300000
00000000
,
01000000
00000000
00010000
00001000
00010000
00000000
00000020
00000000
00000000
00000000
00000130
00000001
00000010
00000000
00000100
00000000
,
00020000
00032000
00000000
02003000
03020000
00000000
00130000
00100000
,
01000000
10000000
00010000
01000000
00100000
00010000
00001000
00000010
00000100
00001000
00000001
00000100
,
00000010
00000000
00000000
00000000
00001000
00000000
00000000
00000000
00010000
00000000
00000000
00000000
00100000
00000000
00000000
00000000
01000000
00000000
00000000
00000000
10000000
00000000
00000000
00000000
00010000
00000000
00000000
00000000
01000000
00000000
00000000
00000000
00001000
00000000
00000000
00000000
00010000
00000000
00000000
00000100
00000000
00000000
00001000
00000000
00000000
00000000
00000000
00000000
,
00000001
00000000
00000100
00000000
00010000
00000000
01000000
00010000
10000000
00000000
01000000
00000000
00001000
00000000
00000100
00000000
,
00000010
00000000
00000000
00000001
00000000
00000000
00000010
00000000
00000000
00000001
00000000
00000000
00000100
00000000
00000000
00000001
00000000
00000000
00000100
00000000
00000000
00000001
00000000
00000000
00000010
00000000
00000000
00000000
00000000
00000000
00001000
00000000
00010000
00000000
00001000
00000000
00010000
00000000
00000000
00000000
00000000
00000000
00100000
00000000
00000000
00000000
00000000
00000000
,
01000000
00000000
00000000
00000000
00000000
00000000
00001000
00000000
00000000
00000000
00000000
00000000
00000100
00000000
00000000
00000000
00000000
00000000
00001000
00000000
00000000
00000000
00000000
00000000
00010000
00000000
00000000
00001000
00000000
00000000
00010000
00000000
00001000
00000000
00010000
00000000
00001000
00000000
00000000
00000000
00000000
00000000
01000000
00000000
00000000
00010000
00000000
00000000
,
20000000
00000000
31000000
00000000
00010000
00000000
00001000
00000010
00000200
00000000
00001300
00000000
00000001
00000000
00000100
00001000
,
00020000
00000000
00130000
00000000
01000000
00000000
00001000
00010000
00000200
00000000
00000310
00000000
00000001
00000000
00000100
00001000
,
00010000
01000000
00200000
00000000
10000000
00000000
00010000
00010000
,
00310000
00000000
00100000
00000000
00001000
00000000
01000000
00000000
00001000
00010000
00001000
00000000
00000010
00000000
00000100
00010000
,
00000100
00000000
00000001
00000000
00000100
00000000
00010000
00000000
00001000
00000000
01000000
00000000
10000000
00000000
01000000
00010000
,
01000000
00001000
00010000
00000000
00000100
00000000
00001000
00000100
00000010
00000001
00000100
00000000
00000010
00010000
00001000
00010000
,
01000000
00000000
10000000
00000000
00010000
00000000
01000000
00000000
00100000
00000000
00000000
00001000
00000000
00000000
00000010
00000000
,
00002002
00000000
00000000
00000000
00003003
00000000
00000001
00000000
00000100
00000000
00001000
00000000
00010000
00000000
01000000
10000000
,
00100000
01000000
00001000
00000010
00001000
01000000
00001000
00012000
,
00000000
00000000
00000100
00000000
00000000
00000000
00013000
00000000
00001000
00000000
00000010
00000000
00000001
00000000
00000100
00000010
,
00001000
00000100
00010000
01000000
10000000
00010000
01000000
01200000
,
00000000
00000000
00001000
00000000
00000000
00000000
10300000
00000000
00100000
00000000
00010000
00000000
00001000
00000010
00001000
00000000
,
00010000
00001000
00000100
00000000
00000001
00000000
00001000
00000000
00000100
00000000
00010000
00000000
00001000
00000000
00001000
00000000
,
01000000
00010000
00100000
00000000
01000000
00000000
10000000
00000000
00100000
00000000
00100000
00000000
00100000
00000000
00010000
00001000
,
00010000
00000000
00000000
00000101
00000000
00000000
00011000
00000000
,
00000000
00000000
10000000
00000000
01000000
00000000
00001000
00000000
01000000
00000000
00000000
00100000
00000000
00000000
00001000
00010000
,
00000010
00000100
00001000
00000100
00000001
00001000
00000100
00020100
,
00000000
00000000
00100000
00000000
00000000
00000000
00031000
00000000
00010000
00000000
01000000
00000000
10000000
00000000
00010000
01000000
,
00100000
00010000
00000010
00010000
00001000
00000010
00000001
00002001
,
00000000
00000000
00010000
00000000
00000000
00000000
00003010
00000000
00001000
00000000
00001000
00000000
00001000
00000100
00010000
00000000
,
00001000
01000000
00010000
00000000
00100000
00000000
10000000
00000000
00100000
00000000
00010000
00000000
01000000
00000000
01000000
00000000
,
00001000
00010000
00000100
00000000
00001000
00000000
00000001
00000000
00000100
00000000
00001000
00000000
00010000
00000000
00100000
00010000
,
00001000
00000010
00000100
00010000
01000000
00010000
00001000
00022000
,
00000000
00033000
00000000
01000000
00010000
00100000
00110000
00000000
,
00001000
00010000
00000100
00000000
00000010
00000000
00000001
00000000
00000010
00000000
00010000
00000000
00000010
00000000
00000100
00000000
,
00010000
00000000
00001000
00000000
01000000
00000000
10000000
00000000
01000000
00000000
00010000
00000000
00100000
00001000
00010000
00000000
,
00000100
00010000
00001000
00000000
00000010
00000000
00000001
00000000
00000100
00000000
00010000
00000000
00000100
00000000
00000001
00000000
,
00000010
00000000
00001000
00000000
00010000
00000000
01000000
00000000
10000000
00000000
10000000
00000000
00010000
00000000
00100000
00001000
,
00010000
00000100
00010000
00000000
00001000
00000000
00000010
00000000
00000001
00000000
00001000
00000000
00000010
00000000
00010000
00000000
,
00001000
01000000
00010000
00000000
00100000
00000000
01000000
00000000
10000000
00010000
00100000
00000000
00001000
00000000
00010000
00000100
,
00001000
00000010
00000100
00010000
00100000
00001000
00010000
00200000
,
00000000
00000000
00000000
00000000
00000000
00000000
10300000
00000000
00000000
00000000
00000000
00000000
00010000
00000000
00000000
00000000
00000000
00000000
00100000
00000000
00001000
00000000
00100000
00000000
00001000
00000000
00000000
00000000
00000000
00000000
00010000
00000000
00000000
00000000
00000000
00000000
00000100
00000000
00000000
00001000
00000000
00000000
00000001
00000000
00000000
00000100
00000000
00000000
,
00000000
00000001
00000100
00010000
01000000
10000000
00000000
00022000
,
00000000
00000000
00033000
00000000
;
