#VERSION:0.83;
#TITLE:UNDERWORLD HOLOGRAPHY;
#SUBTITLE:;
#ARTIST:BEMANI Sound Team "L.E.D." feat. KOTOKO;
#TITLETRANSLIT:;
#SUBTITLETRANSLIT:;
#ARTISTTRANSLIT:L.E.D. feat. KOTOKO;
#GENRE:DRUM & BASS;
#CREDIT:;
#MUSIC:UNDERWORLD HOLOGRAPHY.ogg;
#BANNER:UNDERWORLD HOLOGRAPHY.png;
#BACKGROUND:UNDERWORLD HOLOGRAPHY-bg.png;
#CDTITLE:./CDTitles/bm IIDX 26 Rootage.png;
#SAMPLESTART:58.210;
#SAMPLELENGTH:15.000;
#SELECTABLE:YES;
#OFFSET:0.326;
#BPMS:0.000=187.000;
#STOPS:;
#TIMESIGNATURES:0.000=4=4;
#DISPLAYBPM:187.000;
#JACKET:UNDERWORLD HOLOGRAPHY-jacket.png;
#BGCHANGES:0.000=UNDERWORLD HOLOGRAPHY.mp4=1.000=0=0=0=StretchNoLoop====,
99999.000=-nosongbg-=1.000=0=0=0=StretchNoLoop====
;
#FGCHANGES:;

//--------------- dance-single - forcednature ----------------
#NOTEDATA:;
#STEPSTYPE:dance-single;
#DESCRIPTION:forcednature;
#CREDIT:forcednature;
#DIFFICULTY:Beginner;
#METER:7;
#RADARVALUES:0,0,0,0,0;
#NOTES:
0000
0000
0000
0000
,
0000
0000
0000
0000
,
0000
0000
0000
0000
,
0000
0000
0000
0000
,
0000
0000
0000
0000
,
0100
0100
0100
0000
,
1001
0000
0001
0100
,
0010
1000
0001
1000
,
0100
0000
0010
0001
,
1000
0001
0100
0010
,
1000
0000
0001
0010
,
0100
1000
0010
0100
,
0001
0000
1000
0100
,
0110
0000
0000
0000
,
1001
0000
0000
0000
,
1000
0000
0001
0000
,
0100
0000
0000
0000
,
0010
0000
1000
0000
,
0001
0000
0000
0000
,
0010
0000
0100
0000
,
1000
0000
0000
0000
,
0010
0000
0100
0000
,
1001
0000
0000
0000
,
0001
0000
0010
0000
,
0100
0000
0000
0000
,
0010
0000
0001
0000
,
0100
0000
0000
0000
,
0010
0000
1000
0000
,
0001
0000
0000
0000
,
0010
0000
0100
0000
,
0010
0000
0000
0010
0000
0000
0010
0000
,
0000
0010
0000
0000
0010
0000
0000
0000
,
0001
1000
0001
0000
,
1000
0001
1000
0000
,
0010
0000
0000
0010
0000
0000
0010
0000
,
0000
0010
0000
0000
0010
0000
0000
0000
,
1000
0001
1000
0000
,
0001
1000
0001
0000
,
0100
0000
0000
0100
0000
0000
0100
0000
,
0000
0100
0000
0000
0100
0000
0000
0000
,
0001
1000
0001
0000
,
1000
0001
1000
0000
,
0100
0000
0000
0100
0000
0000
0100
0000
,
0000
0100
0000
0000
0100
0000
0000
0000
,
1001
0000
0000
0000
,
0010
0010
0010
0000
,
1001
0000
0110
0000
,
1000
0001
1000
0000
,
0010
0100
0010
0000
,
1000
0001
0010
0000
,
0110
0000
0100
1000
,
0001
0000
0100
0000
,
0110
0000
0010
1000
,
0001
0000
0010
0000
,
0110
0000
1001
0000
,
1000
0010
0100
0000
,
0001
1000
0100
0000
,
0010
0001
0100
0000
,
0110
0000
0010
1000
,
0001
0010
0100
0000
,
0110
0000
0010
0001
,
1000
0000
0010
0100
,
1001
0000
0001
0100
,
0010
0000
0010
0000
,
1001
0000
1000
0100
,
0220
0000
0000
0330
,
0001
1000
0000
0000
0000
0000
0000
0000
,
0000
0000
0000
0000
,
0001
1000
0000
0000
0000
0000
0000
0000
,
0000
0000
0000
0000
,
1000
0001
0000
0000
0000
0000
0000
0000
,
0000
0000
0000
0000
,
1000
0001
0000
0000
0000
0000
0000
0000
,
0100
0100
0100
0000
,
1001
0000
0110
0000
,
0001
1000
0010
0000
,
0100
0001
0010
0000
,
0100
1000
0010
0000
,
0110
0000
0100
0001
,
1000
0001
0010
0000
,
0110
0000
0100
1000
,
0010
0100
0001
0000
,
1001
0000
0110
0000
,
1000
0001
0010
0000
,
0100
1000
0010
0000
,
0100
0001
0010
0000
,
0110
0000
0100
1000
,
0001
0100
0010
0000
,
0110
0000
0010
0010
,
1001
0000
0000
0000
,
0110
0000
0001
0100
,
0010
1000
0001
1000
,
0100
0000
0010
0001
,
0100
0010
1000
0001
,
0010
0000
0100
1000
,
0001
0100
0010
1000
,
0001
0000
0000
0000
0100
0000
0000
2002
,
0000
0000
0000
0000
,
3003
0000
0000
0000
;

//--------------- dance-single - forcednature ----------------
#NOTEDATA:;
#STEPSTYPE:dance-single;
#DESCRIPTION:forcednature;
#CREDIT:forcednature;
#DIFFICULTY:Easy;
#METER:10;
#RADARVALUES:0,0,0,0,0;
#NOTES:
0000
0000
0000
0000
,
0000
0000
0000
0000
,
0000
0000
0000
0000
,
0000
0000
0000
0000
,
0000
0000
0000
0000
,
0001
1000
0001
1000
0001
1000
0001
0000
,
1001
0000
1000
0100
1000
0000
0010
0000
,
0100
0001
0010
0000
0100
1000
0001
0000
,
0110
0000
1000
0001
0100
0000
1000
0000
,
0100
0010
1000
0000
0001
0010
0100
0000
,
0110
0000
0010
0001
1000
0000
0010
0000
,
0100
0001
0010
0000
0100
1000
0001
0000
,
1001
0000
1000
0010
0100
0000
0001
0000
,
2002
0000
3003
0000
,
1010
1000
0100
0010
,
0001
0010
0100
0000
,
1000
0001
0100
0010
,
1000
0000
0001
0000
0010
0000
0100
1000
,
0100
0000
0010
0001
,
1000
0001
0100
0010
,
1000
0001
0000
0011
,
0010
1100
0000
1000
,
0010
0100
0010
0000
1000
0000
0001
0000
,
0010
0100
1000
0000
,
0001
0100
0001
0000
1000
0000
0010
0000
,
1000
0100
0010
0000
,
0001
1000
0001
0000
0100
0000
0010
0000
,
1000
0100
0010
0001
,
0100
0020
0000
0001
,
0000
0000
1030
0000
0100
0010
0100
0000
,
1001
0000
0000
0110
0000
0000
1001
0000
,
0000
1000
0001
0000
0001
0100
0001
0000
,
1100
0000
0001
0000
0010
0100
1000
0000
,
0001
0000
0100
0000
0010
1000
0001
0000
,
1001
0000
0000
0110
0000
0000
1001
0000
,
0000
1000
0001
0000
0100
0010
1000
0000
,
0110
0000
0001
0000
0010
0100
1000
0000
,
0001
0000
0100
0000
0010
1000
0001
0000
,
0110
0000
0000
1001
0000
0000
0110
0000
,
0000
1000
0001
0000
0100
0010
1000
0000
,
0110
0000
0001
0000
1000
0010
0100
0000
,
0001
0000
0010
0000
0100
1000
0001
0000
,
0110
0000
0000
1001
0000
0000
0110
0000
,
0000
1000
0001
0000
0100
0010
0100
0000
,
1001
0000
0000
0000
,
0001
1000
0001
1000
0001
1000
0100
0000
,
0011
0010
1100
0100
,
1001
0000
0110
0000
0001
0100
0010
1000
,
0001
0000
1000
0000
0100
0010
0001
0000
,
1000
0000
0010
0000
0100
0001
0010
0000
,
0100
1000
0100
0000
0010
0000
0001
1000
,
0000
0010
0000
0100
0001
0000
1000
0000
,
0100
0010
0100
0000
1000
0000
0001
0100
,
0000
0010
1000
0000
0001
0010
0100
0000
,
1010
0010
0101
0100
,
0110
0000
1001
0000
1000
0100
0010
0001
,
0100
0000
0010
0000
1000
0001
0010
0000
,
0100
0000
1000
0000
0001
0100
0010
1000
,
0001
0000
0010
0100
1000
0000
0001
0100
,
0000
0010
0000
1000
0001
0000
0010
0000
,
0110
0000
0100
1000
0001
0000
0100
0000
,
0220
0000
0000
0330
,
1000
0100
1000
0000
0001
0100
0001
0000
,
0010
0000
0000
0100
0000
0000
0000
0000
,
0001
0100
0001
0000
1000
0100
1000
0000
,
0220
0000
0000
0330
,
1000
0001
0000
0000
0000
0000
0000
0000
,
0000
0000
0000
0000
0000
0010
0010
0000
,
0001
1000
0000
0000
0000
0000
0000
0000
,
0000
0000
0000
0000
0000
0010
0010
0100
,
0001
1000
0000
0000
0000
0000
0000
0000
,
0000
0000
0000
0000
0000
0010
0100
0010
,
1000
0001
0000
0000
0000
0000
0000
0000
,
0010
0100
0010
0100
0010
0100
0010
0000
,
0101
1000
1100
0001
,
0110
0000
1001
0000
1000
0010
1000
0000
,
0001
0010
0100
0000
1000
0000
0001
0000
,
0100
0010
1000
0000
0001
0000
0010
0000
,
0100
1000
0100
0010
0001
0000
0100
0000
,
0010
1000
0001
0000
0100
0001
1000
0000
,
0001
0010
0100
1000
0001
0000
0100
0000
,
0010
1000
0001
0000
0010
0100
1000
0000
,
1010
0001
0011
1000
,
0110
0000
1001
0000
1000
0010
0100
0001
,
1000
0000
0100
0000
0010
0001
0010
0000
,
0100
0000
1000
0000
0001
0100
0010
0000
,
1000
0100
0010
0001
0100
0000
0010
1000
,
0000
0100
0000
0010
0001
0000
1000
0000
,
0110
0000
0001
0100
0001
0100
0010
0000
,
2002
3003
0000
0000
,
1000
0100
1000
0000
0001
0100
0001
0000
,
0020
0000
0000
0200
0000
0000
0330
0000
,
0001
0010
0001
0000
1000
0010
1000
0000
,
0200
0000
0000
0020
0000
0000
0330
0000
,
1000
0001
0100
0000
0001
1000
0100
0000
,
0020
0000
0000
0200
0000
0000
0330
0000
,
1000
0001
0100
0000
0010
1000
0001
0020
,
0000
0000
0000
0000
,
0030
0000
0000
0000
;

//--------------- dance-single - forcednature ----------------
#NOTEDATA:;
#STEPSTYPE:dance-single;
#DESCRIPTION:forcednature;
#CREDIT:forcednature;
#DIFFICULTY:Medium;
#METER:14;
#RADARVALUES:0,0,0,0,0;
#NOTES:
0000
0000
0000
0000
,
0000
0000
0000
0000
,
0000
0000
0000
0000
,
0000
0000
0000
0000
,
0000
0000
0000
0000
,
0100
0100
0100
0100
0100
0100
0010
0000
,
1001
0000
1000
0100
0010
0001
0100
0010
,
0000
1000
0001
0010
0100
1000
0001
1000
,
0010
0000
0100
1000
0100
0001
0100
0010
,
0000
1000
0001
0010
0100
1000
0001
0100
,
0010
0000
1000
0100
0001
0100
0010
0001
,
0000
1000
0001
0100
0010
1000
0001
0010
,
0100
0000
1000
0001
0100
1000
0100
0000
,
2002
0000
3003
0000
0001
0001
1000
0000
,
0010
1000
0001
1000
0000
0100
0010
0001
,
1000
0001
0100
0010
1000
0001
0010
0000
,
0100
1000
0001
1000
0010
0100
0001
1000
,
0000
1100
0000
0100
0010
0000
0001
0001
,
1000
1000
0001
0000
0100
0010
1000
0001
,
1000
0000
0100
0010
0000
0001
0010
0100
,
0000
1000
0002
0000
0100
0000
1000
0000
,
0010
0000
1000
0000
0103
0001
1000
0001
,
0010
0100
1000
0100
0001
0100
0010
0001
,
0000
1000
0010
0100
0000
0001
1001
0000
,
1000
0010
0001
0010
0100
0001
1000
0200
,
0000
0001
0000
1300
0100
0010
0001
0100
,
0010
1000
0010
0000
0100
0001
1000
0100
,
0010
0000
0100
1000
0000
0001
0001
0100
,
0000
0010
2000
0000
0100
0000
0001
0000
,
0010
0000
0000
0000
3001
0000
0000
0000
1000
0100
1000
0000
0001
0000
0100
0000
,
0110
0000
0000
1000
0000
0000
0110
0000
0000
0001
0000
0000
0110
0000
0000
1000
,
0001
0000
0000
0001
0100
0000
0001
0100
0000
0010
1000
0000
0001
0000
0010
0000
,
0100
0001
0100
1000
0001
1000
0010
0100
,
0000
0001
0100
1000
0000
0100
0110
0000
,
1001
0000
0000
0100
0010
0000
1001
0000
0000
0010
0100
0000
0110
0000
0000
1000
,
0001
0000
1000
0100
1000
0000
0001
0000
0100
0000
0100
0000
0010
1000
0010
1000
,
0001
0010
0100
0010
1000
0010
0100
1000
,
0001
0000
0001
0000
0100
0000
0010
1000
0000
0000
0001
0000
0010
0100
0010
0000
,
1100
0000
0000
1000
0001
0000
0101
0000
0000
0001
1000
0000
1100
0000
0000
1000
,
0001
0000
0010
0100
0010
0000
0010
0000
0001
0000
1000
0000
0010
0000
0100
0001
,
0100
0010
0001
0010
1000
0010
0100
0001
,
0000
1000
0100
0001
0000
0100
0110
0000
,
0011
0000
0000
0001
1000
0000
1010
0000
0000
1000
0001
0000
0011
0000
0000
0001
,
1000
0000
0001
0100
0001
0000
0001
0000
0010
0100
1000
0000
0002
0000
0003
0000
,
1001
0000
0000
0000
,
0010
0010
0010
0010
0010
0010
0100
0000
,
1001
0100
1000
0000
1001
0100
0001
0000
,
1000
0100
0010
0001
0100
0010
0001
0010
,
1000
0000
0001
0000
0010
0000
0000
0110
0000
0000
0100
0000
1000
0000
0000
0000
,
0001
0000
1000
0000
0010
0000
0000
0110
0000
0000
0100
0000
0001
0000
0000
0000
,
1000
0100
0001
0100
0010
0001
1000
0010
,
0000
0110
0000
0100
1000
0001
0010
1000
,
0001
1000
0100
0001
0100
0010
0001
1000
,
0000
0000
1010
0000
0000
0000
0101
0000
0000
0000
0001
0000
0010
0100
1000
0000
,
1010
0100
0001
0000
0011
0100
1000
0000
,
1001
0000
0110
0000
0001
0010
1000
0010
,
0100
1000
0001
1000
0010
0001
1000
0100
,
0001
0000
1000
0000
0100
0000
0010
0000
0001
0000
1000
0100
1000
0000
0001
0100
,
0001
0010
0001
0100
0001
0000
0010
0100
,
0000
1100
0000
1000
0010
0001
0010
0100
,
0110
0000
0001
1000
0100
0100
0100
0010
,
2002
0000
0000
3003
,
1000
0100
1100
0000
0001
0100
0101
0000
,
1020
0000
0000
0001
0000
0000
0130
0000
,
0001
0010
0011
0000
1000
0010
1010
0000
,
2002
0000
0000
3003
,
0100
0110
0000
0000
0000
0000
0000
0000
,
0000
0000
0000
0000
0000
0000
0000
0000
0000
0000
0001
1000
0001
0000
0010
0000
,
0100
0110
0000
0000
0000
0000
0000
0000
,
0000
0000
0000
0000
0000
0000
0000
0000
0000
0000
1000
0001
1000
0000
0010
0000
,
0100
0110
0000
0000
0000
0000
0000
0000
,
0000
0000
0000
0000
0000
0000
0000
0000
0000
0000
0001
1000
0001
0000
1000
0100
,
0010
0110
0000
0000
0000
0000
0000
0000
,
0010
0010
0010
0010
0010
0010
0100
0000
,
1001
0100
0001
0000
1001
0100
1000
0000
,
0110
0000
0001
0100
1000
0001
0010
1000
,
0100
0001
1000
0010
0100
1000
0001
1000
,
0010
0000
0100
0000
0001
0000
0010
0000
0100
0000
1000
0001
1000
0000
0010
0000
,
0100
0001
0100
0000
0010
0000
1000
0000
0100
0000
0000
0000
0010
0000
0001
0000
,
0000
0110
0000
0001
1000
0100
0010
0001
,
1000
0100
1000
0000
0010
0000
0100
0000
0001
0000
0010
0000
0100
0000
1000
0000
,
0000
0110
0000
1001
0000
0001
0100
1000
,
0110
0001
1000
0000
0110
1000
0001
0000
,
0110
0000
1001
0000
1000
0100
0001
0100
,
0010
0001
0010
0000
0100
0000
1000
0001
0000
0100
0001
0000
0010
0000
0000
0000
,
0100
0000
1000
0000
0001
0000
1000
0010
0000
0100
0001
0000
1000
0000
0001
0010
,
0001
0010
0100
1000
0010
0100
0001
0010
,
0000
0000
0110
0000
0000
0000
0100
0000
1000
0000
0001
0000
0100
0000
0001
1000
,
0001
0000
0010
0000
0100
0000
0100
0000
0100
0000
0100
0000
1000
0001
1000
0001
,
0200
0300
0000
0110
,
1001
0001
0100
0000
0010
1000
0100
0000
,
0021
0000
0000
1000
0000
0130
0010
0001
,
1000
0010
0001
0000
1000
0100
0001
0000
,
1020
0000
0000
0000
0000
0000
0001
0000
0000
0000
0130
0010
0100
0000
0001
0000
,
1000
0100
0001
0000
1000
0010
0001
0000
,
0021
0000
0000
0000
0000
0000
1000
0000
0000
0000
0130
0010
0100
0000
1000
0000
,
0001
0100
1000
0000
0100
0010
1000
2002
,
0000
0000
0000
0000
,
3003
0000
0000
0000
;

//--------------- dance-single - forcednature ----------------
#NOTEDATA:;
#STEPSTYPE:dance-single;
#DESCRIPTION:forcednature;
#CREDIT:forcednature;
#DIFFICULTY:Hard;
#METER:16;
#RADARVALUES:0,0,0,0,0;
#NOTES:
0000
0000
0000
0000
,
0000
0000
0000
0000
,
0000
0000
0000
0000
,
0000
0000
0000
0000
,
0000
0000
0000
0000
,
1000
0001
1000
0001
1000
0001
1000
0001
1000
0001
1000
0001
1000
0000
0010
0000
,
0110
0000
0000
0000
0001
0100
0010
1000
0001
0000
0010
0000
0100
0000
0010
0000
,
0000
0000
0001
0000
1000
0000
0010
0000
0100
0000
0001
1000
0001
0000
0010
0000
,
0100
0000
0000
0000
1000
0010
0100
0001
1000
0000
0100
0000
0010
0000
0001
0000
,
1000
0000
0010
0000
0100
0000
0001
0000
0010
0000
0100
1000
0002
0000
0103
0000
,
0010
0000
0000
0000
1000
0100
0010
0001
0100
0000
0010
0000
1000
0000
0001
0000
,
0010
0000
0100
0000
1000
0000
0001
0000
0100
0000
0010
1000
0010
0000
0100
0000
,
0001
0000
0000
0000
1000
0010
0100
0001
1000
0000
0100
0000
0010
0000
0001
0000
,
2002
0000
0000
0000
3003
0000
0000
0000
0001
1000
0001
1000
0001
1000
0010
0000
,
0100
0001
0100
0010
0000
1000
0100
0010
,
0100
1000
0000
0001
0100
1000
0100
0000
,
0010
1000
0001
0010
1000
0010
0100
1000
,
0000
1100
0000
0001
0010
0000
0001
0100
,
0020
0000
0001
0000
1030
0010
0100
0010
,
1000
0000
0001
0010
0100
1000
0001
1000
,
0010
0010
0100
0000
0001
1000
0100
0000
,
0110
0000
0000
0000
0010
0000
0001
0000
1000
0000
0001
0100
0001
0000
1000
0100
,
1000
0010
0100
0010
0001
0010
0100
0002
,
0000
0000
0010
0000
0000
0000
1000
0000
0000
0000
0103
0001
0100
0000
0000
0000
,
0010
1000
0100
0001
0100
1000
0100
0010
,
0000
0000
0001
0000
1000
0000
0010
0000
0100
0000
0001
0010
0001
0000
1000
0010
,
1000
1000
0100
0000
0010
0100
1000
0001
,
0100
0000
0000
0000
0010
0000
1000
0000
0001
0000
0010
0100
1000
0000
0001
0000
,
0100
0100
0010
0000
1000
0001
0010
0000
,
0110
0000
0000
0000
0100
0000
1000
0000
0001
0100
0001
0100
0010
0000
1000
0000
,
1001
0000
0000
1000
0100
0000
0110
0000
0000
0001
0100
0000
0110
0000
0000
0010
,
1000
0000
0001
0010
0100
0000
1000
0001
0100
0000
0100
0000
0010
1000
0010
0000
,
0100
0001
0010
0001
1000
0001
0100
0010
,
0000
0000
1000
0000
0100
0000
0001
0000
0100
0000
0010
0000
0001
1000
0001
0000
,
1001
0000
0000
0001
0100
0000
0110
0000
0000
1000
0100
0000
0110
0000
0000
0001
,
0100
0000
0010
1000
0010
0000
0100
0001
1000
0000
1000
0000
0100
0010
0001
0010
,
0001
0000
0100
0000
0010
0000
0100
0000
1000
0000
0100
0000
0010
0000
1000
0001
,
1000
0000
1000
0000
0100
0000
0010
0001
0000
0000
0001
0000
0100
0010
0100
0000
,
1001
0000
0000
1000
0100
0000
0011
0000
0000
0001
0100
0000
1010
0000
0000
1000
,
0001
0000
0010
0100
1000
0000
0001
0100
0010
1000
0010
0000
0100
0001
0100
0000
,
0010
0000
0001
0000
0010
0000
0100
0000
0010
0000
1000
0000
0100
0000
0010
0001
,
0010
0000
0100
0000
1000
0000
0001
0100
0001
0000
0010
0000
0100
1000
0001
0000
,
1001
0000
0000
0001
0100
0000
1010
0000
0000
1000
0100
0000
0011
0000
0000
0001
,
0100
0000
0010
1000
0010
0000
0010
0000
0100
0001
0100
0001
2000
0000
0100
0000
,
3001
0000
0000
0000
,
1000
0001
1000
0001
1000
0001
1000
0001
1000
0001
1000
0001
1000
0001
1000
0000
,
0010
0000
0100
0000
0101
0000
0000
1001
0000
0000
1000
0100
0010
0000
0001
0000
,
1000
0000
0001
0000
0101
0000
0000
1100
0000
0000
1000
0010
0100
0000
0001
0000
,
0010
0000
0100
0000
0110
0000
0000
0011
0000
0000
0001
1000
0010
0000
0100
0000
,
0001
0000
1000
0000
1100
0000
0000
1010
0000
0000
1000
0100
0010
0000
0001
0100
,
0010
1000
0100
0001
0100
0000
0010
0001
,
0000
0000
1001
0000
0000
0000
0001
0000
0100
0000
0010
1000
0001
0000
1000
0000
,
0100
0001
0100
1000
0010
0000
0100
0001
,
0000
0000
1001
0000
0000
0000
1000
0100
0010
0000
0001
1000
0001
0100
0010
1000
,
0001
0000
0010
0000
0110
0000
0000
1001
0000
0000
0001
0010
0100
0000
1000
0000
,
0001
0000
0100
0000
0110
0000
0000
1010
0000
0000
1000
0001
0010
0000
0100
0000
,
1000
0000
0001
0000
0011
0000
0000
1010
0000
0000
0001
1000
0010
0000
0100
0000
,
0001
0000
1000
0000
1001
0000
0000
0110
0000
0000
0001
1000
0001
0000
1000
0001
,
1000
0000
0010
0000
0001
0000
0010
0000
0100
0000
0001
1000
0001
0000
0010
0000
,
0100
0000
1000
0000
1100
0000
0000
0011
0000
0000
0001
1000
0001
0000
0100
0000
,
0010
0000
0010
0000
1000
0000
0001
0000
1000
0100
1000
0100
0010
0001
0010
0001
,
0200
0000
0000
0000
0000
0000
0000
0000
0300
0000
0001
1000
0001
0000
1000
0001
,
1000
0010
0100
0000
0001
0010
0100
0000
,
1200
0000
0000
0001
0000
0000
0320
0000
,
0031
0100
1000
0000
0001
0010
1000
0000
,
0220
0000
0000
0330
,
0010
1001
0000
0000
0000
0000
0000
0000
,
0000
0000
0000
0000
0000
0000
0000
0000
0000
0000
0001
0100
0010
0000
1000
0000
,
0100
1001
0000
0000
0000
0000
0000
0000
,
0000
0000
0000
0000
0000
0000
0000
0000
0000
0000
1000
0100
0010
0001
1000
0001
,
0100
1001
0000
0000
0000
0000
0000
0000
,
0000
0000
0000
0000
0000
0000
0000
0000
0000
0000
1000
0100
0010
0000
0001
0100
,
0001
1001
0000
0000
0000
0000
0000
0000
,
0001
1000
0001
1000
0001
1000
0001
1000
0001
1000
0001
1000
0001
0100
0010
1000
,
0001
0000
0010
0000
0110
0000
0000
1001
0000
0000
0001
0100
0010
0000
1000
0000
,
0100
0000
0010
0000
0011
0000
0000
1100
0000
0000
1000
0010
0100
0000
0001
0000
,
0100
0000
0010
0000
1010
0000
0000
0011
0000
0000
0001
1000
0100
0000
0010
0000
,
0001
0000
1000
0000
1010
0000
0000
0011
0000
0000
0001
0100
0010
0000
1000
0100
,
0010
0001
0010
1000
0010
0000
0100
1000
,
0000
0000
1001
0000
0000
0000
0001
0000
0100
0000
0010
1000
0001
0000
1000
0000
,
0010
0000
0001
0000
0010
0000
1000
0000
0100
0000
0010
0001
1000
0000
0001
0000
,
0100
0000
0100
0000
0010
0000
0010
1000
0010
0000
0100
0001
1000
0001
0010
0100
,
1000
0000
0001
0000
0110
0000
0000
1001
0000
0000
1000
0100
0010
0000
0001
0000
,
0100
0000
0010
0000
1001
0000
0000
0110
0000
0000
0001
0100
0010
0000
1000
0000
,
0001
0000
0010
0000
0101
0000
0000
1010
0000
0000
0001
1000
0100
0000
1000
0000
,
0010
0000
0100
0000
0101
0000
0000
0110
0000
0000
0001
1000
0100
0000
1000
0001
,
0100
0000
1000
0000
0100
0000
0001
0000
0010
0000
0100
1000
0100
0000
0010
0000
,
0001
0000
0100
0000
0110
0000
0000
1001
0000
0000
0001
0100
0010
0000
1000
0000
,
0100
0000
0100
0000
1000
0001
1000
0001
1000
0001
1000
0001
1000
0100
0010
0001
,
0200
0000
0000
0000
0000
0000
0000
0000
0300
0000
0001
1000
0001
0000
1000
0001
,
1000
1000
0010
0000
0001
0010
1000
0000
,
1200
0000
0000
0000
0000
0000
0001
0000
0000
0000
0310
0100
1000
0000
0000
0000
,
0001
0001
0010
0000
1000
0010
0001
0000
,
0201
0000
0000
0000
0000
0000
1000
0000
0000
0000
0310
0100
0001
0000
1000
0000
,
0001
0010
1000
0000
0001
0100
1000
0000
,
1020
0000
0000
0000
0000
0000
0001
0000
0000
0000
0130
0010
1000
0000
0001
0000
,
0010
0100
0110
0000
1000
0001
0100
2002
,
0000
0000
0000
0000
,
3003
0000
0000
0000
;

//--------------- dance-single - forcednature ----------------
#NOTEDATA:;
#STEPSTYPE:dance-single;
#DESCRIPTION:forcednature;
#CREDIT:forcednature;
#DIFFICULTY:Challenge;
#METER:18;
#RADARVALUES:0,0,0,0,0;
#NOTES:
0000
0000
0000
0000
,
0000
0000
0000
0000
,
0000
0000
0000
0000
,
0000
0000
0000
0000
,
0000
0000
0000
0000
,
0001
1000
0001
1000
0001
1000
0001
1000
0001
1000
0001
1000
0100
0010
0001
1000
,
0001
0000
0100
0001
1000
0010
0100
0001
1000
0000
0100
0000
0001
0000
0100
0000
,
0010
0000
0001
0000
1000
0000
0001
0000
0100
0000
0010
1000
0010
0000
0100
0000
,
0001
0000
1000
0100
0010
0001
1000
0100
0010
0000
0001
0000
0100
0000
0001
0000
,
0010
0000
0100
0000
0001
0000
0100
0000
1000
0000
0010
0100
0001
0000
0001
0010
,
0100
0000
1000
0010
0100
0001
1000
0010
0100
0000
0001
0000
0010
0000
0001
0000
,
0100
0000
1000
0000
0100
0000
0001
0000
0010
0000
0100
1000
0001
0000
0100
0000
,
0010
0000
0010
1000
0100
0010
0001
0100
0010
0000
1000
0000
0001
0000
0000
0000
,
2002
0000
0000
0000
3003
0000
0000
0000
1000
0001
1000
0001
0100
0010
1000
0001
,
0010
0100
1000
0100
0001
0100
0010
0001
,
1000
0000
0001
0000
0100
0000
0010
0000
1000
0000
0001
0010
0100
0000
0000
0000
,
1000
1000
0001
0100
1000
0100
0010
1000
,
0001
0000
1000
0000
0100
0000
0010
0000
0001
0000
1000
0010
0100
0000
0001
0010
,
0100
0100
1000
0000
0010
0100
0001
0000
,
0011
0000
0000
0000
0001
0000
1000
0000
0010
0000
0100
0001
1000
0000
0100
0000
,
0010
0010
0001
0000
0000
0100
0110
0000
,
0001
0000
0000
0000
1100
0000
0000
0000
1000
0000
0001
0100
0010
0000
1000
0001
,
0010
0100
0001
0100
1000
0001
1000
0010
,
0100
0000
0100
0000
0001
0000
1000
0000
0100
0000
0010
0001
1000
0000
0001
0000
,
0100
0100
1000
0100
0010
1000
0100
0020
,
0000
0000
1000
0000
0000
0000
0031
0000
0010
0000
0100
1000
0001
0000
0100
0010
,
1000
1000
0100
0000
0001
0100
0010
0001
,
1000
0000
0010
0000
0001
0000
0020
0000
0000
0000
0130
0010
1000
0000
0001
1000
,
0100
0100
0010
0000
0001
1000
0020
0000
,
0230
0000
0000
0000
0301
0000
1000
0000
0100
0010
0001
1000
0001
0100
0010
1000
,
0001
0000
0000
1000
0100
0000
1010
0000
0000
0001
0100
0000
0011
0000
0000
1000
,
0001
0000
0001
0010
0100
0000
1000
0001
0100
0010
1000
0000
0100
0010
0001
0000
,
0101
0000
0100
0000
0010
0000
0010
1000
0001
0000
1000
0100
0010
0000
0001
1000
,
0010
0000
0010
0000
0100
0000
0001
0010
0100
0000
1000
0001
0100
0010
1000
0001
,
0010
0000
0000
0001
0100
0000
0011
0000
0000
1000
0100
0000
1010
0000
0000
0001
,
0100
0000
0000
0000
0000
0000
0010
0000
1000
0000
0010
0000
1000
0000
0000
0000
0000
0000
0100
0000
0000
0010
0000
0000
0001
0000
0000
1000
0000
0000
0001
0000
0000
0000
0000
0000
0100
0000
0000
0010
0000
0000
1000
0000
0000
0001
0000
0000
,
0010
0000
0100
0000
0001
0000
0100
1000
0001
0000
1000
0010
0100
0000
0001
1000
,
0010
0000
0010
0000
0100
0000
0001
1000
0100
0000
0010
0001
1000
0001
0100
0010
,
1000
0000
0100
0010
0001
0000
0101
0000
0001
1000
0010
0000
0110
0000
0100
0001
,
1000
0000
0000
0000
0000
0000
0001
0000
0010
0000
0100
0000
1000
0000
0000
0000
0000
0000
0001
0000
0100
0000
0010
0000
1000
0000
0000
0001
0000
0000
1000
0000
0000
0000
0000
0000
0100
0000
0000
0000
0000
0000
0001
0000
0000
0100
0000
0000
,
1000
0000
0010
0000
0100
0000
0010
1000
0001
0000
0010
0100
1000
0000
0001
0100
,
0010
0000
0010
0000
1000
0000
0001
1000
0100
0000
0010
0001
1000
0001
0100
0010
,
1000
0000
0001
0010
0100
0000
0110
0000
0010
0001
1000
0000
1001
0000
0001
0100
,
0010
0000
0000
0000
0000
0000
1000
0000
0001
0000
1000
0000
0001
0000
0000
0000
0000
0000
0001
0000
0000
0000
0000
0000
0010
0000
0000
0100
0000
0000
1000
0000
0000
0001
0000
0000
0100
0000
0000
0010
0000
0000
1000
0000
0000
0001
0000
0000
,
0020
0000
0000
0000
,
0130
1000
0100
1000
0001
0100
0001
0100
0010
1000
0001
1000
0100
0010
0001
1000
,
0001
0100
0001
0100
0010
1000
0001
0000
1000
0100
1000
0100
0010
0001
1000
0000
,
0001
0100
0010
0000
1000
0100
0010
0000
0001
1000
0010
0100
0001
1000
0100
0010
,
0001
0000
0001
0000
0101
0000
1000
0010
0000
1000
0100
0010
0001
0000
0100
0010
,
0100
0000
0100
0000
1001
0000
1000
0001
0010
0000
0100
1000
0001
1000
0010
0100
,
0001
0000
0001
0000
0010
0000
1000
0010
0001
0000
1000
0010
0100
0000
0001
0000
,
0010
0000
0010
0000
0110
0000
0000
1100
0000
0000
1000
0001
0100
0000
0010
0000
,
1000
0000
1000
0000
1100
0000
0001
0100
0010
0000
1000
0001
0010
0000
0100
0000
,
0010
0000
0010
0000
1001
0000
0001
0100
0010
0000
1000
0100
0010
0001
0100
0010
,
1000
0010
1000
0010
0100
0001
1000
0000
0001
0010
0001
0010
0100
1000
0001
0000
,
0100
0001
1000
0000
0100
1000
0001
0000
0100
0010
1000
0001
0010
0100
1000
0001
,
0100
0000
0100
0000
0110
0000
0001
1000
0000
0001
0010
0100
1000
0000
0010
0100
,
0001
0000
0001
0000
0011
0000
0010
0100
1000
0000
0010
0100
0001
0100
0010
1000
,
0001
0000
0100
0000
0010
0000
0001
0010
1000
0000
0001
0010
0100
0000
1000
0000
,
0010
0000
0010
0000
0110
0000
0000
1001
0000
0000
1000
0001
0010
0000
0100
0000
,
1000
0000
0001
0000
1001
0000
1000
0100
0010
0001
0010
0001
1000
0010
0100
0001
,
0020
0000
0100
0000
0000
0000
0130
0000
0010
0000
0001
1000
0100
0000
1000
0001
,
0100
0100
0101
0000
0001
1000
0100
0000
,
0012
0000
0000
0000
0000
0000
1000
0000
0000
0000
0103
0001
1000
0000
0000
0000
,
0100
0100
1100
0000
1000
0001
0010
0000
,
1200
0000
0000
0000
0000
0000
0001
0000
0000
0000
0000
0310
0100
0000
0010
0000
,
0001
1001
0000
0000
0000
0000
0000
0000
,
0000
0000
0000
0000
0000
0000
0000
0000
0000
0000
1000
0100
0010
0000
0001
0000
,
1000
1001
0000
0000
0000
0000
0000
0000
,
0000
0000
0000
0000
0000
0000
0000
0000
0000
0000
0001
0100
0010
1000
0001
1000
,
0100
0110
0000
0000
0000
0000
0000
0000
,
0000
0000
0000
0000
0000
0000
0000
0000
0000
0000
0000
0000
0000
0000
0000
0000
0000
0000
0000
0000
0000
0000
0000
0000
0000
0000
0000
0000
0000
0000
0010
0000
0000
0001
0000
0000
1000
0000
0000
0000
0000
0000
0001
0000
0100
0000
0001
0000
,
0100
0110
0000
0000
0000
0000
0000
0000
,
1000
0001
1000
0001
1000
0001
1000
0001
1000
0100
0010
0001
1000
0001
0100
0010
,
1000
0100
0010
0001
0010
0100
1000
0000
0001
0100
0010
1000
0010
0100
0001
0000
,
1000
0100
0010
0000
0001
0100
0010
0000
1000
0001
0100
0010
0100
0001
1000
0100
,
0010
0000
0010
0000
0110
0000
0100
1000
0000
0001
0100
0010
1000
0000
0001
0010
,
0100
0000
0100
0000
1010
0000
1000
0001
0010
0000
0001
1000
0010
0100
0001
1000
,
0100
0000
0100
0000
0010
0000
0001
0100
1000
0000
0100
0001
1000
0000
0100
0000
,
0010
0000
0010
0000
0011
0000
0000
0101
0000
0000
0100
0010
1000
0000
0100
0000
,
0010
0000
0010
0000
1001
0000
1000
0100
0010
0000
0001
1000
0010
0000
0100
0000
,
0001
0000
0001
0000
0110
0000
1000
0001
1000
0000
0010
0100
0001
1000
0100
0010
,
0001
0100
0001
0010
0100
1000
0010
0000
1000
0100
1000
0010
0100
0001
0010
0000
,
0100
1000
0001
0000
0100
0001
1000
0000
0100
0010
0001
1000
0010
0100
0001
1000
,
0100
0000
0100
0000
0011
0000
0001
1000
0000
0001
0100
0010
1000
0000
0100
0010
,
0100
0000
0100
0000
0110
0000
0010
0001
1000
0000
0010
0100
0001
1000
0100
0010
,
0001
0000
0100
0000
0010
0000
1000
0100
0001
0000
0100
1000
0010
0000
0100
0000
,
0001
0000
0001
0000
1010
0000
0000
1100
0000
0000
0001
1000
0100
0000
0010
0000
,
0001
0000
0001
0000
1000
0001
1000
0001
1000
0100
0010
0001
1000
0001
0100
0010
,
1000
0000
0000
0000
0000
0000
0000
0000
0000
0000
0001
0100
0001
0000
1000
0100
,
1000
1000
1010
0000
0001
0010
0011
0000
,
2000
0000
0000
0000
0100
0000
3002
0000
0000
0000
0013
0001
0010
0000
0000
0000
,
0001
0001
0101
0000
1000
0100
1100
0000
,
0002
0000
0000
0000
0100
0000
2003
0000
0000
0000
3010
1000
0010
0000
0100
0000
,
0001
1000
1001
0000
0100
0010
1001
0000
,
2000
0000
0000
0000
0010
0000
3002
0000
0000
0000
0103
0001
1000
0000
0100
0000
,
0010
0100
1001
0000
0001
1000
0010
2002
,
0000
0000
0000
0000
,
3003
0000
0000
0000
;

//--------------- dance-double - forcednature ----------------
#NOTEDATA:;
#STEPSTYPE:dance-double;
#DESCRIPTION:forcednature;
#CREDIT:forcednature;
#DIFFICULTY:Easy;
#METER:10;
#RADARVALUES:0,0,0,0,0;
#NOTES:
00000000
00000000
00000000
00000000
,
00000000
00000000
00000000
00000000
,
00000000
00000000
00000000
00000000
,
00000000
00000000
00000000
00000000
,
00000000
00000000
00000000
00000000
,
00010000
00001000
00010000
00001000
00010000
00001000
00010000
00000000
,
00011000
00000000
00000100
00001000
00000100
00000000
00000010
00000000
,
00000001
00000100
00000010
00000000
00001000
00000100
00010000
00000000
,
00011000
00000000
00001000
01000000
00010000
00000000
10000000
00000000
,
01000000
00100000
00010000
00000000
00100000
00001000
00010000
00000000
,
00011000
00000000
00001000
00010000
00000010
00000000
00001000
00000000
,
00000100
00000010
00000001
00000000
00000100
00000010
00001000
00000000
,
00001001
00000000
00000001
00000010
00000100
00000000
00010000
00000000
,
00022000
00000000
00033000
00000000
,
00011000
01000000
00010000
10000000
,
00010000
00100000
01000000
00000000
,
10000000
00100000
01000000
00100000
,
00010000
00000000
00001000
00000000
00010000
00000000
00000100
00001000
,
00000100
00000000
00000010
00000001
,
00001000
00000001
00000100
00000010
,
00010000
00001000
00000000
00011000
,
00001000
01000000
00000000
00100000
,
10000000
00010000
10000000
00000000
01000000
00000000
00100000
00000000
,
00010000
00100000
00001000
00000000
,
00010000
00000010
00010000
00000000
00000100
00000000
00001000
00000000
,
00000100
00000010
00000001
00000000
,
00001000
00000010
00001000
00000000
00000100
00000000
00010000
00000000
,
00001000
01000000
00010000
10000000
,
01000000
00200000
00000000
00010000
,
00000000
10300000
00100000
01000000
,
10010000
00000000
00000000
01100000
00000000
00000000
10010000
00000000
,
00000000
10000000
00010000
00000000
01000000
00000000
00001000
00000000
,
00011000
00000000
00010000
00000000
00000100
00001000
00000100
00000000
,
00000010
00000001
00000100
00000010
,
00001001
00000000
00000000
00000110
00000000
00000000
00001001
00000000
,
00000000
00001000
00000100
00000000
00010000
00001000
00010000
00000000
,
00011000
00000000
00001000
00000000
01000000
00010000
01000000
00000000
,
00100000
10000000
01000000
00100000
,
01100000
00000000
00000000
10010000
00000000
00000000
01100000
00000000
,
00000000
00010000
01000000
00000000
00001000
00010000
00001000
00000000
,
00011000
00000000
00010000
00000000
00000100
00001000
00000100
00000000
,
00000010
00000001
00000100
00001000
,
00011000
00000000
00000000
00011000
00000000
00000000
00011000
00000000
,
00000000
00011000
00000000
00000000
00001000
01000000
00010000
00000000
,
10010000
00000000
00000000
00000000
,
10000000
00010000
10000000
00010000
10000000
00010000
00100000
00000000
,
02200000
03300000
20020000
30030000
,
11000000
00000000
00110000
00000000
00100000
00001000
00010000
00001000
,
00010000
00000000
00000010
00000000
00001000
00000100
00000010
00000000
,
00000001
00000000
00001000
00000000
00000001
00000100
00000010
00000000
,
00001000
00000001
00001000
00000000
00000100
00000000
00010000
00001000
,
00000000
01000000
00000000
00010000
01000000
00000000
00100000
00000000
,
10000000
00010000
10000000
00000000
01000000
00000000
00100000
00010000
,
00000000
00100000
00001000
00000000
00010000
00000010
00001000
00000000
,
00001010
00000100
00000011
00000100
,
00001001
00000000
00000110
00000000
00001000
00000100
00010000
00001000
,
00010000
00000000
00100000
00000000
10000000
00010000
00100000
00000000
,
01000000
00000000
10000000
00000000
00010000
01000000
00100000
10000000
,
01000000
00000000
00100000
00010000
00100000
00000000
00001000
00010000
,
00000000
00000010
00000000
00001000
00000001
00000000
00000010
00000000
,
00000110
00000000
00000100
00001000
00000010
00000000
00010000
00000000
,
00022000
00000000
00000000
00033000
,
00001000
01000000
00001000
00000000
01000000
00010000
01000000
00000000
,
00200000
00000000
00000000
20000000
00000000
00000000
30300000
00000000
,
10000000
01000000
10000000
00000000
00010000
00100000
00010000
00000000
,
02002000
00000000
00000000
03003000
,
00001000
00010000
00000000
00000000
00000000
00000000
00000000
00000000
,
00000000
00000000
00000000
00000000
00000000
00100000
00100000
00000000
,
00010000
00001000
00000000
00000000
00000000
00000000
00000000
00000000
,
00000000
00000000
00000000
00000000
00000000
00000010
00000010
00000000
,
00001000
00010000
00000000
00000000
00000000
00000000
00000000
00000000
,
00000000
00000000
00000000
00000000
00000000
01000000
01000000
00000000
,
00010000
00001000
00000000
00000000
00000000
00000000
00000000
00000000
,
00000010
00000100
00000010
00000100
00000010
00000100
00000010
00000000
,
00000220
00000330
00002002
00003003
,
00000101
00000000
00001010
00000000
00001000
00000010
00001000
00000000
,
00000100
00010000
00001000
00000000
01000000
00000000
00010000
00000000
,
10000000
01000000
00100000
00000000
00010000
00000000
01000000
00000000
,
00001000
00010000
00000100
00001000
00000100
00000000
00000010
00000000
,
00000001
00000100
00000010
00000000
00001000
00000100
00000010
00000000
,
00000100
00001000
00000100
00010000
00001000
00000000
01000000
00000000
,
00010000
10000000
00100000
00000000
10000000
00010000
00100000
00000000
,
02200000
03300000
20020000
30030000
,
01010000
00000000
10100000
00000000
10000000
00010000
10000000
01000000
,
00100000
00000000
00010000
00000000
01000000
00001000
00010000
00000000
,
00000100
00000000
00001000
00000000
00000001
00000100
00000010
00000000
,
00001000
00000100
00010000
00001000
00010000
00000000
00100000
01000000
,
00000000
00010000
00000000
10000000
01000000
00000000
00100000
00000000
,
01100000
00000000
01000000
10000000
00010000
10000000
00100000
00000000
,
02020000
03030000
00000000
00000000
,
00001000
00010000
00001000
00000000
00010000
00000100
00010000
00000000
,
00000020
00000000
00000000
00002000
00000000
00000000
00003030
00000000
,
00001000
00000001
00001000
00000000
00000100
00010000
00000100
00000000
,
00020000
00000000
00000000
00002000
00000000
00000000
00033000
00000000
,
01000000
00010000
01000000
00000000
00100000
10000000
00100000
00000000
,
20000000
00000000
00000000
00020000
00000000
00000000
30030000
00000000
,
10000000
01000000
10000000
00000000
00010000
00100000
00001000
00020000
,
00000000
00000000
00000000
00000000
,
00030000
00000000
00000000
00000000
;

//--------------- dance-double - forcednature ----------------
#NOTEDATA:;
#STEPSTYPE:dance-double;
#DESCRIPTION:forcednature;
#CREDIT:forcednature;
#DIFFICULTY:Medium;
#METER:14;
#RADARVALUES:0,0,0,0,0;
#NOTES:
00000000
00000000
00000000
00000000
,
00000000
00000000
00000000
00000000
,
00000000
00000000
00000000
00000000
,
00000000
00000000
00000000
00000000
,
00000000
00000000
00000000
00000000
,
00010000
00010000
00001000
00001000
00010000
00010000
00000100
00000000
,
00001100
00000000
00001000
00000001
00000100
00000010
00001000
00000001
,
00000000
00000100
00001000
00010000
00001000
00100000
00010000
00000000
,
10010000
00000000
10000000
01000000
00010000
01000000
00100000
00010000
,
00000000
00100000
00001000
00010000
00000010
00001000
00000001
00000000
,
00000110
00000000
00001000
00000001
00000100
00000010
00001000
00000001
,
00000000
00000100
00001000
00010000
00001000
00100000
00010000
00000000
,
01010000
00000000
01000000
00100000
10000000
00010000
00100000
00000000
,
02200000
00000000
03300000
00000000
01000000
01000000
00010000
00000000
,
00001000
00010000
00000100
00001000
00000000
00000001
00000100
00000010
,
00001000
00000100
00010000
00001000
01000000
00010000
00100000
00000000
,
01000000
10000000
00010000
10000000
00100000
00010000
00001000
00010000
,
00000000
00011000
00000000
00001000
00000010
00000000
00000100
00000100
,
00001000
00000001
00000100
00000000
00000010
00001000
00000010
00010000
,
00001000
00000000
00100000
00010000
00000000
00100000
10000000
00100000
,
00000000
01000000
20000000
00000000
01000000
00000000
00010000
00000000
,
00100000
00000000
00010000
00000000
31000000
10000000
00100000
10000000
,
01000000
00010000
00001000
00010000
00000010
00010000
00001000
00000010
,
00000000
00000100
00001000
00000001
00000000
00000100
00000110
00000000
,
00000010
00010000
00001000
00010000
00001000
01000000
00010000
10000000
,
00000000
11000000
00000000
01000000
00010000
00001000
00010000
00000000
,
00000100
00001000
00000010
00000000
00000100
00000001
00001000
00000001
,
00000010
00000000
00001000
00010000
00000000
00100000
00100000
01000000
,
00000000
00010000
20000000
00000000
01000000
00000000
00010000
00000000
,
00100000
00000000
00000000
00000000
30010000
00000000
00000000
00000000
10000000
01000000
10000000
00000000
00010000
00000000
01000000
00000000
,
00001000
00000000
00000000
00000100
00000000
00000000
00001000
00000000
00000000
00100000
00000000
00000000
00001000
00000000
00000000
00000010
,
00000000
00000000
00000000
00000001
00000010
00000000
00000100
00001000
00000000
00000100
00010000
00000000
00001000
00000000
01000000
00000000
,
00010000
10000000
00010000
00100000
01000000
10000000
00010000
10000000
,
00000000
00100000
00010000
00001000
00000000
00000010
00000110
00000000
,
00001001
00000000
00000000
00001000
00000000
00000000
00000100
00000000
00000000
00010000
00000000
00000000
00001000
00000000
00000000
01000000
,
00000000
00000000
00010000
10000000
00010000
00000000
00100000
00000000
01000000
00000000
01000000
00000000
10000000
00010000
10000000
00010000
,
01000000
00001000
00010000
00001000
00000010
00000100
00001000
00000001
,
00000000
00000000
00000100
00000000
00000100
00000000
00000010
00001000
00000000
00000000
00000100
00000000
00010000
00001000
00010000
00000000
,
00100000
00000000
00000000
10000000
00000000
00000000
01000000
00000000
00000000
00010000
00000000
00000000
00001000
00000000
00000000
00000010
,
00000100
00000000
00001000
00000001
00001000
00000000
00001000
00000000
00000010
00000000
00000100
00000000
00001000
00000000
00010000
00001000
,
00010000
00100000
10000000
00100000
01000000
00010000
01000000
00001000
,
00000000
00010000
00000100
00000010
00000000
00000001
00001001
00000000
,
00001100
00000000
00000000
00010100
00000000
00000000
00011000
00000000
00000000
01001000
00000000
00000000
01010000
00000000
00000000
00010000
,
10000000
00000000
10000000
01000000
00100000
00000000
00100000
00000000
00001000
00010000
00001000
00000000
00000020
00000000
00000030
00000000
,
00001001
00000000
00000000
00000000
,
00001000
00001000
00000001
00000001
00001000
00001000
00000001
00000000
,
00000100
00001000
00010000
00000000
01000000
00010000
00001000
00000000
,
00011000
00000000
00010000
00100000
01000000
00100000
10000000
00010000
,
10000000
00000000
01000000
00000000
00010000
00000000
00000000
00011000
00000000
00000000
00001000
00000000
00000100
00000000
00000000
00000000
,
00000010
00000000
00001000
00000000
00000001
00000000
00000000
00000011
00000000
00000000
00000010
00000000
00000100
00000000
00000000
00000000
,
00010000
00001000
00010000
00100000
01000000
00000000
00010000
10000000
,
00000000
01100000
00000000
00010000
01000000
00001000
00010000
00000100
,
00001000
00000001
00000100
00001000
00000100
00000000
00000010
00010000
,
00000000
00000000
00011000
00000000
00000000
00000000
00101000
00000000
00000000
00000000
00100000
00000000
01000000
10000000
01000000
00000000
,
00010000
00001000
00000010
00000000
00001000
00010000
00100000
00000000
,
01100000
00000000
10010000
00000000
10000000
01000000
00010000
01000000
,
00100000
00001000
00010000
00000010
00000100
00001000
00010000
00000000
,
00000100
00000000
00001000
00000000
00000100
00000000
00000010
00000000
00000001
00000000
00001000
00000010
00001000
00000000
00000001
00000100
,
00000001
00000010
00000001
00000100
00001000
00000000
00010000
00100000
,
00000000
01100000
00000000
01000000
00010000
10000000
00010000
00100000
,
01100000
00000000
01000000
10000000
00010000
00010000
00010000
01000000
,
00002000
00000000
00000000
00010000
00000000
00000000
00013000
00000000
,
00001000
00010000
00010100
00000000
00010000
00001000
01001000
00000000
,
20000000
00000000
00000000
01000000
00000000
00000000
30100000
00000000
,
10000000
01000000
00010000
00000000
00001000
00000100
00000001
00000000
,
00002002
00000000
00000000
00003003
,
00000100
00000110
00000000
00000000
00000000
00000000
00000000
00000000
,
00000000
00000000
00000000
00000000
00000000
00000001
00000100
00001000
,
00010000
00100000
00000000
00000000
00000000
00000000
00000000
00000000
,
00000000
00000000
00000000
00000000
00000000
00000000
00000000
00000000
00000000
00000000
10000000
00010000
10000000
00000000
01000000
00000000
,
00010000
00001000
00000000
00000000
00000000
00000000
00000000
00000000
,
00000000
00000000
00000000
00000000
00000000
00000000
00000000
00000000
00000000
00000000
00010000
00001000
00010000
00000000
00000100
00001000
,
00000001
00000100
00000000
00000000
00000000
00000000
00000000
00000000
,
00001000
00001000
00010000
00010000
00001000
00001000
00010000
00000000
,
00100000
10000000
01000000
00000000
00100000
00001000
01000000
00000000
,
01100000
00000000
00100000
10000000
01000000
00010000
00001000
00000010
,
00000100
00001000
00000001
00001000
00000010
00000100
00001000
00010000
,
00100000
00000000
01000000
00000000
00010000
00000000
10000000
00000000
01000000
00000000
00100000
00010000
00100000
00000000
00001000
00000000
,
00010000
00010000
00001000
00000010
00000100
00000000
00001000
00000001
,
00000000
00000110
00000000
00000001
00000100
00001000
00010000
00100000
,
10000000
10000000
01000000
00010000
00001000
00000000
00000010
00000100
,
00000000
00010100
00000000
01001000
00000000
01000000
00010000
10000000
,
01000000
00010000
00001000
00000000
00000100
00001000
00010000
00000000
,
01100000
00000000
10010000
00000000
10000000
00010000
01000000
00010000
,
00100000
00010000
00100000
00000000
00001000
00000000
00000000
00010000
00000000
00000000
00000010
00000000
00001000
00000000
00000100
00000000
,
00000010
00000000
00000001
00000000
00001000
00000000
00000000
00000010
00000000
00000000
00010000
00000000
00001000
00000000
00100000
00010000
,
00100000
01000000
00100000
00010000
10000000
00000000
00100000
01000000
,
00000000
00000000
01100000
00000000
00000000
00000000
00100000
00000000
10000000
00000000
01000000
00000000
00010000
00000000
00001000
00010000
,
00001000
00000000
00000000
00000000
00000010
00000000
00000010
00000000
00000010
00000000
00000010
00000000
00000001
00001000
00000001
00001000
,
00000020
00000030
00000000
00000110
,
00000100
00001000
00010000
00000000
01000000
00010000
00001000
00000000
,
00021000
00000000
00000000
00100000
00000000
00031000
00010000
00000000
,
00001000
01000000
00100000
00000000
00010000
00000100
00000010
00000000
,
00000002
00000000
00000000
00000000
00000000
00000000
00000100
00000000
00000000
00000000
00001003
00000001
00001000
00000000
00000010
00000000
,
00010000
00001000
00100000
00000000
01000000
10000000
00100000
00000000
,
02000000
00000000
00000000
00000000
00000000
00000000
10000000
00000000
00000000
00000000
03010000
01000000
00010000
00000000
00100000
00000000
,
00001000
00010000
00000010
00000000
00000100
00001000
00000100
00000002
,
00000000
00000000
00000000
00000000
,
00000003
00000000
00000000
00000000
;

//--------------- dance-double - forcednature ----------------
#NOTEDATA:;
#STEPSTYPE:dance-double;
#DESCRIPTION:forcednature;
#CREDIT:forcednature;
#DIFFICULTY:Hard;
#METER:17;
#RADARVALUES:0,0,0,0,0;
#NOTES:
00000000
00000000
00000000
00000000
,
00000000
00000000
00000000
00000000
,
00000000
00000000
00000000
00000000
,
00000000
00000000
00000000
00000000
,
00000000
00000000
00000000
00000000
,
00001000
00010000
00001000
00010000
00001000
00010000
00001000
00010000
00001000
00010000
00001000
00010000
00001000
00010000
00001000
00000000
,
01000000
00000000
00000000
00000000
00010000
00100000
01000000
10000000
00010000
00000000
01000000
00000000
00100000
00000000
01000000
00000000
,
00000000
00000000
00001000
00000000
00010000
00000000
00000100
00000000
00001000
00000000
00000001
00000100
00000001
00000000
00001000
00000000
,
00000100
00000000
00000000
00000000
00001000
00000010
00000100
00000001
00001000
00000000
00000100
00000000
00010000
00000000
00001000
00000000
,
01000000
00000000
00010000
00000000
00100000
00000000
01000000
00000000
00100000
00000000
00010000
10000000
00200000
00000000
01300000
00000000
,
00100000
00000000
00000000
00000000
10000000
01000000
00100000
00010000
01000000
00000000
00001000
00000000
00010000
00000000
00000100
00000000
,
00001000
00000000
00000001
00000000
00000100
00000000
00000010
00000000
00001000
00000000
00000100
00000010
00000100
00000000
00001000
00000000
,
00000001
00000000
00000000
00000000
00001000
00000010
00000100
00000001
00001000
00000000
00000100
00000000
00010000
00000000
00001000
00000000
,
00022000
00000000
00000000
00000000
00033000
00000000
00000000
00000000
00001000
00010000
00001000
00010000
00001000
00010000
00001000
00000000
,
01000000
00010000
01000000
00100000
00000000
10000000
01000000
00010000
,
00001000
00000100
00000000
00000001
00001000
00000100
00010000
00000000
,
00001000
01000000
10000000
01000000
00100000
10000000
01000000
00010000
,
00000000
00011000
00000000
00001000
00000100
00000000
00000001
00001000
,
00000200
00000000
00000001
00000000
00001300
00000100
00010000
00001000
,
01000000
00000000
00010000
00100000
01000000
10000000
00100000
00010000
,
00001000
00001000
00000010
00000000
00000100
00001000
00000010
00000000
,
00000110
00000000
00000000
00000000
00000100
00000000
00000001
00000000
00001000
00000000
00000100
00001000
00000100
00000000
00010000
00001000
,
00010000
00100000
01000000
00100000
10000000
00100000
00010000
00001000
,
00000000
00000000
00000010
00000000
00000000
00000000
00000100
00000000
00000000
00000000
00001000
00000001
00001000
00000000
00000000
00000000
,
00000010
00001000
00010000
01000000
00010000
00100000
01000000
10000000
,
00000000
00000000
00100000
00000000
01000000
00000000
00100000
00000000
00010000
00000000
00001000
00010000
00001000
00000000
00010000
00000100
,
00010000
00010000
00001000
00000000
00000010
00000100
00001000
00000001
,
00000100
00000000
00000000
00000000
00001000
00000000
00010000
00000000
00001000
00000000
01000000
00010000
10000000
00000000
01000000
00000000
,
00010000
00010000
00001000
00000000
00000010
00000100
00001000
00000000
,
00001001
00000000
00000000
00000000
00000001
00000000
00000100
00000000
00000010
00001000
00000010
00001000
00000100
00000000
00010000
00000000
,
00011000
00000000
00000000
00001000
01000000
00000000
01100000
00000000
00000000
00100000
10000000
00000000
10010000
00000000
00000000
00010000
,
00100000
00000000
01000000
10000000
01000000
00000000
00010000
00001000
00010000
00000000
00010000
00000000
00000010
00001000
00000010
00000000
,
00000100
00000001
00000010
00000001
00001000
00000001
00000100
00001000
,
00000000
00000000
00010000
00000000
01000000
00000000
00100000
00000000
01000000
00000000
10000000
00000000
00010000
10000000
00010000
00000000
,
10010000
00000000
00000000
10000000
01000000
00000000
01100000
00000000
00000000
00100000
00001000
00000000
00011000
00000000
00000000
00010000
,
00000010
00000000
00000100
00000001
00000100
00000000
00000010
00010000
00001000
00000000
00001000
00000000
00100000
00010000
00100000
00010000
,
10000000
00000000
00100000
00000000
01000000
00000000
00100000
00000000
00010000
00000000
00001000
00000000
00010000
00000000
00000100
00001000
,
00000100
00000000
00000100
00000000
00000010
00000000
00000001
00001000
00000000
00000000
00000010
00000000
00010000
00001000
00010000
00000000
,
00011000
00000000
00000000
00001000
00100000
00000000
01100000
00000000
00000000
01000000
10000000
00000000
10010000
00000000
00000000
00010000
,
01000000
00000000
00001000
00010000
00000100
00000000
00001000
00000100
00000010
00000001
00000010
00000000
00000100
00001000
00000100
00000000
,
00010000
00000000
00001000
00000000
00010000
00000000
00100000
00000000
00010000
00000000
00000100
00000000
00001000
00000000
00000001
00000100
,
00000001
00000000
00000010
00000000
00000100
00000000
00010000
00001000
00010000
00000000
00100000
00000000
01000000
00010000
10000000
00000000
,
10010000
00000000
00000000
00010000
00100000
00000000
01100000
00000000
00000000
01000000
00010000
00000000
00011000
00000000
00000000
00001000
,
00000100
00000000
00000010
00001000
00000010
00000000
00000010
00000000
00000100
00000001
00000100
00000001
00002000
00000000
00000000
00000000
,
00003100
00000000
00000000
00000000
,
00010000
00001000
00010000
00001000
00010000
00001000
00010000
00001000
00010000
00001000
00010000
00001000
00010000
00001000
00010000
00000000
,
00000100
00000000
00001000
00000000
00001001
00000000
00000000
00000101
00000000
00000000
00000100
00000010
00001000
00000000
00000010
00000000
,
00010000
00000000
00001000
00000000
00011000
00000000
00000000
00101000
00000000
00000000
00100000
00010000
10000000
00000000
00100000
00000000
,
01000000
00000000
00010000
00000000
01010000
00000000
00000000
01001000
00000000
00000000
00001000
00010000
00000100
00000000
00001000
00000000
,
00000001
00000000
00000100
00000000
00000110
00000000
00000000
00001010
00000000
00000000
00001000
00000100
00010000
00000000
00001000
01000000
,
00010000
00100000
01000000
00100000
10000000
00000000
00100000
01000000
,
00000000
00000000
10010000
00000000
00000000
00000000
10000000
00000000
00100000
00000000
01000000
00010000
10000000
00000000
01000000
00000000
,
00010000
00001000
00010000
00000100
00001000
00000000
00000010
00001000
,
00000000
00000000
00001001
00000000
00000000
00000000
00000001
00000010
00000100
00000000
00001000
00000100
00010000
00001000
00010000
00001000
,
01000000
00000000
00010000
00000000
01010000
00000000
00000000
10100000
00000000
00000000
10000000
01000000
00100000
00000000
00010000
00000000
,
01000000
00000000
00001000
00000000
00011000
00000000
00000000
00010100
00000000
00000000
00000100
00001000
00000001
00000000
00000100
00000000
,
00001000
00000000
00000100
00000000
00000110
00000000
00000000
00001010
00000000
00000000
00001000
00000100
00010000
00000000
00001000
00000000
,
01000000
00000000
00010000
00000000
10010000
00000000
00000000
01100000
00000000
00000000
10000000
01000000
10000000
00000000
00010000
01000000
,
00010000
00000000
00100000
00000000
00001000
00000000
00010000
00000000
00000010
00000000
00001000
00000001
00001000
00000000
00000100
00000000
,
00000010
00000000
00000001
00000000
00000101
00000000
00000000
00001010
00000000
00000000
00001000
00000010
00001000
00000000
00000100
00000000
,
00010000
00000000
00010000
00000000
00001000
00000000
01000000
00000000
00010000
00100000
00010000
00100000
01000000
10000000
01000000
10000000
,
00200000
00000000
00000000
00000000
00000000
00000000
00000000
00000000
00300000
00000000
01000000
00010000
01000000
00000000
00001000
00010000
,
00001000
00100000
00001000
00000000
00010000
00000010
00010000
00000000
,
00002000
00000000
00000000
00000010
00000000
00000000
02003000
00000000
,
03010000
00100000
10000000
00000000
00010000
01000000
10000000
00000000
,
02200000
00000000
00000000
03300000
,
10000000
00010000
00000000
00000000
00000000
00000000
00000000
00000000
,
00000000
00000000
00000000
00000000
00000000
00000000
00000000
00000000
00000000
00000000
01000000
00001000
00010000
00000000
00000100
00000000
,
00001000
00000001
00000000
00000000
00000000
00000000
00000000
00000000
,
00000000
00000000
00000000
00000000
00000000
00000000
00000000
00000000
00000000
00000000
00001000
00000010
00010000
00000010
00010000
00001000
,
00100000
00010000
00000000
00000000
00000000
00000000
00000000
00000000
,
00000000
00000000
00000000
00000000
00000000
00000000
00000000
00000000
00000000
00000000
01000000
00010000
01000000
00000000
00001000
00010000
,
00001000
00011000
00000000
00000000
00000000
00000000
00000000
00000000
,
00010000
00001000
00010000
00001000
00010000
00001000
00010000
00001000
00010000
00001000
00010000
00001000
00010000
00000100
00001000
00000100
,
00000010
00000000
00000001
00000000
00000101
00000000
00000000
00001010
00000000
00000000
00001000
00000100
00010000
00000000
00001000
00000000
,
01000000
00000000
00010000
00000000
01010000
00000000
00000000
10100000
00000000
00000000
10000000
01000000
00100000
00000000
00010000
00000000
,
00100000
00000000
00001000
00000000
00011000
00000000
00000000
00010010
00000000
00000000
00000010
00001000
00000001
00000000
00000010
00000000
,
00000100
00000000
00001000
00000000
00001100
00000000
00000000
00010100
00000000
00000000
00010000
00001000
01000000
00000000
00010000
01000000
,
00100000
10000000
00100000
00010000
00100000
00000000
01000000
00001000
,
00000000
00000000
00011000
00000000
00000000
00000000
00010000
00000000
00000100
00000000
00001000
00000001
00000100
00000000
00000010
00000000
,
00001000
00000000
00000010
00000000
00010000
00000000
00001000
00000000
00100000
00000000
00010000
10000000
00100000
00000000
00010000
00000000
,
00100000
00000000
00100000
00000000
01000000
00000000
01000000
00010000
01000000
00000000
00001000
00010000
00000100
00001000
00000100
00000010
,
00000001
00000000
00000100
00000000
00000110
00000000
00000000
00001001
00000000
00000000
00001000
00000100
00010000
00000000
00001000
00000000
,
01000000
00000000
00010000
00000000
00110000
00000000
00000000
11000000
00000000
00000000
10000000
00010000
01000000
00000000
00100000
00000000
,
10000000
00000000
01000000
00000000
01100000
00000000
00000000
10010000
00000000
00000000
10000000
00010000
01000000
00000000
00001000
00000000
,
00010000
00000000
00000100
00000000
00001100
00000000
00000000
00000011
00000000
00000000
00000001
00001000
00000010
00000000
00010000
00001000
,
00010000
00000000
00000100
00000000
00001000
00000000
00000010
00000000
00010000
00000000
00001000
00100000
00001000
00000000
00010000
00000000
,
00100000
00000000
01000000
00000000
01100000
00000000
00000000
10010000
00000000
00000000
10000000
01000000
00100000
00000000
00010000
00000000
,
01000000
00000000
01000000
00000000
00001000
00010000
00001000
00010000
00001000
00010000
00001000
00010000
00000100
00001000
00000100
00000010
,
00000002
00000000
00000000
00000000
00000000
00000000
00000000
00000000
00000003
00000000
00000100
00000001
00001000
00000000
00000100
00000010
,
00000001
00000001
00000100
00000000
00001000
00010000
00100000
00000000
,
02100000
00000000
00000000
00000000
00000000
00000000
10000000
00000000
00000000
00000000
03010000
01000000
00100000
00000000
00000000
00000000
,
10000000
10000000
01000000
00000000
00010000
00001000
00000010
00000000
,
00000021
00000000
00000000
00000000
00000000
00000000
00001000
00000000
00000000
00000000
00000130
00000010
00000001
00000000
00001000
00000000
,
00000001
00000100
00001000
00000000
00010000
00100000
10000000
00000000
,
12000000
00000000
00000000
00000000
00000000
00000000
00010000
00000000
00000000
00000000
13000000
01000000
00100000
00000000
00010000
00000000
,
00100000
00001000
00011000
00000000
00010000
00000010
00000100
00002000
,
00000000
00000000
00000000
00000000
,
00003000
00000000
00000000
00000000
;

//--------------- dance-double - forcednature ----------------
#NOTEDATA:;
#STEPSTYPE:dance-double;
#DESCRIPTION:forcednature;
#CREDIT:forcednature;
#DIFFICULTY:Challenge;
#METER:19;
#RADARVALUES:0,0,0,0,0;
#NOTES:
00000000
00000000
00000000
00000000
,
00000000
00000000
00000000
00000000
,
00000000
00000000
00000000
00000000
,
00000000
00000000
00000000
00000000
,
00000000
00000000
00000000
00000000
,
00001000
00010000
00001000
00010000
00001000
00010000
00001000
00010000
00001000
00010000
00001000
00010000
00001000
01000000
00010000
10000000
,
00100000
00000000
10000000
01000000
00100000
00010000
00100000
00001000
00010000
00000000
00000010
00000000
00001000
00000000
00000010
00000000
,
00000100
00000000
00000001
00000000
00001000
00000000
00000001
00000000
00000010
00000000
00000100
00001000
00000100
00000000
00010000
00000000
,
00001000
00000000
01000000
00010000
10000000
00010000
00100000
01000000
10000000
00000000
00100000
00000000
01000000
00000000
00100000
00000000
,
00010000
00000000
00001000
00000000
00010000
00000000
00000010
00000000
00000100
00000000
00000001
00001000
00000100
00000000
00000100
00010000
,
00001000
00000000
01000000
00010000
10000000
00100000
01000000
00010000
10000000
00000000
01000000
00000000
00100000
00000000
00010000
00000000
,
01000000
00000000
00001000
00000000
00010000
00000000
00000100
00000000
00001000
00000000
00000001
00000100
00000010
00000000
00001000
00000000
,
00000100
00000000
00000100
00010000
00001000
00100000
00010000
00100000
01000000
00000000
10000000
00000000
00010000
00000000
00000000
00000000
,
20020000
00000000
00000000
00000000
30030000
00000000
00000000
00000000
10000000
00010000
10000000
00010000
10000000
01000000
00100000
00010000
,
00100000
01000000
00010000
01000000
00010000
00001000
00000100
00000010
,
00000100
00000000
00000001
00000000
00000010
00000000
00000100
00000000
00000010
00000000
00000001
00001000
00000010
00000000
00000000
00000000
,
00000100
00000100
00001000
00010000
00100000
01000000
00100000
10000000
,
00010000
00000000
10000000
00000000
01000000
00000000
00010000
00000000
00001000
00000000
00010000
00000100
00001000
00000000
00000010
00001000
,
00000001
00000001
00000010
00000000
00000100
00010000
00001000
00000000
,
00011000
00000000
00000000
00000000
00010000
00000000
00001000
00000000
01000000
00000000
00010000
10000000
01000000
00000000
00100000
00000000
,
00010000
00010000
01000000
00000000
10000000
01000000
01100000
00000000
,
10010000
00000000
00000000
00000000
10000000
00000000
01000000
00000000
00100000
00000000
00010000
01000000
00001000
00000000
00010000
00000100
,
00001000
00000010
00000100
00000010
00000001
00000010
00001000
00000100
,
00010000
00000000
00010000
00000000
00001000
00000000
01000000
00000000
00010000
00000000
10000000
01000000
00100000
00000000
00010000
00000000
,
01000000
01000000
00001000
00010000
00000100
00001000
00000100
00000020
,
00000000
00000000
00000001
00000000
00000000
00000000
00001030
00000000
00000010
00000000
00000100
00001000
00000001
00000000
00000100
00000010
,
00001000
00001000
00010000
00000000
01000000
00010000
00100000
00010000
,
01000000
00000000
00100000
00000000
10000000
00000000
02000000
00000000
00000000
00000000
03100000
01000000
10000000
00000000
00010000
10000000
,
00100000
00100000
00010000
00000000
00001000
00000010
00000200
00000000
,
00002300
00000000
00000000
00000000
00003001
00000000
00000100
00000000
00000010
00001000
00000010
00010000
00001000
01000000
00010000
01000000
,
00100000
00000000
00000000
10000000
01000000
00000000
01100000
00000000
00000000
00100000
00001000
00000000
00011000
00000000
00000000
00010000
,
00000010
00000000
00000010
00000100
00000001
00000000
00001000
00000100
00000010
00000001
00001000
00000000
00000010
00010000
00001000
00000000
,
00011000
00000000
00010000
00000000
00100000
00000000
00100000
10000000
00010000
00000000
10000000
01000000
00100000
00000000
00010000
01000000
,
00001000
00000000
00001000
00000000
00010000
00000000
00000100
00001000
00000001
00000000
00000100
00000010
00001000
00000010
00000100
00000001
,
00001000
00000000
00000000
00001000
00000100
00000000
00000110
00000000
00000000
00000010
00000001
00000000
00001001
00000000
00000000
00001000
,
00000010
00000000
00000000
00000000
00000000
00000000
00010000
00000000
00001000
00000000
00010000
00000000
00001000
00000000
00000000
00000000
00000000
00000000
01000000
00000000
00000000
00010000
00000000
00000000
10000000
00000000
00000000
00010000
00000000
00000000
00100000
00000000
00000000
00000000
00000000
00000000
01000000
00000000
00000000
10000000
00000000
00000000
00010000
00000000
00000000
10000000
00000000
00000000
,
00100000
00000000
01000000
00000000
10000000
00000000
01000000
00010000
10000000
00000000
01000000
00100000
00010000
00000000
00100000
00001000
,
00010000
00000000
00010000
00000000
00000010
00000000
00001000
00000100
00000010
00000000
00000001
00001000
00000001
00000100
00000010
00001000
,
00000010
00000000
00010000
00001000
00100000
00000000
01100000
00000000
01000000
10000000
00010000
00000000
01010000
00000000
01000000
00100000
,
10000000
00000000
00000000
00000000
00000000
00000000
01000000
00000000
10000000
00000000
01000000
00000000
10000000
00000000
00000000
00000000
00000000
00000000
00010000
00000000
00100000
00000000
00010000
00000000
00100000
00000000
00000000
00001000
00000000
00000000
00010000
00000000
00000000
00000000
00000000
00000000
00000010
00000000
00000000
00000000
00000000
00000000
00000100
00000000
00000000
00001000
00000000
00000000
,
00010000
00000000
00000100
00000000
00001000
00000000
00000100
00000010
00000001
00000000
00001000
00000010
00010000
00000000
00001000
00100000
,
00010000
00000000
00010000
00000000
01000000
00000000
00100000
10000000
01000000
00000000
00100000
00010000
10000000
00010000
01000000
00100000
,
10000000
00000000
01000000
00010000
00001000
00000000
00011000
00000000
00010000
00001000
00000100
00000000
00000110
00000000
00000010
00001000
,
00000100
00000000
00000000
00000000
00000000
00000000
00001000
00000000
00000001
00000000
00001000
00000000
00000001
00000000
00000000
00000000
00000000
00000000
00000100
00000000
00000000
00000000
00000000
00000000
00001000
00000000
00000000
00010000
00000000
00000000
00001000
00000000
00000000
00010000
00000000
00000000
00001000
00000000
00000000
01000000
00000000
00000000
00010000
00000000
00000000
01000000
00000000
00000000
,
00200000
00000000
00000000
00000000
,
10300000
01000000
10000000
01000000
00100000
00010000
00100000
00010000
10000000
00010000
01000000
00001000
00010000
00001000
00010000
00000100
,
00001000
00000100
00001000
00000100
00010000
00001000
01000000
00000000
00010000
01000000
00010000
01000000
00001000
00010000
00000100
00000000
,
00001000
00000001
00000100
00000000
00000001
00001000
00000100
00000000
00010000
00001000
01000000
00010000
10000000
01000000
00100000
00010000
,
01000000
00000000
01000000
00000000
01100000
00000000
00100000
10000000
00000000
00010000
10000000
01000000
00100000
00000000
00010000
01000000
,
00001000
00000000
00001000
00000000
00011000
00000000
00010000
00000100
00001000
00000000
00000010
00001000
00000100
00000010
00000001
00001000
,
00000010
00000000
00000010
00000000
00000100
00000000
00001000
00010000
00100000
00000000
01000000
00010000
10000000
00000000
01000000
00000000
,
00010000
00000000
00010000
00000000
00011000
00000000
00000000
00010100
00000000
00000000
00000100
00001000
00000001
00000000
00000100
00000000
,
00001000
00000000
00001000
00000000
00011000
00000000
00010000
00001000
01000000
00000000
00010000
10000000
01000000
00000000
00100000
00000000
,
00010000
00000000
00010000
00000000
10010000
00000000
10000000
00100000
01000000
00000000
00010000
00100000
01000000
00100000
00010000
01000000
,
00001000
00010000
00001000
00010000
00000100
00001000
00000010
00000000
00010000
00001000
00010000
00001000
01000000
00010000
00100000
00000000
,
01000000
10000000
00010000
00000000
01000000
00001000
00010000
00000000
00000100
00001000
00000100
00000010
00000001
00001000
00000001
00000100
,
00000010
00000000
00000010
00000000
00000110
00000000
00000100
00001000
00000000
00010000
00001000
00100000
00001000
00000000
01000000
00010000
,
10000000
00000000
10000000
00000000
11000000
00000000
01000000
00100000
00010000
00000000
00100000
00001000
00010000
00000010
00001000
00000010
,
00001000
00000000
00000100
00000000
00000010
00000000
00001000
00000010
00000001
00000000
00000010
00000100
00001000
00000000
00000010
00000000
,
00010000
00000000
00010000
00000000
00011000
00000000
00000000
01001000
00000000
00000000
01000000
00010000
10000000
00000000
01000000
00000000
,
00100000
00000000
00010000
00000000
01010000
00000000
01000000
00001000
00010000
00000100
00010000
00000100
00001000
00000010
00000100
00000001
,
00002000
00000000
00000100
00000000
00000000
00000000
00003010
00000000
00001000
00000000
00000100
00010000
00001000
00000000
01000000
00010000
,
00100000
00100000
01100000
00000000
01000000
10000000
00010000
00000000
,
00120000
00000000
00000000
00000000
00000000
00000000
00001000
00000000
00000000
00000000
01030000
00010000
10000000
00000000
00000000
00000000
,
01000000
01000000
01100000
00000000
00100000
00001000
00010000
00000000
,
00002010
00000000
00000000
00000000
00000000
00000000
00010000
00000000
00000000
00000000
00000000
00003100
00001000
00000000
00000001
00000000
,
00000100
00000110
00000000
00000000
00000000
00000000
00000000
00000000
,
00000000
00000000
00000000
00000000
00000000
00000000
00000000
00000000
00000000
00000000
01000000
00010000
10000000
00000000
01000000
00000000
,
00100000
01100000
00000000
00000000
00000000
00000000
00000000
00000000
,
00000000
00000000
00000000
00000000
00000000
00000000
00000000
00000000
00000000
00000000
00000100
00001000
00000001
00000100
00000010
00001000
,
00000100
00000110
00000000
00000000
00000000
00000000
00000000
00000000
,
00000000
00000000
00000000
00000000
00000000
00000000
00000000
00000000
00000000
00000000
00000000
00000000
00000000
00000000
00000000
00000000
00000000
00000000
00000000
00000000
00000000
00000000
00000000
00000000
00000000
00000000
00000000
00000000
00000000
00000000
01000000
00000000
00000000
00010000
00000000
00000000
10000000
00000000
00000000
00000000
00000000
00000000
00010000
00000000
00100000
00000000
00010000
00000000
,
00100000
01100000
00000000
00000000
00000000
00000000
00000000
00000000
,
00000001
00001000
00000001
00001000
00000001
00001000
00000001
00001000
00000001
00000100
00000010
00001000
00000010
00010000
00001000
00010000
,
00000100
00001000
00000100
00010000
00001000
00100000
00010000
00000000
01000000
00010000
01000000
00001000
00010000
00000010
00001000
00000000
,
00000100
00010000
00001000
00000000
01000000
00001000
00010000
00000000
00100000
01000000
00100000
10000000
00010000
10000000
01000000
00100000
,
00010000
00000000
00010000
00000000
01010000
00000000
01000000
00001000
00000000
00010000
00000100
00001000
00000100
00000000
00000010
00000001
,
00001000
00000000
00001000
00000000
00001010
00000000
00000010
00010000
00001000
00000000
00100000
00010000
00100000
01000000
10000000
00010000
,
01000000
00000000
01000000
00000000
00100000
00000000
10000000
01000000
00010000
00000000
01000000
00010000
00001000
00000000
00000010
00000000
,
00000100
00000000
00000100
00000000
00001100
00000000
00000000
00001001
00000000
00000000
00000001
00000100
00000010
00000000
00010000
00000000
,
00001000
00000000
00001000
00000000
00011000
00000000
01000000
00010000
10000000
00000000
01000000
00100000
00010000
00000000
01000000
00000000
,
00001000
00000000
00001000
00000000
00011000
00000000
00010000
00000100
00010000
00000000
00001000
00010000
00000010
00001000
00000010
00000100
,
00000001
00000010
00000100
00001000
00000100
00010000
00001000
00000000
10000000
00100000
01000000
00010000
01000000
00001000
00010000
00000000
,
00000100
00010000
00001000
00000000
01000000
00001000
00010000
00000000
00100000
01000000
00100000
10000000
00010000
10000000
01000000
00100000
,
00010000
00000000
00010000
00000000
00110000
00000000
00100000
00001000
00000000
00010000
00000010
00001000
00000010
00000000
00000100
00000001
,
00001000
00000000
00001000
00000000
00001100
00000000
00000100
00000010
00000001
00000000
00001000
00000001
00000100
00000010
00001000
00000010
,
00010000
00000000
00001000
00000000
00100000
00000000
00010000
01000000
10000000
00000000
01000000
00100000
10000000
00000000
01000000
00000000
,
00010000
00000000
00010000
00000000
00011000
00000000
00000000
00000110
00000000
00000000
00000001
00001000
00000010
00000000
00000100
00000000
,
00001000
00000000
00001000
00000000
00010000
00001000
00010000
00001000
01000000
00010000
00100000
01000000
10000000
00100000
01000000
00010000
,
00100000
00000000
00000000
00000000
00000000
00000000
00000000
00000000
00000000
00000000
00001000
00010000
00000100
00000000
00001000
00000100
,
00010000
00010000
00011000
00000000
00001000
01000000
01010000
00000000
,
20000000
00000000
00000000
00000000
00000000
00000000
30020000
00000000
00000000
00000000
00031000
00000010
00001000
00000000
00000000
00000000
,
00000100
00000100
00000110
00000000
00001000
00000001
00001001
00000000
,
00000002
00000000
00000000
00000000
00000000
00000000
00002003
00000000
00000000
00000000
00013000
00100000
00010000
00000000
01000000
00000000
,
00100000
00100000
01100000
00000000
10000000
00010000
10010000
00000000
,
20000000
00000000
00000000
00000000
00000000
00000000
30020000
00000000
00000000
00000000
00031000
00000010
00001000
00000000
00000100
00000000
,
00000010
00000010
00000110
00000000
00000001
00001000
00010000
20000000
,
00000000
00000000
00000000
00000000
,
30000000
00000000
00000000
00000000
;
