#VERSION:0.83;
#TITLE:UMMU;
#SUBTITLE:;
#ARTIST:t+pazolite;
#TITLETRANSLIT:;
#SUBTITLETRANSLIT:;
#ARTISTTRANSLIT:;
#GENRE:OSHARave;
#CREDIT:;
#MUSIC:UMMU.ogg;
#BANNER:UMMU.png;
#BACKGROUND:UMMU-bg.png;
#CDTITLE:./CDTitles/bm IIDX 25 CANNON BALLERS.png;
#SAMPLESTART:99.154;
#SAMPLELENGTH:15.000;
#SELECTABLE:YES;
#OFFSET:0.325;
#BPMS:0.000=180.000;
#STOPS:;
#BGCHANGES:0.000=../BGAs/20te.mp4=1.000=0=0=0=StretchNoLoop====,
99999.000=-nosongbg-=1.000=0=0=0=StretchNoLoop====
;
#FGCHANGES:;

//--------------- dance-single - forcednature ----------------
#NOTEDATA:;
#STEPSTYPE:dance-single;
#DESCRIPTION:forcednature;
#DIFFICULTY:Beginner;
#METER:5;
#RADARVALUES:0,0,0,0,0;
#CREDIT:forcednature;
#NOTES:
0000
0000
0000
0000
,
0000
0000
0000
0000
,
0000
0000
0000
0000
,
0000
0000
0000
0000
,
0000
0000
0000
0000
,
0000
0000
0000
0000
,
0000
0000
0000
0000
,
1000
0000
0000
0000
,
0000
0000
0000
0000
,
0001
0000
0000
0000
,
0100
0000
0000
0000
,
0110
0000
0000
0000
,
0010
0000
0000
0000
,
1001
0000
0000
0000
,
0100
0000
0000
0000
,
0110
0000
0000
0000
,
0001
0000
0000
0000
,
1001
0000
0000
0000
,
1000
0000
0000
0000
,
0110
0000
0000
0000
,
0001
0000
0100
0000
,
0001
0000
0000
0000
,
1000
0000
0100
0000
,
1000
0000
0000
0000
,
0010
0000
0100
0000
,
0020
0000
0000
0030
,
2002
0000
0000
3003
,
1000
0100
0000
1000
,
0000
0100
0000
1000
,
0001
0100
0000
0001
,
0000
0100
0000
0001
,
1000
0010
0000
1000
,
0000
0010
0000
1000
,
0001
0010
0000
0001
,
0000
0100
0100
0100
,
0000
0001
0010
0001
,
0000
0010
0001
0010
,
0000
0100
0010
0100
,
2000
0000
3001
0001
,
0000
1000
0010
1000
,
0000
0010
0100
0010
,
0000
0100
0001
0200
,
0000
0000
0000
0300
,
1001
0000
0000
0000
,
1000
0000
0100
0000
,
1000
0000
0001
0000
,
0010
0000
0001
0000
,
1000
0000
0000
0000
,
0001
0000
0100
0000
,
0001
0000
1000
0000
,
0010
0000
0000
0000
,
1001
0000
1000
0000
,
0100
0000
1000
0000
,
1001
0000
0001
0000
,
0100
0000
0001
0000
,
0110
0000
0010
0000
,
0100
0000
0010
0000
,
0001
0001
0001
0000
,
1000
1000
1000
0010
,
0000
0000
0000
0000
,
0000
0000
0000
0000
,
0000
0000
0000
0000
,
0000
0000
0000
0000
,
0001
0000
0000
0000
,
1000
0000
0000
0000
,
0010
0000
0000
0000
,
0100
0000
0000
0000
,
1001
0000
1000
0000
,
0100
0000
0000
0000
,
1000
0000
0001
0000
,
0100
0000
0000
0000
,
0001
0000
0010
0000
,
0001
0000
0100
0000
,
2002
0000
0000
3003
,
0000
0000
0000
0000
,
0110
0000
0001
0000
,
1000
0000
0010
0000
,
1000
0000
0100
0000
,
0010
0000
0001
0000
,
1000
0000
0010
0000
,
1000
0000
0001
0000
,
0010
0000
0100
0000
,
0010
0010
0010
0000
,
1001
0000
0001
0000
,
0100
0100
0100
0000
,
1001
0000
1000
0000
,
0100
0100
0100
0000
,
0110
0000
0001
0000
,
1000
1000
1000
0000
,
0010
0010
0010
0000
,
0110
0000
0000
1001
;

//--------------- dance-single - forcednature ----------------
#NOTEDATA:;
#STEPSTYPE:dance-single;
#DESCRIPTION:forcednature;
#DIFFICULTY:Easy;
#METER:9;
#RADARVALUES:0,0,0,0,0;
#CREDIT:forcednature;
#NOTES:
0000
0000
0000
0000
,
0000
0000
0000
0000
,
0000
0000
0000
0000
,
0000
0000
0000
0000
,
0000
0000
0000
0000
,
0000
0000
0000
0000
,
0000
0000
0000
0000
,
1000
0000
0100
0000
,
1000
0000
0001
0000
,
0010
0000
0001
0000
,
0100
0000
0010
0000
,
1001
0000
0000
1001
0000
0000
0000
0000
,
0100
0000
0000
0100
0000
0000
0100
0000
0000
0000
0000
0000
0000
0000
0000
0000
,
1001
0000
0000
1001
0000
0000
0000
0000
,
0010
0000
0000
0010
0000
0000
0010
0000
0000
0000
0000
0000
0000
0000
0000
0000
,
0110
1000
0001
0100
,
0110
0001
1000
0100
,
0110
0001
1000
0010
,
1000
0001
1000
0000
0001
0000
1000
0000
,
1002
0000
0000
0000
,
0100
0100
0100
0013
,
2001
0000
0000
0000
,
0100
0100
0100
3010
,
1002
0000
1000
0000
,
0100
0100
1000
0013
,
1000
0001
1000
0000
0001
0000
1001
0000
,
0100
0000
0000
0100
0000
0000
0020
0000
0000
0000
0000
0000
0030
0000
0000
0000
,
1001
0000
1000
0100
1000
0000
0100
0010
,
0100
0000
1000
0100
1000
0000
0001
0000
,
1001
0000
0001
0100
0001
0000
0100
0010
,
0100
0000
0001
0100
0001
0000
0010
0000
,
1001
0000
1000
0010
1000
0000
0010
0100
,
0010
0000
1000
0010
1000
0000
0100
0000
,
1001
0000
0001
0010
0001
0000
0010
0100
,
0020
0100
0130
0110
,
1001
0000
0001
0100
0001
0000
0100
0010
,
0100
0000
0001
0100
0001
0000
0010
0000
,
1001
0000
1000
0100
1000
0000
0100
0010
,
0200
0000
0310
0110
,
1001
0000
1000
0010
1000
0000
0010
0100
,
0010
0000
0100
0001
0100
0000
0010
0000
,
1000
0100
1000
0000
0001
0100
0001
0000
,
0020
0000
0000
0030
,
1001
0001
0100
0001
,
1000
0010
1000
0000
,
0001
0010
0001
0000
0010
0000
0100
0000
,
1000
0100
1000
0000
0100
0000
0010
0000
,
0001
0000
1000
1000
,
0001
0001
1000
0000
,
0001
0100
0001
0000
0100
0000
0010
0000
,
1000
1000
0001
0001
,
1001
0000
1000
0000
0100
0000
1000
0100
,
1000
0000
0100
0010
0100
0000
0010
0000
,
1001
0000
0001
0000
0100
0000
0001
0100
,
0001
0000
0100
0010
0100
0000
0010
0000
,
1001
0000
1000
0000
0100
0000
0010
0100
,
0010
0000
0001
0000
0100
0000
0010
0100
,
0020
2030
3002
0023
,
0130
0110
0010
1001
,
2000
0000
0000
0000
,
3200
0000
0000
0000
,
0320
0000
0000
0000
,
0032
0000
0000
0000
,
1003
0010
1000
0000
,
0010
0100
0010
0000
,
0100
0001
0100
0000
,
0001
1000
0010
0000
,
1001
0000
0001
0010
,
0001
1000
0100
1000
,
1001
0000
1000
0010
,
1000
0001
0100
0100
,
1001
0001
0010
0100
,
1001
1000
0010
0100
,
0001
0010
0001
0000
1000
0010
1000
0000
,
0100
0000
0000
0100
0000
0000
0010
0000
0100
0000
0000
0000
0110
0000
0000
0000
,
1001
1000
0100
0010
,
0100
1000
0010
0000
0100
0000
0001
0000
,
1001
1000
0100
0010
,
0001
0100
0010
0000
1000
0000
0001
0000
,
1001
1000
0010
0100
,
0001
0010
0100
0000
0010
0000
0001
0000
,
1001
0000
1000
0000
0010
0000
0100
0001
,
0020
0230
2300
3001
,
1001
0000
1000
0010
0100
0000
0010
1000
,
0002
0000
0000
0010
0000
0000
0020
0000
0000
0000
0000
0000
0033
0000
0000
0000
,
1001
0000
0001
0010
0100
0000
0010
0001
,
2000
0000
0000
0010
0000
0000
0020
0000
0000
0000
0000
0000
3030
0000
0000
0000
,
1001
0000
0001
0100
0010
0000
0100
0001
,
1000
0000
1000
0100
0010
0000
0100
1000
,
0001
0000
0100
0010
0100
0010
0100
0000
,
0001
0000
0000
1000
0000
0000
2002
0000
0000
0000
0000
0000
3003
0000
0000
0000
;

//--------------- dance-single - forcednature ----------------
#NOTEDATA:;
#STEPSTYPE:dance-single;
#DESCRIPTION:forcednature;
#DIFFICULTY:Medium;
#METER:14;
#RADARVALUES:0,0,0,0,0;
#CREDIT:forcednature;
#NOTES:
0000
0000
0000
0000
,
0000
0000
0000
0000
,
0000
0000
0000
0000
,
0000
0000
0000
0000
,
0000
0000
0000
0000
,
0000
0000
0000
0000
,
0000
0000
0000
0000
,
0000
0000
0001
0000
0100
0000
0000
0000
0001
0000
0000
1000
0000
0000
0010
0000
,
0000
1000
0000
0000
0001
0000
0000
0000
0100
0000
0000
0001
0000
0000
1000
0000
,
0000
0000
0100
0000
1000
0000
0000
0000
0001
0000
0000
0010
0000
0000
0001
0000
,
0000
1000
0000
0000
0100
0000
0000
0000
1000
0000
0010
0000
0100
0000
0001
0000
,
1000
0010
0000
2020
0000
0000
3030
0000
,
0001
0000
0000
0011
0000
0000
1100
0000
0000
0000
0001
0000
1000
0000
0100
0000
,
0010
0001
0000
0022
0000
0000
0033
0000
,
0001
0000
0000
0101
0000
0000
2020
0000
0000
0000
0000
0000
3030
0000
0000
0000
,
0001
0100
0001
0010
0100
1000
0001
0000
,
0100
0000
0000
0110
0000
0000
1001
0000
0000
0000
0001
0000
0010
0000
0100
0000
,
1000
0010
1000
0100
0010
0001
0100
0000
,
0001
1000
0001
1000
0010
0010
0100
0100
,
0002
0100
0100
1000
,
1000
0010
0013
0011
,
2100
0100
0100
0001
,
0001
0010
3010
1010
,
0001
0100
0001
0010
0001
0100
0001
0000
,
1000
0100
1000
0010
1000
0100
1000
0000
,
0010
0100
0001
1000
0010
0100
0110
0000
,
1000
0000
0000
0001
0000
0000
2002
0000
0000
0000
0000
0000
3003
0000
0000
0000
,
0110
0000
1000
0100
0001
0100
1000
0100
,
0001
0100
1000
0100
0001
0100
1000
0001
,
0010
0000
0001
0100
1000
0100
0001
0100
,
0010
0000
1000
0010
1000
0000
0100
1000
0100
0000
0000
0000
0110
0000
0000
0000
,
1001
0000
1000
0100
0001
0100
1000
0100
,
0001
0100
1000
0100
0001
0100
1000
0001
,
0010
0000
0000
0000
0001
0000
0100
0000
0010
0100
0010
0000
1000
0010
1000
0000
,
0002
0000
0023
0000
0130
1000
1100
0000
,
1001
0000
0001
0100
1000
0100
0001
0010
,
1000
0010
0001
0100
1000
0100
0001
0010
,
0110
0000
1000
0100
0001
0100
1000
0010
,
0200
0000
1000
1000
1300
0000
0101
0000
,
1001
0000
1000
0010
0001
0010
1000
0100
,
0001
0100
1000
0010
0001
0010
1000
0100
,
0010
1000
0010
0001
0100
1000
0100
0001
,
2000
0100
0001
3010
,
1001
0000
0001
0010
0100
0010
0001
1000
,
0100
1000
0001
0000
0100
0001
1000
0000
,
0010
0000
0000
1000
0010
0000
0100
0000
0010
0100
0000
0001
0100
0000
0001
0000
,
0010
0100
1000
0100
0010
0000
0110
0000
,
1000
0000
0000
0001
0100
0000
0020
0000
0000
0000
1000
0000
1000
0000
1000
0000
,
0030
0010
0100
0100
0001
0100
0010
1000
,
0001
0000
0000
0010
0001
0000
1000
0000
0100
0000
1000
0100
0000
0010
0100
0000
,
1000
1010
0101
0011
,
1100
0000
0001
0010
0100
0010
1000
0010
,
0001
0000
0001
0100
1000
0100
0001
0000
,
1000
0010
0001
0010
1000
0001
0100
0000
,
0001
0000
0000
0010
0000
0000
1000
0000
0000
0010
0000
0000
0001
0000
0000
0000
0000
0000
1000
0000
0001
0000
1000
0000
,
0001
0000
0001
0100
0010
0000
0010
1000
,
0001
0000
0001
0010
0100
1000
0001
0010
,
0100
1000
0001
1000
0010
0100
0001
0000
,
0011
0101
1100
1010
,
2000
0000
0000
0000
,
3200
0000
0000
0000
,
0320
0000
0000
0000
,
0032
0000
0000
0003
,
0100
0001
0100
0000
0010
0000
1000
0000
,
0100
1000
0100
0000
0010
0000
0001
0000
,
1000
0010
0100
0000
0001
0000
0010
0000
,
0100
1000
0001
0000
0100
0000
0010
0000
,
1001
0000
1000
0100
0001
0000
0100
0000
,
1000
0000
0001
0100
1000
0000
0100
0000
,
0001
0000
1000
0010
0001
0000
0010
0000
,
1000
0000
0001
0010
1000
0010
0001
0000
,
0011
0000
0001
0100
0010
0000
0010
1000
,
0001
0000
1000
0100
0010
0000
0010
0001
,
1000
0010
0100
0010
1000
0001
0200
0300
,
0001
1000
0000
0001
1000
0000
0001
0000
2002
0000
0000
0000
3003
0000
0000
0000
,
1000
0100
0010
0100
1000
0001
0010
0001
,
1000
0010
0000
0100
0010
0000
1000
0001
0000
0100
0001
0000
1000
0000
0000
0000
,
0001
0010
0100
0010
0001
0100
0010
0100
,
0001
0010
0000
0100
0010
0000
0100
1000
0000
0001
0010
0000
0001
0000
0000
0000
,
1000
0100
0001
0100
1000
0001
0010
0001
,
1000
0010
0000
0100
0001
0000
1000
0001
0000
0100
0010
0000
1000
0000
0000
0000
,
0001
0010
1000
0010
0001
1000
0100
1000
,
1010
0110
0101
1001
,
1000
0000
0100
0000
1000
0000
0001
0000
0010
0000
0001
0010
0001
0000
0010
0000
,
0002
0000
0000
0203
0000
0000
0020
0000
0000
0000
0000
0000
0330
0000
0000
0000
,
0001
0000
0100
0000
0001
0000
1000
0000
0010
0000
1000
0010
1000
0000
0010
0000
,
2000
0000
0000
3200
0000
0000
0020
0000
0000
0000
0000
0000
0330
0000
0000
0000
,
0001
0000
0010
0000
0001
0000
0100
0000
0010
0000
0100
0010
0100
0000
0001
0000
,
1000
0000
0010
0000
1000
0000
0100
0000
0010
0000
0100
0010
0100
0000
1000
0000
,
0001
0000
0100
0000
0010
0000
0100
0000
0001
1000
0001
1000
0010
0000
0000
0000
,
0100
0000
0000
0110
0000
0000
2002
0000
0000
3003
0000
0000
0110
0000
0000
0000
;

//--------------- dance-single - forcednature ----------------
#NOTEDATA:;
#STEPSTYPE:dance-single;
#DESCRIPTION:forcednature;
#DIFFICULTY:Hard;
#METER:17;
#RADARVALUES:0,0,0,0,0;
#CREDIT:forcednature;
#NOTES:
0000
0000
0000
0000
,
0000
0000
0000
0000
,
0000
0000
0000
0000
,
0000
0000
0000
0000
,
0000
0000
0000
0000
,
0000
0000
0000
0000
,
0000
0000
0000
0000
,
0000
0000
1000
0000
1000
0000
0000
0000
0100
0000
0000
1000
0000
0000
0001
0000
,
0000
0010
0000
0000
0001
0000
0000
0000
1000
0000
0000
0010
0000
0000
0100
0000
,
0000
0000
0001
0000
0001
0000
0000
0000
0100
0000
0000
0001
0000
0000
1000
0000
,
0000
0010
0000
0000
0100
0000
0000
0000
0001
0000
1000
0000
0100
0000
0010
0000
,
0011
0000
0000
2100
0000
3001
0100
0010
,
1010
0000
0000
1100
0000
0000
0102
0000
0000
0000
0013
0000
0100
0000
1000
0000
,
1010
0000
0000
0102
0000
1003
0100
0010
,
0011
0000
0000
0101
0000
0000
2100
0000
0000
0000
3010
0000
0100
0000
0001
0000
,
1001
0000
1000
0100
0001
0100
1000
0001
,
0010
0000
0000
0101
0000
0000
2100
0000
0000
0000
3010
0000
0100
0000
0001
0000
,
1001
0000
0001
0100
1000
0100
0001
1000
,
0010
0000
0100
0000
0001
0000
0100
0000
0010
1000
0001
1000
0010
1000
0001
1000
,
0200
1000
1000
0010
,
0001
0000
0301
0100
1000
0010
1000
0000
,
0201
0001
0001
0010
,
1000
0000
1300
0100
0001
0010
0011
0000
,
0001
0000
0100
0000
0010
0000
0100
0000
0001
0000
1000
0000
0010
0000
1000
0001
,
1000
0000
0100
0000
1000
0000
0001
0000
0010
0001
1000
0100
0010
0000
0000
0000
,
0001
0100
0001
0000
0100
0000
0010
0000
1000
0000
0001
0000
1001
0000
0000
0000
,
1100
0000
0000
0011
0000
0000
1002
0000
0000
0000
0100
0000
0103
0000
0000
0000
,
1010
0000
0000
0000
0001
0100
0001
0100
0010
1000
0010
1000
0001
0100
0001
0100
,
0010
1000
0001
0100
0010
1000
0001
0100
0010
1000
0001
0100
0010
0000
1000
0000
,
1001
0000
0000
0000
1000
0100
1000
0100
0010
0001
0010
0001
1000
0100
1000
0100
,
1000
0001
0010
0100
1000
0100
0010
0001
1000
0000
0000
0000
0110
0000
0000
0000
,
1001
0000
0000
0000
1000
0010
1000
0010
0100
0001
0100
0001
1000
0010
1000
0010
,
0100
0001
1000
0010
0100
0001
1000
0010
0100
0001
1000
0010
0100
0000
0001
0000
,
1001
0000
0000
0000
0001
0010
0001
0010
0100
1000
0001
1000
0100
0010
0001
1000
,
0002
0000
0000
0100
0000
0000
1000
0000
0003
0010
0001
0000
0101
0000
0000
0000
,
1001
0000
0000
0000
1000
0100
1000
0100
0010
0001
0010
0001
1000
0100
1000
0100
,
0010
0001
1000
0100
0010
0001
1000
0100
0010
0001
1000
0100
0010
0000
0001
0000
,
1001
0000
0000
0000
0001
0100
0001
0100
0010
1000
0010
1000
0001
0100
0001
0100
,
0020
0000
1000
1030
1010
0000
0101
0000
,
1001
0000
0000
0000
0001
0010
0001
0010
0100
1000
0100
1000
0001
0010
0001
0010
,
0100
1000
0001
0010
0100
1000
0001
0010
0100
1000
0001
0010
0100
1000
0001
1000
,
0010
1000
0010
1000
0010
0100
0010
0100
0001
0100
0001
0100
0010
1000
0010
1000
,
0002
0000
0000
0013
,
1001
0000
1000
0100
0001
0100
1000
0001
,
0010
0000
0001
0000
1000
0000
0010
0000
0100
0001
1000
0010
0100
0000
0000
0000
,
0001
0000
0010
0001
0000
0010
0100
0000
1000
0000
0100
1000
0000
0100
0010
0000
,
0001
0010
0001
0000
1000
0010
1000
0000
0100
0010
0100
0000
1000
0000
0001
0000
,
1001
0000
0000
0101
0000
0000
2010
0000
0000
0000
0001
0000
0001
0000
0001
0000
,
0000
0000
3100
1000
0001
1000
0100
1000
0001
0000
1000
0000
0010
0100
0001
0000
,
1000
0000
0100
0010
0000
0100
0010
0001
0010
0000
0001
0100
0000
0010
0100
0010
,
1000
1100
0101
0011
,
2001
0000
0100
0100
0100
0000
0001
0001
,
0001
0000
0010
0010
3010
0000
0110
0000
,
1002
0000
0100
0100
0100
0000
1000
1000
,
1000
0000
0000
0000
0000
0000
0010
0000
0000
0010
0000
0000
0013
0000
0000
0000
0000
0000
0001
0000
1000
0000
0001
0000
,
1000
0100
1000
0010
1000
0100
1000
0010
,
0100
0001
0010
0001
0100
0001
0010
0001
,
0100
0010
0100
0010
1000
0010
1000
0010
0100
0001
1000
0001
0100
0010
1000
0010
,
0100
0101
1100
1010
,
0002
0000
0000
0000
,
0023
0000
0000
0000
,
0230
0000
0000
0000
,
2300
0000
0000
0000
,
3001
0100
0001
0000
0100
0000
0010
0000
,
1000
0100
1000
0000
0001
0000
0010
0000
,
0100
1000
0001
0000
0100
0000
0010
0000
,
1000
0000
0001
0000
0010
0000
0000
0000
0001
0000
0000
0000
1000
0001
1000
0001
,
2000
0000
0000
0000
0010
0000
0010
0000
3010
0000
1000
0000
0100
1000
0100
0010
,
0002
0000
0000
0000
0010
0000
0010
0000
0013
0000
1000
0001
0100
0001
1000
0010
,
2000
0000
0000
0000
0100
0000
0100
0000
3100
0000
1000
0000
0010
1000
0010
0100
,
0002
0000
0100
0000
0000
0100
0003
0000
0001
0100
0010
0100
0001
1000
0010
1000
,
0001
0000
0010
0001
0000
0010
0100
0000
1000
0000
0010
1000
0000
0010
0100
0000
,
0001
0000
1000
0100
0000
0010
0001
0000
1000
0000
0001
0100
0000
0010
1000
0000
,
0001
0010
0100
0010
0001
1000
0100
1000
0001
0010
0100
1000
0002
0000
0003
0000
,
0100
0010
0000
0100
0010
0000
0110
0000
2002
0000
0000
0000
3003
0000
0000
0000
,
1000
0100
0010
0000
0100
0000
1000
0001
0010
0000
0001
1000
0010
0000
0100
0000
,
0001
0010
0001
0010
0100
0010
0001
0000
1000
0010
1000
0010
0100
0010
1000
0000
,
0001
0100
0010
0000
0100
0000
0001
1000
0010
0000
1000
0001
0010
0000
0100
0000
,
1000
0010
1000
0010
0100
0010
1000
0000
0001
0010
0001
0010
0100
0010
0001
0000
,
1000
0010
0100
0000
0010
0000
1000
0001
0100
0000
0001
1000
0100
0000
0010
0000
,
0001
1000
0010
0100
0001
0100
0010
0000
1000
0001
0010
0100
0010
0001
1000
0000
,
0001
0100
0010
0000
0100
0000
0001
1000
0010
0000
1000
0001
0010
0000
0100
0000
,
1100
1010
0011
0102
,
1003
0000
0100
0010
0100
0000
0010
0000
0011
0000
0001
0010
0100
0010
0001
0000
,
1000
0100
1000
0100
0010
0000
0001
0010
0000
0100
0010
0000
1000
0010
0100
0010
,
0001
0000
0100
0010
0100
0000
0010
0000
1010
0000
1000
0010
0100
0010
1000
0000
,
0001
0100
0001
0100
0010
0000
1000
0010
0000
0100
0010
0000
0001
0010
0100
0010
,
1000
0000
0001
0010
0100
0000
1000
0001
0010
0000
0100
1000
0001
1000
0100
0000
,
0010
0000
0001
1000
0010
0000
0100
0010
1000
0000
0001
0100
0010
0100
0001
0000
,
0011
0000
0011
0000
0110
0000
1100
0000
1000
0001
0100
0001
1000
0010
0100
0001
,
1000
0000
0000
1100
0000
0000
0102
0000
0000
0000
0013
0100
1000
0000
0000
0000
;

//--------------- dance-double - forcednature ----------------
#NOTEDATA:;
#STEPSTYPE:dance-double;
#DESCRIPTION:forcednature;
#DIFFICULTY:Easy;
#METER:9;
#RADARVALUES:0,0,0,0,0;
#CREDIT:forcednature;
#NOTES:
00000000
00000000
00000000
00000000
,
00000000
00000000
00000000
00000000
,
00000000
00000000
00000000
00000000
,
00000000
00000000
00000000
00000000
,
00000000
00000000
00000000
00000000
,
00000000
00000000
00000000
00000000
,
00000000
00000000
00000000
00000000
,
00002000
00000000
00000000
00000000
,
02003000
00000000
00000000
00000000
,
03020000
00000000
00000000
00000000
,
20030000
00000000
00000000
30000000
,
10010000
00000000
00000000
10010000
00000000
00000000
00000000
00000000
,
00010000
00000000
00000000
00010000
00000000
00000000
00010000
00000000
00000000
00000000
00000000
00000000
00000000
00000000
00000000
00000000
,
00011000
00000000
00000000
00011000
00000000
00000000
00000000
00000000
,
00001000
00000000
00000000
00001000
00000000
00000000
00001000
00000000
00000000
00000000
00000000
00000000
00000000
00000000
00000000
00000000
,
00000001
00000010
00000001
00000100
,
00000010
00001000
00000100
00001000
,
00000001
00000100
00001000
00010000
,
00022000
00000000
00000000
00033000
,
00001000
01000000
00010000
01000000
,
00001000
01000000
00010000
00000000
,
00100000
00001000
00010000
00001000
,
00100000
00001000
00010000
00000000
,
00000010
00001000
00000001
00000100
,
00000001
00001000
00000010
00000000
,
00010000
00001000
00100000
00010000
,
01000000
00000000
00000000
01000000
00000000
00000000
02000000
00000000
00000000
00000000
00000000
00000000
03000000
00000000
00000000
00000000
,
10010000
10000000
01000000
00010000
,
00001000
00000100
00000001
00000010
,
00001001
00000001
00000100
00001000
,
00010000
00100000
10000000
01000000
,
10010000
10000000
01000000
00010000
,
00001000
00000100
00000001
00000010
,
00001001
00000001
00000100
00001000
,
00020000
00000000
00000000
00031000
,
00011000
01000000
00010000
00100000
,
00001000
00000010
00000100
00010000
,
00011000
00000100
00010000
00000010
,
00002000
00003000
00100000
01100000
,
10010000
10000000
01000000
00010000
,
00001000
00000100
00000001
00000010
,
00000100
00010000
00001000
00000010
,
00000002
00000000
00000000
00000003
,
00001001
00001000
00000010
00010000
,
00001000
01000000
00010000
00000000
,
00100000
00010000
00100000
01000000
,
10000000
01000000
10000000
00000000
01000000
00000000
00100000
00000000
,
00010000
01000000
00002000
00000000
,
00010000
00010000
00013000
00001000
,
00010000
00000100
00001000
00000010
,
00000110
00000110
00001001
00001001
,
00000001
00000010
00000001
00000100
,
00001000
00010000
00100000
00000000
,
10000000
01000000
10000000
00100000
,
00010000
00001000
00000100
00000000
,
00000001
00000001
00000010
00001000
,
00010000
00010000
00001000
00000010
,
00000001
00000100
00001000
00010000
,
00011000
00011000
00011000
00100000
,
00020000
00000000
00000000
00030000
,
02000000
00000000
00000000
03000000
,
00002000
00000000
00000000
00003000
,
00020000
00000000
00000000
00030000
,
00000100
00001000
00000000
00001000
,
00000001
00000010
00000000
00000010
,
00000001
00000100
00000000
00000100
,
00000010
00010000
00000000
00001000
,
00011000
00000000
01000000
00010000
,
00100000
00000000
00100000
00010000
,
01000000
00000000
00001000
00010000
,
00000010
00000000
00001000
00000001
,
00001001
00001000
00000100
00010000
,
00001000
01000000
00010000
10000000
,
00010000
10000000
00010000
00000000
10000000
00010000
10000000
00000000
,
00100000
00000000
00000000
00100000
00000000
00000000
01000000
00000000
00100000
00000000
00000000
00000000
10010000
00000000
00000000
00000000
,
10000000
01000000
00100000
00010000
,
00100000
00010000
00100000
00000000
00001000
00000000
00010000
00000000
,
00000010
00001000
00000001
00000100
,
00000010
00001000
00000010
00000000
00000100
00000000
00000001
00000000
,
00000010
00000100
00010000
00001000
,
00100000
00010000
00100000
00000000
00001000
00000000
00010000
00000000
,
00001000
01000000
00010000
01000000
,
01100000
01100000
10010000
10010000
,
10000000
00000000
01000000
00000000
00100000
00010000
00100000
00000000
,
00001000
00000000
00000000
00010000
00000000
00000000
00002000
00000000
00000000
00000000
00000000
00000000
00003000
00000000
00000000
00000000
,
00010000
00000000
00000010
00000000
00001000
00000010
00001000
00000000
,
00000001
00000000
00000000
00000010
00000000
00000000
00000002
00000000
00000000
00000000
00000000
00000000
00000003
00000000
00000000
00000000
,
00000010
00000000
00000100
00000000
00001000
00000100
00001000
00000000
,
00000100
00000000
00010000
00000000
00001000
00010000
00001000
00000000
,
01000000
00010000
01000000
00000000
00001000
00010000
00001000
00000000
,
00100000
00000000
00000000
00100000
00000000
00000000
02000000
00000000
00000000
00000000
00000000
00000000
03000000
00000000
00000000
00000000
;

//--------------- dance-double - forcednature ----------------
#NOTEDATA:;
#STEPSTYPE:dance-double;
#DESCRIPTION:forcednature;
#DIFFICULTY:Medium;
#METER:14;
#RADARVALUES:0,0,0,0,0;
#CREDIT:forcednature;
#NOTES:
00000000
00000000
00000000
00000000
,
00000000
00000000
00000000
00000000
,
00000000
00000000
00000000
00000000
,
00000000
00000000
00000000
00000000
,
00000000
00000000
00000000
00000000
,
00000000
00000000
00000000
00000000
,
00000000
00000000
00000000
00000000
,
00000000
00000000
00001000
00000000
00001000
00000000
00000000
00000000
01000000
00000000
00000000
00010000
00000000
00000000
01000000
00000000
,
00000000
00100000
00000000
00000000
10000000
00000000
00000000
00000000
01000000
00000000
00000000
10000000
00000000
00000000
01000000
00000000
,
00000000
00000000
00100000
00000000
00100000
00000000
00000000
00000000
00010000
00000000
00000000
01000000
00000000
00000000
00001000
00000000
,
00000000
00010000
00000000
00000000
00000010
00000000
00000000
00000000
00001000
00000000
00000001
00000000
00001000
00000000
00000000
00000000
,
00000110
00000000
00000000
00022000
00000000
00000000
00033000
00000000
,
01000000
00000000
00000000
00100000
00000000
00000000
20020000
00000000
00000000
00000000
00000000
00000000
30030000
00000000
00000000
00000000
,
01100000
00000000
00000000
00022000
00000000
00000000
00033000
00000000
,
00000010
00000000
00000000
00000100
00000000
00000000
00002002
00000000
00000000
00000000
00000000
00000000
00003003
00000000
00000000
00000000
,
00000001
00000100
00001000
00000000
00010000
00000000
00100000
00000000
,
10000000
01000000
00010000
00000000
00001000
00000000
00000010
00000000
,
00000001
00000100
00001000
00000000
00010000
00000000
01000000
00000000
,
10000000
00100000
10000000
01000000
00010000
00001000
00100000
00000000
,
00021000
00001000
00000010
00000010
,
00001000
00001000
00030100
00000110
,
00012000
00010000
00100000
00100000
,
00010000
00010000
01003000
01100000
,
00010000
10000000
00100000
00000000
00010000
00000000
00001000
00000000
,
00000010
00000001
00000100
00000001
00000010
00001000
00010000
00000000
,
01000000
00100000
00001000
00010000
00000100
00000010
00000001
00000000
,
00000100
00000000
00000000
00001000
00000000
00000000
00022000
00000000
00000000
00000000
00000000
00000000
00033000
00000000
00000000
00000000
,
00011000
00000000
00010000
00100000
10000000
00100000
00010000
00100000
,
10000000
01000000
00010000
01000000
10000000
00010000
00100000
00001000
,
00010000
00000000
00001000
00000010
00000001
00000010
00001000
00000010
,
00000001
00000100
00001000
00010000
00100000
00000000
01100000
00000000
,
00011000
00000000
00010000
01000000
10000000
01000000
00010000
01000000
,
10000000
00100000
00010000
00100000
10000000
00010000
01000000
00001000
,
00010000
00000000
00001000
00000100
00000001
00000100
00001000
00010000
,
00200000
00000000
10000000
00000000
01000000
01000000
01300000
00000000
,
00011000
00000000
00010000
00100000
10000000
00100000
00010000
00100000
,
10000000
01000000
00010000
00001000
00100000
01000000
00010000
00001000
,
00100000
00000000
00001000
00000010
00000001
00000010
00001000
00000010
,
00000001
00000100
00001000
00000000
01001000
00000000
01100000
00000000
,
00011000
00000000
00001000
00000010
00000001
00000010
00001000
00000010
,
00000001
00000100
00001000
00010000
00000010
00000100
00001000
00010000
,
00000100
00000010
00001000
00010000
01000000
00100000
00001000
00010000
,
00200000
00000000
00000000
00300000
,
10010000
00000000
10000000
01000000
00010000
00000000
00001000
00100000
,
00010000
00000000
00100000
00001000
00010000
00000000
00000010
00000000
,
00001000
00000100
00000001
00000000
00000100
00001000
00000010
00000000
,
00010000
00001000
00100000
00010000
00100000
00001000
00010000
00000000
,
00100000
00000000
00000000
10000000
00000000
00000000
00020000
00000000
00000000
00000000
00000000
00000000
00100000
00000000
00000000
00000000
,
10000000
10000000
10000000
00000000
01000000
00000000
10030000
00000000
,
00010000
00100000
01000000
00000000
00010000
00001000
00100000
00000000
,
00011000
00010010
00000110
00011000
,
00000100
00000000
00000100
00010000
00001000
00100000
00010000
00100000
,
00001000
00010000
00000010
00001000
00000010
00000000
00001001
00000000
,
00000001
00000100
00001000
00000000
00010000
00000010
00001000
00000000
,
00000001
00000010
00001000
00010000
00001000
00010000
01000000
00000000
,
10000000
00010000
00100000
00001000
00010000
00001000
01000000
00010000
,
01000000
00001000
00010000
00000010
00001000
00000001
00000010
00000000
,
00000100
00001000
00000100
00010000
00001000
00100000
00010000
00000000
,
01010000
01001000
00011000
01100000
,
20000000
00000000
00000000
00000000
,
32000000
00000000
00000000
00000000
,
03020000
00000000
00000000
00000000
,
00032000
00000000
00000000
00000000
,
00003010
00000000
00000001
00000000
00000100
00001000
00010000
00000000
,
00100000
00000000
10000000
00000000
01000000
00010000
00001000
00000000
,
00000100
00000000
00000001
00000000
00000010
00001000
00010000
00000000
,
01000000
00000000
10000000
00000000
00100000
00010000
00001000
00000000
,
00011000
00000000
00010000
01000000
00100000
01000000
10000000
00100000
,
00010000
00000000
00001000
00000100
00000010
00000100
00000001
00000010
,
00001000
00000000
00010000
01000000
00100000
01000000
10000000
00100000
,
00010000
00000000
00001000
00000100
00000001
00000010
00000001
00000010
,
00001000
00000000
00010000
01000000
10000000
00000000
00100000
00010000
,
00001000
00000000
00000010
00001000
00010000
00000000
01000000
00010000
,
00001000
00000010
00000001
00001000
00000200
00000000
00000300
00000000
,
00010000
00001000
00000000
00010000
00001000
00000000
00010000
00000000
00001000
00000000
00000000
00000000
00011000
00000000
00000000
00000000
,
00001000
00010000
01000000
10000000
00100000
10000000
01000000
00010000
,
00001000
00100000
00010000
00100000
00001000
00000010
00000100
00000000
,
00001000
00000001
00000100
00001000
00010000
00000010
00010000
00001000
,
00000010
00000100
00010000
00001000
00100000
01000000
00010000
00000000
,
00001000
00100000
00010000
00100000
00001000
00000010
00000100
00010000
,
00000010
00001000
00000001
00000100
00001000
00010000
00100000
00000000
,
01000000
00010000
10000000
00010000
00100000
01000000
00010000
00000100
,
00001000
00001100
00011000
00110000
,
00001000
00000000
00010000
00000000
00000010
00000000
00001000
00000000
00000010
00000000
00000100
00000010
00000100
00000000
00000001
00000000
,
00000020
00000000
00000000
00002030
00000000
00000000
00020000
00000000
00000000
00000000
00000000
00000000
00033000
00000000
00000000
00000000
,
00100000
00000000
00001000
00000000
00010000
00000000
00100000
00000000
10000000
00000000
00010000
10000000
00010000
00000000
10000000
00000000
,
02000000
00000000
00000000
03020000
00000000
00000000
00002000
00000000
00000000
00000000
00000000
00000000
00033000
00000000
00000000
00000000
,
00001000
00000010
00000100
00000010
00000001
00000100
00000010
00000100
,
00001000
00010000
00100000
01000000
00100000
00010000
00001000
01000000
,
00010000
00000000
00100000
00000000
00001000
00000000
00010000
00000000
00000100
00001000
00000100
00001000
00000100
00000000
00000000
00000000
,
00000010
00000000
00000000
00000110
00000000
00000000
00002002
00000000
00000000
00000000
00000000
00000000
00003003
00000000
00000000
00000000
;

//--------------- dance-double - forcednature ----------------
#NOTEDATA:;
#STEPSTYPE:dance-double;
#DESCRIPTION:forcednature;
#DIFFICULTY:Hard;
#METER:17;
#RADARVALUES:0,0,0,0,0;
#CREDIT:forcednature;
#NOTES:
00000000
00000000
00000000
00000000
,
00000000
00000000
00000000
00000000
,
00000000
00000000
00000000
00000000
,
00000000
00000000
00000000
00000000
,
00000000
00000000
00000000
00000000
,
00000000
00000000
00000000
00000000
,
00000000
00000000
00000000
00000000
,
00000000
00000000
00001000
00000000
00010000
00000000
00000000
00000000
00001000
00000000
00000000
00000010
00000000
00000000
00000001
00000000
,
00000000
00001000
00000000
00000000
00000100
00000000
00000000
00000000
00010000
00000000
00000000
00001000
00000000
00000000
00010000
00000000
,
00000000
00000000
00010000
00000000
00001000
00000000
00000000
00000000
00010000
00000000
00000000
00100000
00000000
00000000
10000000
00000000
,
00000000
00010000
00000000
00000000
01000000
00000000
00000000
00000000
00001000
00000000
00000000
00010000
00000000
00000000
00001000
00000000
,
00011000
00000000
00000000
00010200
00000000
00001300
00000001
00000010
,
00000011
00000000
00000000
00000101
00000000
00000000
00002010
00000000
00000000
00000000
00003100
00000000
00010000
00000000
00001000
00000000
,
00011000
00000000
00000000
02001000
00000000
03010000
10000000
00100000
,
10100000
00000000
00000000
11000000
00000000
00000000
00120000
00000000
00000000
00000000
01030000
00000000
00001000
00000000
00010000
00000000
,
00011000
00000000
00001000
00000010
00000001
00001000
00000001
00000010
,
00001000
00000000
00000000
00001000
00010000
00000000
00200000
00000000
00000000
00000000
01300000
00000000
00010000
00000000
10000000
00000000
,
10010000
00000000
10000000
01000000
00010000
00001000
00000100
00000001
,
00000010
00000000
00000100
00000000
00001000
00000000
00000100
00000000
00010000
00001000
00010000
00000010
00010000
00001000
00010000
00000010
,
00002000
00000100
00000100
00000001
,
00000001
00000000
00003010
00001000
00010000
01000000
00001000
00000000
,
01020000
10000000
10000000
00100000
,
00130000
00000000
00100000
00010000
00001000
00000100
00010000
00000000
,
00000010
00000000
00000100
00000000
00001000
00000000
01000000
00000000
00010000
00000000
00100000
00000000
00010000
00000000
00100000
00010000
,
00100000
00000000
01000000
00000000
00010000
00000000
01000000
00000000
00010000
00001000
00010000
00000100
00001000
00000000
00000000
00000000
,
00000001
00000100
00000001
00000000
00000100
00000000
00001000
00000000
00010000
00000000
00100000
00000000
10000000
00000000
00000000
00000000
,
11000000
00000000
00000000
01100000
00000000
00000000
00120000
00000000
00000000
00000000
01000000
00000000
01030000
00000000
00000000
00000000
,
00011000
00000000
00000000
00000000
00010000
00000100
00001000
00000100
00010000
00000100
00001000
00000100
00010000
00000100
00001000
00000100
,
00010000
00000010
00001000
00000100
00010000
00000010
00001000
00000100
00010000
00000010
00001000
00000100
00010000
00000000
00001000
00000000
,
00011000
00000000
00000000
00000000
00001000
01000000
00010000
01000000
00001000
01000000
00010000
01000000
00001000
01000000
00010000
01000000
,
00001000
00100000
00010000
01000000
00001000
01000000
00010000
00100000
00001000
00000000
00000000
00000000
00010000
00000000
00000000
00000000
,
00011000
00000000
00000000
00000000
00010000
00000010
00001000
00000010
00010000
00000010
00001000
00000010
00010000
00000010
00001000
00000010
,
00010000
00000100
00001000
00000010
00010000
00000100
00001000
00000010
00010000
00000100
00001000
00000010
00010000
00000000
00001000
00000000
,
00011000
00000000
00000000
00000000
00001000
00100000
00010000
00100000
00001000
00010000
00001000
01000000
00010000
01000000
00001000
00010000
,
00002000
00000000
00100000
00000000
00003010
00000100
00000110
00000000
,
00001001
00000000
00000000
00000000
00001000
00000100
00001000
00000100
00010000
00001000
00010000
00001000
00100000
00010000
00100000
00010000
,
10000000
01000000
00100000
00010000
10000000
01000000
00100000
00010000
10000000
01000000
00100000
00010000
01000000
00000000
00100000
00000000
,
10010000
00000000
00000000
00000000
00010000
01000000
00010000
01000000
00001000
00010000
00001000
00010000
00000010
00001000
00000010
00001000
,
00000002
00000000
00000010
00000013
00000011
00000000
00001100
00000000
,
00001001
00000000
00000000
00000000
00001000
00000010
00001000
00000010
00010000
00001000
00010000
00001000
01000000
00010000
01000000
00010000
,
10000000
00100000
01000000
00010000
10000000
00100000
01000000
00010000
10000000
00100000
01000000
00010000
10000000
00100000
10000000
00010000
,
00100000
00010000
00100000
00010000
00100000
00001000
00100000
00001000
00010000
00001000
00010000
00001000
00010000
00000100
00010000
00000100
,
00002000
00000000
00000000
00003001
,
00001001
00000000
00000001
00000100
00001000
00010000
01000000
10000000
,
00100000
00000000
10000000
00000000
01000000
00000000
10000000
00000000
00100000
10000000
00010000
01000000
00100000
00000000
00000000
00000000
,
10000000
00000000
01000000
00100000
00000000
00010000
00100000
00000000
00001000
00000000
00010000
00001000
00000000
00010000
00000010
00000000
,
00001000
00000010
00001000
00000000
00000010
00000100
00000010
00000000
00000100
00000001
00001000
00000000
00000010
00000000
00000000
00000000
,
00001000
00000000
00000000
00001000
00000100
00000000
00020000
00000000
00000000
00000000
00001000
00000000
00001000
00000000
00001000
00000000
,
00030000
00000000
00010000
00001000
00010000
00001000
00010000
00001000
00010000
00000000
00001000
00000000
00010000
00001000
00010000
00000000
,
00000010
00000000
00001000
00000010
00000000
00000100
00000010
00000100
00000001
00000000
00000010
00000001
00000000
00000010
00000100
00001000
,
00000100
00010100
00011000
00101000
,
10020000
01000000
10000000
00100000
,
10000000
01000000
10000000
00100000
,
00032000
00000100
00000001
00000010
,
00000001
00000000
00000000
00000100
00000000
00000000
00000001
00000000
00000000
00003010
00010000
00001000
,
01000000
00010000
00100000
00001000
00010000
00000010
00001000
00000100
,
00010000
00001000
01000000
00001000
00010000
00001000
00100000
00001000
,
00010000
00000010
00001000
00000010
00010000
00001000
00010000
00000100
00001000
00000100
00010000
00001000
01000000
00010000
01000000
00100000
,
10000000
01000000
00010000
00011000
,
00002000
00000000
00000000
00000000
,
00003020
00000000
00000000
00000000
,
00000032
00000000
00000000
00000000
,
00000203
00000000
00000000
00000000
,
00001300
00010000
00100000
00000000
01000000
00000000
00100000
00000000
,
00010000
00001000
00000010
00000000
00000100
00000000
00000010
00000000
,
00001000
00010000
01000000
00000000
00100000
00000000
01000000
00000000
,
00010000
00000000
00001000
00000000
00000100
00000000
00000000
00000000
00000010
00000000
00000000
00000000
00000100
00000010
00000100
00000010
,
00001000
00000000
00000001
00000010
00001000
00000000
00010000
01000000
,
10000000
00000000
00100000
00010000
00001000
00000000
00010000
01000000
,
10000000
00000000
10000000
00100000
00010000
00000000
00001000
00000100
,
00000001
00000001
00000000
00000010
00001000
00010000
00001000
00010000
,
00011000
00000000
00000000
00010000
00000000
00000000
00001000
00000000
01000000
00000000
00000000
00010000
00000000
00000000
01000000
00000000
,
00100000
00000000
00000000
10000000
00000000
00000000
00100000
00000000
10000000
00000000
00000000
01000000
00000000
00000000
10000000
00000000
,
00010000
00100000
00001000
00010000
00001000
01000000
00010000
01000000
00001000
00010000
00000010
00001000
00000020
00000000
00000030
00000000
,
00010000
00001000
00000000
00010000
00001000
00000000
00011000
00000000
00022000
00000000
00000000
00000000
00033000
00000000
00000000
00000000
,
01000000
00010000
00100000
01000000
00010000
00001000
00100000
00010000
,
01000000
00010000
01000000
00010000
01000000
00001000
00010000
00000000
00000100
00001000
00000100
00001000
00000100
00010000
00001000
00000000
,
00000010
00000001
00000100
00000001
00000010
00001000
00010000
01000000
,
00100000
00010000
00100000
00010000
00100000
00001000
00010000
00000000
00000010
00001000
00000010
00001000
00000010
00010000
00001000
00000000
,
00000010
00000001
00000100
00001000
00000100
00000001
00000010
00001000
,
00010000
00000100
00001000
00000100
00010000
00001000
00100000
00000000
00010000
01000000
00001000
00010000
00000010
00001000
00000010
00000000
,
00010000
00001000
00000010
00000100
00001000
00000001
00000100
00001000
,
00011000
01100000
00011000
00000110
,
00000001
00000000
00000100
00000000
00001000
00000000
00000100
00000000
00000001
00000000
00001000
00000010
00001000
00000000
00000001
00000000
,
00000010
00000100
00001000
00000100
00010000
00000000
00001000
00100000
00000000
00010000
00100000
00000000
00010000
10000000
01000000
10000000
,
00010000
00000000
10000000
00000000
00100000
00000000
00010000
00000000
00100000
00000000
10000000
00100000
10000000
00000000
00010000
00000000
,
10000000
01000000
00100000
01000000
00100000
00000000
00010000
00100000
00000000
00001000
00010000
00000000
00000010
00001000
00000001
00000100
,
00000010
00000000
00001000
00000100
00001000
00000000
00000100
00010000
00001000
00000000
00010000
00001000
00100000
00000000
00010000
00000000
,
10000000
00100000
01000000
00100000
01000000
00000000
00010000
01000000
00000000
00001000
00010000
00000000
00000100
00001000
00000100
00000010
,
00000001
00000000
00000001
00000000
00000100
00000000
00001000
00000000
00010000
00001000
01000000
00010000
02000000
00000000
00000000
00000000
,
03100000
00000000
00000000
01100000
00000000
00000000
20010000
00000000
00000000
00000000
31000000
00010000
00001000
00000000
00000000
00000000
;
