#VERSION:0.83;
#TITLE:U.S.A.;
#SUBTITLE:;
#ARTIST:Remixed by BEMANI Sound Team "PHQUASE feat. TRANDER Jr.";
#TITLETRANSLIT:;
#SUBTITLETRANSLIT:;
#ARTISTTRANSLIT:Remixed by PHQUASE feat. TRANDER Jr.;
#GENRE:IIDX EDITION;
#CREDIT:;
#MUSIC:U.S.A.ogg;
#BANNER:U.S.A.png;
#BACKGROUND:U.S.A-bg.png;
#CDTITLE:./CDTitles/bm IIDX 26 Rootage.png;
#SAMPLESTART:53.536;
#SAMPLELENGTH:15.000;
#SELECTABLE:YES;
#OFFSET:0.680;
#BPMS:0.000=177.000;
#STOPS:;
#TIMESIGNATURES:0.000=4=4;
#DISPLAYBPM:177.000;
#BGCHANGES:0.000=../BGAs/10ho.mp4=1.000=0=0=0=StretchNoLoop====,
99999.000=-nosongbg-=1.000=0=0=0=StretchNoLoop====
;
#FGCHANGES:;

//--------------- dance-single - forcednature ----------------
#NOTEDATA:;
#STEPSTYPE:dance-single;
#DESCRIPTION:forcednature;
#CREDIT:forcednature;
#DIFFICULTY:Beginner;
#METER:4;
#RADARVALUES:0,0,0,0,0;
#NOTES:
0000
0000
0000
0000
,
0000
0000
0000
0000
,
0000
0000
0000
0000
,
1001
0000
0000
0000
,
0001
0000
0000
0000
,
0100
0000
0000
0000
,
0010
0000
1000
0000
,
1001
0000
0001
0000
,
0010
0000
0010
0000
,
0100
0000
1000
0000
,
0010
0000
0000
0000
,
1001
0000
1000
0000
,
0010
0000
0010
0000
,
0100
0000
0001
0000
,
0010
0000
0000
0000
,
0100
0100
0100
0000
,
0000
0000
0000
0000
,
1001
0000
0000
0000
,
1000
0000
0000
0000
,
0010
0010
0010
0000
,
0000
0000
0000
0000
,
1001
0000
0000
0000
,
0001
0000
0000
0000
,
0100
0100
0100
0000
,
0010
0000
1000
0000
,
0001
0000
0000
0000
,
0010
0000
0100
0000
,
1000
1000
1000
0000
,
0001
0000
0100
0000
,
0110
0000
1001
0000
,
0000
0010
0010
0010
,
0110
0000
0000
0000
,
1000
0000
0001
0000
,
0100
0000
0000
0000
,
0001
0000
1000
0000
,
0100
0000
0000
0000
,
0010
0000
0001
0000
,
0000
1001
0000
0000
,
1000
1000
0001
0001
,
0100
0000
0000
0000
,
0010
0010
0100
0100
,
0001
0000
0000
0000
,
1000
0000
0100
0000
,
0010
0000
0000
0000
,
0001
0001
1000
1000
,
0100
0000
0000
0000
,
1000
0000
0001
0000
,
0100
0000
0000
0000
,
0010
0010
1000
1000
,
0001
0000
0000
0000
,
0010
0000
0100
0000
,
1000
0000
0000
0000
,
0010
0010
0100
0100
,
0001
0000
0000
0000
,
1000
0000
0100
0000
,
0010
0010
0001
0001
,
1000
0000
0001
0000
,
0100
0000
0010
0000
,
1000
0000
0001
0000
,
0010
0010
0100
0100
,
0110
0000
0000
0000
,
1001
0000
0000
0000
,
0110
0000
1001
0000
,
1000
0001
1000
0000
,
1001
0000
0000
0000
,
0001
0000
0000
0000
,
0100
0000
0000
0000
,
0010
0000
0000
0000
,
0000
1000
0000
1000
,
0000
0001
0000
0001
,
0000
0000
0000
0000
,
0010
0000
0000
0000
,
0000
0000
0000
0000
,
0110
0000
1000
0000
,
0001
0000
0100
0000
,
0010
0000
0000
0000
,
1000
1000
0001
0001
,
0010
0000
0100
0000
,
0010
0000
0001
0000
,
0100
0100
0010
0010
,
0110
0000
1000
0000
,
0001
0000
0010
0000
,
0100
0000
1000
0000
,
0001
0001
1000
1000
,
1001
0000
0001
0000
,
0100
0000
0010
0000
,
1000
0000
0001
0000
,
0010
0010
0100
0100
;

//--------------- dance-single - forcednature ----------------
#NOTEDATA:;
#STEPSTYPE:dance-single;
#DESCRIPTION:forcednature;
#CREDIT:forcednature;
#DIFFICULTY:Easy;
#METER:7;
#RADARVALUES:0,0,0,0,0;
#NOTES:
0000
0000
0000
0000
,
0000
0000
0000
0000
,
0000
0000
0000
0000
,
1000
1000
0000
0001
,
0000
0100
0000
0010
,
0000
1000
0000
0001
,
0000
0010
0100
0100
,
1000
1000
0001
0100
,
0010
0010
1000
0001
,
0010
0100
1000
0100
,
0010
0001
1000
0000
,
0001
0001
0100
0010
,
1000
1000
0100
0010
,
0100
1000
0001
0100
,
0010
1000
0001
0000
,
0110
0110
0110
0000
,
1000
0001
0100
0000
,
0010
1000
0100
1000
,
0010
0100
0001
0000
,
1001
1001
1001
0000
,
0001
0010
0100
0000
,
1000
0001
0100
0010
,
1000
0100
0010
0000
,
0110
0110
0110
0000
,
0100
1000
0001
0100
,
0010
1000
0001
0010
,
0100
1000
0001
0000
,
1001
1001
1001
0000
,
1000
0010
0100
0001
,
1001
0000
0110
0000
,
0000
1000
0000
0000
0001
0000
0000
0000
,
1000
1000
0001
0001
,
0100
0010
1000
1000
,
0000
1001
0001
0010
,
0100
1000
0010
0000
,
0110
0000
0100
0001
,
0010
0100
1000
1000
,
0000
0110
0001
0010
,
0100
1000
0001
0100
,
0020
0000
0000
0030
,
1001
1001
1001
1001
,
0001
0100
0010
0000
,
1000
0100
0010
0100
,
1000
0001
0100
0000
,
0110
0110
0110
0110
,
0010
1000
0001
0000
,
1000
0100
0010
0100
,
1000
0001
0100
0000
,
1001
1001
1001
1001
,
0001
0010
0100
0000
,
0010
0001
1000
0010
,
0100
0001
1000
0000
,
0110
0110
0110
0110
,
0001
1000
0010
0000
,
0100
0001
0010
0100
,
1000
0010
0100
0000
,
0001
0001
1000
0100
,
0010
0010
0100
1000
,
0001
0100
0010
1000
,
0010
0100
0001
0000
,
1001
0000
0100
0010
,
1001
0000
0010
0100
,
0110
0000
1001
0000
,
1000
1000
0001
0001
,
0100
0000
0100
0000
,
0010
1000
0010
0000
,
0100
0000
0001
0000
,
0010
0000
0000
0000
,
0000
0110
0000
0110
,
0000
1001
0000
1001
,
0200
0000
0000
0300
,
0020
0000
0000
0030
,
1000
1000
0001
0100
,
0010
1000
0001
0010
,
0100
1000
0010
0100
,
0001
0010
0100
0000
,
0110
0110
0110
0110
,
0010
0001
1000
0010
,
0100
0100
0001
0001
,
1000
0100
0010
0100
,
1000
0001
0100
0010
,
1000
0001
0010
0100
,
1000
1000
0001
0001
,
0100
0010
1000
0001
,
0010
0010
0100
1000
,
0010
0010
0100
0001
,
0010
0100
1000
0001
,
0100
0100
0010
2002
,
0000
0000
0000
0000
,
0000
0000
0000
0000
,
3003
0000
0000
0000
;

//--------------- dance-single - forcednature ----------------
#NOTEDATA:;
#STEPSTYPE:dance-single;
#DESCRIPTION:forcednature;
#CREDIT:forcednature;
#DIFFICULTY:Medium;
#METER:11;
#RADARVALUES:0,0,0,0,0;
#NOTES:
0000
0000
0000
0000
,
0000
0000
0000
0000
,
0000
0000
0000
0000
,
1001
0000
0001
0000
0100
0000
0010
1000
,
0000
1000
0100
0000
0010
0001
0010
0000
,
0100
0000
1000
0000
0001
0100
0001
0000
,
0010
0000
0100
0000
1000
0001
1000
0000
,
0010
0000
0100
0000
0001
0000
0000
0001
0000
0000
0010
0000
0100
0000
0000
0000
,
1000
0000
0001
0000
0100
0000
0000
0100
0000
0000
0010
0000
1000
0000
0000
0000
,
0100
0000
0000
0100
0000
0000
0010
0000
0000
0010
0000
0000
0001
0000
0000
0000
,
1000
0001
0110
1001
,
1000
0000
0010
0000
0100
0000
0000
0100
0000
0000
0001
0000
0010
0000
0000
0000
,
0100
0000
1000
0000
0001
0000
0000
0001
0000
0000
0100
0000
0010
0000
0000
0000
,
1000
0000
0000
0100
0000
0000
0010
0000
0000
0001
0000
0000
0100
0000
0000
0000
,
0010
0100
0110
1001
,
1100
0101
1001
0000
,
0010
0000
0100
0000
0001
1000
0001
0000
,
0010
0000
0100
0000
0000
1000
0000
0000
0100
0000
0000
0010
0000
0000
0001
0000
,
0000
0000
0100
0000
0000
0010
0000
0000
1000
0000
0000
0001
0000
0000
0010
0000
,
1100
0101
1001
0000
,
0010
0100
0000
0001
1000
0100
0010
0000
,
0001
0000
0100
0000
0000
0001
0000
0000
1000
0000
0000
0010
0000
0000
1000
0000
,
0000
0000
0100
0000
0000
0010
0000
0000
0001
0000
0100
0000
0010
0000
0000
0000
,
1100
0101
1001
1000
,
0100
0010
0001
0000
0100
0010
1000
0000
,
0001
0000
0010
0000
0000
0100
0000
0000
1000
0000
0000
0001
0000
0000
0100
0000
,
0000
0000
0010
0000
0000
1000
0000
0000
0001
0000
0000
0010
0000
0000
0100
0000
,
1100
0101
1001
0010
,
0100
0001
0100
0000
0010
1000
0010
0000
,
0110
0000
1001
0000
,
0000
0000
1000
0000
0000
1100
0000
0000
0001
0000
0000
0101
0000
0000
0010
0000
,
1000
0100
1100
0011
,
0001
0000
0000
0000
0100
0000
0010
0000
1000
0000
0000
1000
0000
0000
1000
0000
,
0000
0100
0110
0000
0001
0100
0001
0000
,
1000
0000
0010
0100
0000
0100
0001
0000
,
0110
0000
0000
1000
0000
1000
0000
0001
,
0000
0000
0001
0000
0000
0000
0000
0000
0110
0000
0000
0110
0000
0000
0110
0000
,
0000
1001
1000
0100
,
0010
0001
0010
0001
0100
0001
0100
0000
,
0010
1000
0010
1000
0200
0000
0310
0000
,
0110
0110
1001
1001
,
1000
0000
0010
0000
0100
0001
0100
0000
,
0001
0010
0100
0000
1000
0001
0100
0000
,
0010
1000
0001
0010
0100
1000
0001
0000
,
0110
0110
1001
1001
,
0001
0000
0100
0000
0010
1000
0010
0000
,
0100
0001
1000
0000
0100
0010
0001
0000
,
0100
0010
1000
0001
0010
0100
1000
0000
,
0110
0110
1001
1001
,
0001
0000
0100
0000
0010
1000
0010
0000
,
0100
0001
1000
0000
0100
0010
0001
0000
,
1000
0010
1000
0100
0010
0100
1000
0000
,
0110
0110
1001
1001
,
0001
0000
0100
0000
0010
1000
0010
0000
,
0100
0001
0010
0000
0100
1000
0001
0000
,
0100
0010
1000
0001
0010
0100
1000
0001
,
0100
0000
0010
0000
1000
0000
0000
1000
0000
0000
0100
0000
0010
0000
0000
0000
,
0001
0000
0100
0000
0010
0000
0000
0010
0000
0000
1000
0000
0001
0000
0000
0000
,
0010
0000
0000
0100
0000
0000
1000
0000
0000
0100
0000
0000
0010
0000
0000
0000
,
0001
1000
0110
1001
,
0110
0000
0000
0000
0000
0000
0000
0000
1000
0000
0000
0100
0000
0000
0001
0000
,
0110
0000
0000
0000
0000
0000
0000
0000
0001
0000
0000
0100
0000
0000
1000
0000
,
0110
0000
0000
1000
0000
0000
0001
0000
0110
0000
0000
0001
0000
0000
1000
0000
,
0100
0100
0010
0010
0001
1000
0010
0000
,
0110
0001
1000
0001
,
0100
0010
1000
0001
0000
0000
0000
0100
,
0000
0100
0001
0000
0010
0000
0100
0000
,
1000
0002
0000
0000
0000
0003
0000
0000
,
0000
0101
0000
0101
,
0000
1100
0000
1100
,
2002
0000
0000
3003
,
0220
0000
0000
0330
,
1001
1001
0110
0110
,
1000
0000
0001
0000
0100
0010
0100
0000
,
0001
0010
0100
0000
1000
0001
0100
0000
,
0010
1000
0100
0001
0100
1000
0010
0000
,
1001
1001
0110
0110
,
0001
0000
0010
0000
0100
1000
0100
0000
,
0010
0001
1000
0000
0001
0100
0010
0000
,
1000
0100
0001
0100
1000
0001
0100
0000
,
0010
0000
1000
0000
0100
0000
0000
0100
0000
0000
0010
0000
0001
0000
0000
0000
,
1000
0000
0010
0000
0100
0000
0000
0100
0000
0000
0001
0000
0010
0000
0000
0000
,
0100
0000
0000
0001
0000
0000
0100
0000
0000
1000
0000
0000
0100
0000
0000
0000
,
0110
0110
1001
1001
,
0100
0000
0010
0000
0100
0000
0000
0100
0000
0000
0001
0000
1000
0000
0000
0000
,
0010
0000
0100
0000
0010
0000
0000
0010
0000
0000
1000
0000
0001
0000
0000
0000
,
1000
0000
0000
0010
0000
0000
0001
0000
0000
0010
0000
0000
0100
0000
0000
0000
,
0110
0110
1001
2002
,
0000
0000
0000
0000
,
0000
0000
0000
0000
,
3003
0000
0000
0000
;

//--------------- dance-single - forcednature ----------------
#NOTEDATA:;
#STEPSTYPE:dance-single;
#DESCRIPTION:forcednature;
#CREDIT:forcednature;
#DIFFICULTY:Hard;
#METER:16;
#RADARVALUES:0,0,0,0,0;
#NOTES:
0000
0000
0000
0000
,
0000
0000
0000
0000
,
0000
0000
0000
0000
,
0110
0000
0001
0000
1000
0010
1000
0100
,
0000
0010
0010
0001
0000
0100
0010
0000
,
1000
0001
0010
0000
0001
0100
0010
1000
,
0100
0000
0010
0000
0100
0000
1000
0000
0000
0000
0001
0100
0001
0000
0000
0000
,
0010
0000
0100
0000
1000
0000
0000
1000
0000
0000
0010
0000
0100
0000
0001
0000
,
0010
0000
0100
0000
0010
0000
0000
0010
0000
0000
0001
0000
1000
0000
0010
0000
,
1000
0100
0000
1000
0100
0000
0010
0001
0000
0010
0001
0000
0100
0000
0010
0000
,
2000
0100
3002
0023
,
0130
0000
1000
0000
0001
0000
0000
0001
0000
0000
0100
0000
0010
0000
1000
0000
,
0001
0000
0010
0000
0100
0000
0000
0100
0000
0000
0010
0000
0001
0000
1000
0000
,
0001
0100
0000
0001
0100
0000
0010
1000
0000
0010
1000
0000
0001
0000
0010
0000
,
0002
0100
2003
3020
,
0130
0000
0110
0000
1001
0000
0000
1000
,
0100
1000
0010
0100
1000
0100
0001
0000
,
0010
0000
0001
0000
1000
0010
0000
1000
0100
0000
0010
0100
0000
0010
0001
0000
,
0100
0000
0001
0000
1000
0010
0000
1000
0001
0000
0010
0001
0000
0010
0100
0000
,
0110
0000
1001
0000
0110
0000
0000
0001
,
0100
1000
0000
0100
0010
1000
1001
0000
,
0001
0000
0010
0000
0001
0100
0000
0010
0100
0000
0010
1000
0000
0001
1000
0000
,
0100
0000
0010
0000
0001
0100
0000
0010
1000
0000
0001
0010
0100
1000
0100
0010
,
0001
0000
0101
0000
1010
0000
1000
0010
,
0001
0010
0100
0001
1000
0100
0010
0100
,
1000
0000
0001
0000
1000
0010
0000
1000
0001
0000
0010
0001
0000
0010
0100
0000
,
1000
0000
0010
0000
0100
0001
0000
0010
0001
0000
1000
0100
0000
1000
0010
0000
,
1001
0000
0110
0000
1001
0000
1000
0100
,
0001
0100
0010
0001
1000
0010
0100
0001
,
0101
0000
1000
0000
0000
0000
0001
0100
0001
0000
1000
0000
0000
0000
0001
0100
,
0000
0000
0110
0000
0000
1010
0000
0000
1001
0000
0000
0011
0000
0000
1000
0100
,
0010
0100
0001
0100
0010
0100
1000
0001
,
0100
0000
0000
0010
0000
0000
1000
0000
1001
0000
0000
1100
0000
0000
1010
0000
,
0000
0001
0101
0000
0001
0010
0100
0001
,
0100
0000
0010
0000
0001
0000
1000
0000
0010
0000
1000
0100
0010
0000
0001
1000
,
0002
0100
0000
0100
0000
1000
0000
1000
,
0000
0000
0010
0000
0000
0000
0013
0000
0001
0000
0000
1001
0000
0000
0110
0000
,
0000
0010
1001
0001
0100
0010
1000
0001
,
0100
0001
0100
0001
1000
0100
1000
0100
0010
0001
0010
0001
1000
0010
1000
0010
,
0200
0300
0002
0003
0200
0300
2000
3000
0200
0000
0010
0000
0310
0000
0000
0000
,
0101
0101
0110
1001
,
1000
0100
0001
0100
0010
0001
0001
0000
,
0100
0001
0100
0010
1000
0001
0010
0100
,
0010
0001
0010
0000
0001
0100
0001
0000
1000
0010
1000
0000
0100
1000
0100
0000
,
1100
1100
0110
1001
,
0001
0100
1000
0100
0010
1000
1000
0000
,
0100
0010
0100
1000
0010
0000
0100
0001
,
0010
0000
0000
0010
0100
0000
1000
0000
0001
0000
0001
0000
0100
0001
0100
0001
,
0010
0011
0110
1001
,
1000
0010
1000
0100
0001
0100
0100
0000
,
0010
0001
1000
0010
0100
0001
1000
0100
,
1000
0010
1000
0000
0100
1000
0100
0000
0010
0001
0010
0000
0001
0100
0001
0000
,
1010
1010
0110
1001
,
0001
0100
1000
0100
0010
1000
1000
0100
,
0001
0100
0010
0100
1000
0100
1000
0010
,
0100
0001
0100
0001
1000
0010
1000
0010
1000
0100
1000
0100
0010
0001
0010
0001
,
0100
0000
0010
0000
1000
0100
0000
0100
0010
0000
0001
0000
0010
0000
0100
0000
,
1000
0000
0010
0000
0100
0001
0000
0001
1000
0000
0010
0000
0010
0000
0100
0000
,
0001
0010
0000
0001
0010
0000
0100
1000
0000
0100
1000
0000
0010
0000
0100
0000
,
0001
0000
1000
0100
0010
0000
0001
0100
0010
0000
1000
0001
1000
0000
0000
0000
,
0110
0000
0000
0000
0001
0010
0100
1000
0010
0000
0000
0110
0000
0000
1001
0000
,
0110
0000
0000
0000
1000
0010
0100
0001
0010
0000
0000
0110
0000
0000
1001
0000
,
1100
0000
0000
1001
0000
0000
1010
0000
0101
0000
0000
1001
0000
0000
0011
0000
,
1000
0000
1000
0000
0001
0000
0001
0000
1000
0100
0010
0001
0100
0010
1000
0001
,
0010
0000
0000
0000
0010
0000
0100
1000
0001
0000
0000
0000
0001
0000
0000
0000
,
0100
0010
0100
0001
0100
0010
0100
0001
,
0000
0010
0100
1000
0001
0100
1000
0100
,
0020
2030
3000
0000
0020
2030
3000
0000
,
0100
1100
0100
1010
,
0100
0101
0100
0011
,
2002
0000
0000
3003
,
0100
0000
0001
0100
2000
0000
3000
0000
,
0100
0010
0000
0000
0100
0010
0000
0000
0110
0000
0000
0000
1001
0000
0000
0000
,
1000
0100
0001
0100
0010
0001
0001
1000
,
0010
0100
0001
0100
0010
1000
0001
0010
,
0100
1000
0001
0000
0010
0001
1000
0000
0010
1000
0001
0000
0100
0001
1000
0000
,
0100
1000
0000
0000
0100
0001
0000
0000
0110
0000
0000
0000
1001
0000
0000
0000
,
0001
0000
0100
0000
0010
1000
0010
0000
1000
0010
1000
0001
1000
0100
0010
0000
,
0001
0001
0100
0100
0010
0010
1000
1000
,
0001
0010
0001
0010
0100
1000
0100
1000
0001
0100
0001
0100
0010
1000
0010
1000
,
0100
0000
0010
0000
0001
0100
0000
0100
0010
0000
1000
0000
1000
0000
0100
0000
,
0010
0000
0001
0000
0100
0010
0000
0010
1000
0000
0100
0000
0100
0000
0010
0000
,
0001
0100
0000
0001
1000
0000
0001
0010
0000
0001
1000
0000
0010
0000
0100
0000
,
0101
0000
0001
0010
0100
0000
1000
0010
0100
0000
0001
1000
0010
0000
0000
0000
,
0100
0000
0010
0000
1010
0000
0000
1100
0000
0000
0100
0000
0100
0000
0010
0000
,
0001
0000
1000
0000
0011
0000
0000
0101
0000
0000
0001
0000
0001
0000
1000
0000
,
0001
0010
0000
0100
1000
0000
0001
0100
0000
0010
1000
0000
0001
0000
0010
0000
,
1100
1100
0110
2002
,
0000
0000
0000
0000
,
0000
0000
0000
0000
,
3003
0000
0000
0000
;

//--------------- dance-double - forcednature ----------------
#NOTEDATA:;
#STEPSTYPE:dance-double;
#DESCRIPTION:forcednature;
#CREDIT:forcednature;
#DIFFICULTY:Easy;
#METER:7;
#RADARVALUES:0,0,0,0,0;
#NOTES:
00000000
00000000
00000000
00000000
,
00000000
00000000
00000000
00000000
,
00000000
00000000
00000000
00000000
,
00001000
00001000
00000000
00010000
,
00000000
00100000
00000000
10000000
,
00000000
01000000
00000000
00010000
,
00000000
00001000
00000010
00000010
,
00000100
00000100
00001000
00000001
,
00000100
00000100
00001000
00010000
,
00100000
01000000
10000000
01000000
,
00010000
10000000
01000000
00000000
,
00100000
00100000
00001000
00010000
,
00000010
00000010
00000100
00000001
,
00001000
00000100
00010000
00001000
,
01000000
00010000
00100000
00000000
,
01100000
01100000
01100000
00000000
,
01000000
10000000
00010000
00000000
,
01000000
00001000
00010000
00000100
,
00001000
00000001
00000100
00000000
,
00000110
00000110
00000110
00000000
,
00000010
00010000
00001000
00000000
,
00100000
00010000
00100000
01000000
,
10000000
00010000
01000000
00000000
,
01100000
01100000
01100000
00000000
,
00100000
10000000
00010000
00100000
,
00001000
00010000
00000010
00001000
,
00000100
00000010
00000001
00000000
,
00001001
00001001
00001001
00000000
,
00001000
00000010
00010000
00001000
,
00011000
00000000
00011000
00000000
,
00000000
01000000
00000000
00000000
00010000
00000000
00000000
00000000
,
10000000
10000000
01000000
01000000
,
00010000
00001000
00010000
00010000
,
00000000
00011000
00000000
00000100
,
00001000
00000001
00000100
00000000
,
00000110
00000000
00000010
00010000
,
00001000
00010000
00100000
00100000
,
00000000
01100000
00000000
10000000
,
00010000
10000000
01000000
00010000
,
00002000
00000000
00000000
00003000
,
00011000
00011000
00011000
00011000
,
00010000
00000100
00001000
00000000
,
00000010
00010000
00001000
01000000
,
00010000
10000000
01000000
00000000
,
01100000
01100000
01100000
01100000
,
00100000
00001000
00010000
00000000
,
00000010
00010000
00000100
00001000
,
00000001
00000100
00000010
00000000
,
00000110
00000110
00000110
00000110
,
00000010
00010000
00001000
00000000
,
00100000
00010000
10000000
00100000
,
01000000
00010000
10000000
00000000
,
10010000
10010000
10010000
10010000
,
10000000
01000000
00100000
00010000
,
01000000
00001000
00010000
00000100
,
00001000
00001000
00000001
00000001
,
00000100
00000100
00001000
00010000
,
01000000
01000000
00010000
00001000
,
00100000
00010000
01000000
00010000
,
10000000
01000000
00100000
00010000
,
10010000
00000000
00010000
01000000
,
00011000
00000000
00000100
00001000
,
00000001
00000001
00000100
00000100
,
00000010
00001000
00000010
00010000
,
00001000
00000000
00011000
00000000
,
00010000
00100000
10000000
00000000
,
01000000
00000000
01100000
00000000
,
00200000
00000000
00000000
00300000
,
00000000
00101000
00000000
00101000
,
00000000
00010010
00000000
00010010
,
00002000
00000000
00000000
00003000
,
00020000
00000000
00000000
00030000
,
00100000
00100000
10000000
00010000
,
10000000
01000000
00010000
00001000
,
00010000
00000100
00001000
00000001
,
00000100
00000010
00001000
00000000
,
00001001
00001001
00001001
00001001
,
00001000
00000100
00010000
00001000
,
01000000
01000000
00010000
00010000
,
10000000
01000000
00010000
00001000
,
00000010
00000010
00000100
00001000
,
00000001
00000001
00000100
00001000
,
00010000
00010000
00100000
00100000
,
10000000
00010000
10000000
01000000
,
00010000
00010000
00001000
00010000
,
00000100
00000100
00001000
00000100
,
00000010
00000001
00001000
00000001
,
00000100
00000100
00001000
00022000
,
00000000
00000000
00000000
00000000
,
00000000
00000000
00000000
00000000
,
00033000
00000000
00000000
00000000
;

//--------------- dance-double - forcednature ----------------
#NOTEDATA:;
#STEPSTYPE:dance-double;
#DESCRIPTION:forcednature;
#CREDIT:forcednature;
#DIFFICULTY:Medium;
#METER:12;
#RADARVALUES:0,0,0,0,0;
#NOTES:
00000000
00000000
00000000
00000000
,
00000000
00000000
00000000
00000000
,
00000000
00000000
00000000
00000000
,
00011000
00000000
00010000
00000000
00100000
00000000
10000000
01000000
,
00000000
01000000
00100000
00000000
00001000
00010000
00001000
00000000
,
00000010
00000000
00000100
00000000
00001000
00000001
00001000
00000000
,
00000010
00000000
00000100
00000000
00001000
00010000
00001000
00000000
,
01000000
00000000
00010000
00000000
10000000
00000000
00000000
10000000
00000000
00000000
01000000
00000000
00100000
00000000
00000000
00000000
,
00010000
00000000
01000000
00000000
00001000
00000000
00000000
00001000
00000000
00000000
00010000
00000000
00000100
00000000
00000000
00000000
,
00001000
00000000
00000000
00001000
00000000
00000000
00000001
00000000
00000000
00000001
00000000
00000000
00000100
00000000
00000000
00000000
,
00001000
00010000
00100000
01100000
,
10000000
00000000
00010000
00000000
00100000
00000000
00000000
00100000
00000000
00000000
00001000
00000000
00010000
00000000
00000000
00000000
,
00000010
00000000
00001000
00000000
00000100
00000000
00000000
00000100
00000000
00000000
00000010
00000000
00000001
00000000
00000000
00000000
,
00000100
00000000
00000000
00001000
00000000
00000000
00010000
00000000
00000000
01000000
00000000
00000000
00100000
00000000
00000000
00000000
,
00010000
10000000
01100000
10010000
,
11000000
01010000
00011000
00000000
,
00000100
00000000
00001000
00000000
00000001
00000100
00000010
00000000
,
00010000
00000000
00001000
00000000
00000000
00100000
00000000
00000000
00010000
00000000
00000000
00100000
00000000
00000000
01000000
00000000
,
00000000
00000000
10000000
00000000
00000000
00010000
00000000
00000000
01000000
00000000
00000000
00001000
00000000
00000000
00010000
00000000
,
00010100
00011000
01001000
00000000
,
01000000
00010000
00000000
10000000
01000000
00100000
00010000
00000000
,
01000000
00000000
00001000
00000000
00000000
00010000
00000000
00000000
00000100
00000000
00000000
00001000
00000000
00000000
00000100
00000000
,
00000000
00000000
00000010
00000000
00000000
00000001
00000000
00000000
00001000
00000000
00000001
00000000
00000100
00000000
00000000
00000000
,
00000110
00001010
00010010
00010000
,
00001000
00100000
00010000
00000000
01000000
00100000
10000000
00000000
,
01000000
00000000
00100000
00000000
00000000
00010000
00000000
00000000
00100000
00000000
00000000
00001000
00000000
00000000
00010000
00000000
,
00000000
00000000
00000010
00000000
00000000
00001000
00000000
00000000
00000100
00000000
00000000
00000010
00000000
00000000
00000001
00000000
,
00000011
00000101
00001001
00001000
,
00000100
00010000
00000100
00000000
00010000
00001000
00010000
00000000
,
00020200
00030300
02002000
03003000
,
00000000
00000000
00001000
00000000
00000000
00101000
00000000
00000000
00010000
00000000
00000000
00010010
00000000
00000000
00001000
00000000
,
00010000
00100000
01100000
10010000
,
10000000
00000000
00000000
00000000
01000000
00000000
00010000
00000000
00001000
00000000
00000000
00001000
00000000
00000000
00001000
00000000
,
00000000
00000000
00000110
00000000
00000001
00001000
00000001
00000000
,
00000100
00000000
00001000
00010000
00000000
00010000
00100000
00000000
,
02100000
00000000
00000000
10000000
00000000
10000000
00000000
00010000
,
00000000
00000000
00010000
00000000
03000000
00000000
00000000
00000000
01100000
00000000
00000000
01100000
00000000
00000000
01100000
00000000
,
00000000
00011000
00000100
00001000
,
00000001
00000100
00000001
00000100
00001000
00010000
00001000
00000000
,
00100000
00010000
00100000
10000000
00200000
00000000
01300000
00000000
,
11000000
11000000
00110000
00110000
,
00001000
00000000
00010000
00000000
00000010
00001000
00000010
00000000
,
00000100
00000001
00001000
00000000
00000100
00010000
00001000
00000000
,
01000000
00010000
00100000
01000000
10000000
00100000
01000000
00000000
,
01010000
01010000
00101000
00101000
,
00001000
00000000
00010000
00000000
00000100
00001000
00000100
00000000
,
00000010
00000001
00001000
00000000
00000010
00010000
00001000
00000000
,
00000010
00000100
00001000
00000001
00000100
00000010
00010000
00000000
,
00011000
00011000
01001000
01001000
,
01000000
00000000
00010000
00000000
10000000
01000000
10000000
00000000
,
00100000
01000000
00010000
00000000
00100000
00001000
00010000
00000000
,
00000010
00001000
00000100
00000010
00000001
00000100
00000010
00000000
,
00000110
00000110
00001001
00001001
,
00000001
00000000
00000100
00000000
00000010
00001000
00000010
00000000
,
00010000
00001000
00010000
00000000
00100000
01000000
00100000
00000000
,
10000000
01000000
00100000
00010000
00100000
00001000
00010000
00000010
,
00001000
00000000
00000100
00000000
00000010
00000000
00000000
00000010
00000000
00000000
00000001
00000000
00000100
00000000
00000000
00000000
,
00000010
00000000
00010000
00000000
00001000
00000000
00000000
00001000
00000000
00000000
01000000
00000000
00010000
00000000
00000000
00000000
,
10000000
00000000
00000000
01000000
00000000
00000000
00010000
00000000
00000000
00001000
00000000
00000000
00000010
00000000
00000000
00000000
,
00000110
00000110
00001001
00001001
,
00001100
00000000
00000000
00000000
00000000
00000000
00000000
00000000
00010000
00000000
00000000
00001000
00000000
00000000
00010000
00000000
,
00011000
00000000
00000000
00000000
00000000
00000000
00000000
00000000
00001000
00000000
00000000
00100000
00000000
00000000
00010000
00000000
,
01000000
00000000
00000000
00100000
00000000
00000000
10000000
00000000
01000000
00000000
00000000
00100000
00000000
00000000
00010000
00000000
,
01000000
01000000
00001000
00001000
00010000
00000100
00001000
00000000
,
00001010
00000010
00000100
00000100
,
00001000
00010000
00001000
00010000
00000000
00000000
00000000
00100000
,
00000000
00100000
10000000
00000000
01000000
00000000
00010000
00000000
,
00001000
00020000
00000000
00000000
00000000
00030000
00000000
00000000
,
00000000
00010100
00000000
00010100
,
00000000
01001000
00000000
01001000
,
00022000
00000000
00000000
00033000
,
00022000
00000000
00000000
00033000
,
00010100
00010100
01001000
01001000
,
10010000
00000000
10000000
00000000
01000000
00100000
01000000
00000000
,
10000000
00010000
01000000
00000000
00001000
00010000
00000100
00000000
,
00001000
00000001
00000100
00000010
00001000
00000001
00000010
00000000
,
00000110
00000110
00001100
00001100
,
00001000
00000000
00000100
00000000
00010000
00001000
00010000
00000000
,
00100000
01000000
00100000
00000000
10000000
00010000
00100000
00000000
,
01000000
10000000
00010000
10000000
00100000
00010000
00001000
00000000
,
00010000
00000000
00000100
00000000
00001000
00000000
00000000
00001000
00000000
00000000
00000010
00000000
00000100
00000000
00000000
00000000
,
00000001
00000000
00000010
00000000
00000100
00000000
00000000
00000100
00000000
00000000
00010000
00000000
00001000
00000000
00000000
00000000
,
01000000
00000000
00000000
10000000
00000000
00000000
01000000
00000000
00000000
00010000
00000000
00000000
00100000
00000000
00000000
00000000
,
01100000
01100000
10010000
10010000
,
10000000
00000000
01000000
00000000
00010000
00000000
00000000
00010000
00000000
00000000
00001000
00000000
00000010
00000000
00000000
00000000
,
00000001
00000000
00000100
00000000
00001000
00000000
00000000
00001000
00000000
00000000
00010000
00000000
00100000
00000000
00000000
00000000
,
10000000
00000000
00000000
01000000
00000000
00000000
00010000
00000000
00000000
00001000
00000000
00000000
00000100
00000000
00000000
00000000
,
00000110
00000110
00001001
00002002
,
00000000
00000000
00000000
00000000
,
00000000
00000000
00000000
00000000
,
00003003
00000000
00000000
00000000
;

//--------------- dance-double - forcednature ----------------
#NOTEDATA:;
#STEPSTYPE:dance-double;
#DESCRIPTION:forcednature;
#CREDIT:forcednature;
#DIFFICULTY:Hard;
#METER:16;
#RADARVALUES:0,0,0,0,0;
#NOTES:
00000000
00000000
00000000
00000000
,
00000000
00000000
00000000
00000000
,
00000000
00000000
00000000
00000000
,
00011000
00000000
00010000
00000000
00100000
10000000
00010000
10000000
,
00000000
01000000
01000000
00010000
00000000
00001000
00000010
00000000
,
00000100
00001000
00000001
00000000
00000100
00001000
00010000
00100000
,
01000000
00000000
00010000
00000000
10000000
00000000
00010000
00000000
00000000
00000000
00100000
01000000
00100000
00000000
00000000
00000000
,
01000000
00000000
10000000
00000000
00010000
00000000
00000000
00010000
00000000
00000000
01000000
00000000
00001000
00000000
00010000
00000000
,
00000100
00000000
00001000
00000000
00000010
00000000
00000000
00000010
00000000
00000000
00000100
00000000
00000001
00000000
00001000
00000000
,
00000100
00001000
00000000
00000100
00010000
00000000
00001000
00100000
00000000
00010000
00100000
00000000
01000000
00000000
10000000
00000000
,
00020000
02030000
03200000
20300000
,
31000000
00000000
00010000
00000000
00001000
00000000
00000000
00001000
00000000
00000000
00000010
00000000
00000100
00000000
00001000
00000000
,
00000001
00000000
00000100
00000000
00001000
00000000
00000000
00001000
00000000
00000000
00010000
00000000
00010000
00000000
00100000
00000000
,
01000000
00010000
00000000
01000000
00001000
00000000
00010000
00000010
00000000
00001000
00000010
00000000
00000100
00000000
00000001
00000000
,
00000020
00002030
00023000
02030000
,
03100000
00000000
01100000
00000000
10010000
00000000
00000000
10000000
,
01000000
00100000
00010000
00100000
00001000
00010000
00000010
00000000
,
00000100
00000000
00000001
00000000
00001000
00000100
00000000
00000010
00000100
00000000
00000010
00000001
00000000
00001000
00000001
00000000
,
00000100
00000000
00000010
00000000
00001000
00000010
00000000
00010000
00001000
00000000
00100000
00010000
00000000
00100000
01000000
00000000
,
01100000
00000000
11000000
00000000
10100000
00000000
00000000
00100000
,
00010000
00001000
00000000
00000010
00001000
00010000
00011000
00000000
,
00001000
00000000
00010000
00000000
00000010
00001000
00000000
00000010
00000100
00000000
00000001
00000100
00000000
00000001
00001000
00000000
,
00000100
00000000
00010000
00000000
00001000
01000000
00000000
00010000
01000000
00000000
00010000
10000000
00010000
00100000
01000000
10000000
,
00100000
00000000
01100000
00000000
10010000
00000000
10000000
01000000
,
00010000
00001000
00000100
00000001
00000010
00000100
00001000
00000100
,
00000010
00000000
00000001
00000000
00000100
00000001
00000000
00000100
00000010
00000000
00001000
00000010
00000000
00010000
00001000
00000000
,
00100000
00000000
00010000
00000000
00100000
01000000
00000000
10000000
01000000
00000000
00100000
00010000
00000000
10000000
00010000
00000000
,
10010000
00000000
01001000
00000000
00010100
00000000
00000100
00001000
,
00000010
00001000
00000100
00000001
00000100
00000010
00000001
00001000
,
00000010
00000000
00010000
00000000
00000000
00000000
00001000
00100000
00001000
00000000
00010000
00000000
00000000
00000000
00100000
01000000
,
00000000
00000000
01100000
00000000
00000000
10010000
00000000
00000000
11000000
00000000
00000000
00110000
00000000
00000000
00010000
01000000
,
00001000
00010000
00001000
00000010
00001000
00010000
00001000
01000000
,
00010000
00000000
00000000
10000000
00000000
00000000
01000000
00000000
01100000
00000000
00000000
01100000
00000000
00000000
01100000
00000000
,
00000000
00000000
00011000
00000000
00010000
00000100
00001000
00000100
,
00000010
00000000
00000001
00000000
00001000
00000000
00000001
00000000
00000100
00000000
00000010
00001000
00000010
00000000
00010000
00001000
,
00020000
00000100
00000000
00000100
00000000
00001000
00000000
00001000
,
00000000
00000000
00000010
00000000
00000000
00000000
00030010
00000000
00010000
00000000
00000000
00011000
00000000
00000000
00011000
00000000
,
00000000
00000000
10010000
10000000
01000000
01000000
00010000
00010000
,
00001000
00010000
00001000
00010000
00000100
00001000
00000100
00001000
00000001
00000100
00000001
00000100
00000010
00001000
00000010
00001000
,
00000200
00000300
00020000
00030000
00002000
00003000
02000000
03000000
00020000
00000000
10000000
00000000
10030000
00000000
00000000
00000000
,
11000000
00110000
00001100
00000011
,
00000001
00000100
00001000
00000100
00000010
00010000
00010000
00000000
,
00001000
00100000
00010000
00100000
01000000
10000000
00010000
10000000
,
00100000
10000000
00100000
00000000
01000000
00010000
01000000
00000000
00001000
00010000
00001000
00000000
00100000
00010000
00100000
00000000
,
01100000
00011000
00000110
00011000
,
00001000
00000100
00000010
00000100
00000001
00001000
00001000
00000000
,
00000100
00010000
00001000
01000000
00010000
00000000
00100000
01000000
,
10000000
00000000
00000000
10000000
00100000
00000000
00010000
00000000
00001000
00000000
00001000
00000000
00010000
00000100
00010000
00000100
,
00001000
00001001
00011000
00001100
,
00000010
00010000
00001000
00100000
01000000
10000000
10000000
00000000
,
00100000
00010000
00100000
10000000
01000000
00010000
00001000
00010000
,
00000100
00001000
00000100
00000000
00000010
00000001
00000010
00000000
00000100
00001000
00000100
00000000
00010000
00001000
00010000
00000000
,
01001000
00110000
00001100
00010010
,
00010000
00001000
00000010
00000100
00001000
00000001
00000001
00000100
,
00001000
00010000
00001000
01000000
10000000
01000000
00010000
10000000
,
01000000
00100000
01000000
00100000
00010000
10000000
00010000
10000000
00010000
01000000
00010000
01000000
00001000
00010000
00001000
00010000
,
00000100
00000000
00001000
00000000
00000010
00000100
00000000
00000100
00000001
00000000
00000010
00000000
00001000
00000000
00000010
00000000
,
00000100
00000000
00010000
00000000
00001000
01000000
00000000
01000000
00010000
00000000
10000000
00000000
10000000
00000000
01000000
00000000
,
00100000
00010000
00000000
00100000
00001000
00000000
00010000
00000010
00000000
00001000
00000010
00000000
00000100
00000000
00001000
00000000
,
00010000
00000000
00001000
00100000
00001000
00000000
00010000
00000010
00010000
00000000
00001000
00010000
00001000
00000000
00000000
00000000
,
00011000
00000000
00000000
00000000
00010000
00001000
00100000
00010000
00100000
00000000
00000000
01100000
00000000
00000000
10010000
00000000
,
01100000
00000000
00000000
00000000
10000000
00100000
10000000
00010000
00100000
00000000
00000000
01100000
00000000
00000000
00110000
00000000
,
00101000
00000000
00000000
00011000
00000000
00000000
00010010
00000000
00010100
00000000
00000000
00011000
00000000
00000000
01001000
00000000
,
01000000
00000000
01000000
00000000
00010000
00000000
00010000
00000000
10000000
01000000
00100000
00010000
00100000
00001000
00010000
00000010
,
00001000
00000000
00000000
00000000
00001000
00000000
00000100
00000010
00000001
00000000
00000000
00000000
00000001
00000000
00000000
00000000
,
00000100
00001000
00010000
00001000
00000100
00001000
00010000
00001000
,
00000000
00100000
00010000
00100000
01000000
10000000
00010000
10000000
,
00200000
00320000
00030000
00000000
00200000
00320000
00030000
00000000
,
00001000
00001010
00000010
00000011
,
00000001
00000101
00000100
00001100
,
00022000
00000000
00000000
00033000
,
01000000
00000000
00010000
00100000
20000000
00000000
30000000
00000000
,
00100000
00010000
00000000
00000000
00010000
01000000
00000000
00000000
01100000
00000000
00000000
00000000
10010000
00000000
00000000
00000000
,
10000000
01000000
00010000
00001000
00000100
00000001
00000001
00000000
,
00000010
00000100
00000001
00000100
00001000
00000010
00010000
00001000
,
00100000
00010000
00100000
00000000
01000000
10000000
01000000
00000000
10000000
00100000
10000000
00000000
00010000
01000000
00010000
00000000
,
10100000
01010000
00001100
00000011
,
00000001
00000000
00000100
00000000
00000010
00001000
00000010
00000000
00010000
00001000
00010000
00001000
00100000
00010000
00100000
00000000
,
01000000
01000000
10000000
10000000
00100000
00100000
00010000
00010000
,
00001000
00010000
00001000
00010000
00000100
00001000
00000100
00001000
00000001
00000100
00000001
00000100
00000010
00001000
00000010
00001000
,
00000100
00000000
00010000
00000000
00001000
01000000
00000000
01000000
00010000
00000000
10000000
00000000
10000000
00000000
01000000
00000000
,
00010000
00000000
00001000
00000000
00100000
00010000
00000000
00010000
01000000
00000000
00001000
00000000
00001000
00000000
00010000
00000000
,
00000100
00001000
00000000
00000100
00000010
00000000
00000100
00000001
00000000
00000100
00000010
00000000
00000001
00000000
00000100
00000000
,
00000110
00000000
00000010
00010000
00001000
00000000
00100000
00001000
00010000
00000000
00001000
01000000
00010000
00000000
00000000
00000000
,
10000000
00000000
01000000
00000000
01100000
00000000
00000000
00110000
00000000
00000000
00010000
00000000
00010000
00000000
01000000
00000000
,
00001000
00000000
00010000
00000000
00011000
00000000
00000000
00010100
00000000
00000000
00000100
00000000
00000100
00000000
00001000
00000000
,
00000001
00000100
00000000
00000010
00010000
00000000
00001000
00100000
00000000
01000000
10000000
00000000
00010000
00000000
10000000
00000000
,
11000000
11000000
01010000
00022000
,
00000000
00000000
00000000
00000000
,
00000000
00000000
00000000
00000000
,
00033000
00000000
00000000
00000000
;
