#VERSION:0.83;
#TITLE:∀;
#SUBTITLE:;
#ARTIST:BEMANI Sound Team "HuΣeR" respect for D.J.Amuro;
#TITLETRANSLIT:Turn A;
#SUBTITLETRANSLIT:;
#ARTISTTRANSLIT:HuΣeR respect for D.J.Amuro;
#GENRE:RENAISSANCE;
#CREDIT:;
#MUSIC:Turn A.ogg;
#BANNER:Turn A.png;
#BACKGROUND:Turn A-bg.png;
#CDTITLE:./CDTitles/bm IIDX 28 BISTROVER.png;
#SAMPLESTART:87.986;
#SAMPLELENGTH:15.000;
#SELECTABLE:YES;
#OFFSET:1.333;
#BPMS:0.000=180.000;
#STOPS:;
#TIMESIGNATURES:0.000=4=4;
#BGCHANGES:4.000=Turn A.mp4=1.000=0=0=0=StretchNoLoop====,
99999.000=-nosongbg-=1.000=0=0=0=StretchNoLoop====
;
#FGCHANGES:;

//--------------- dance-single - forcednature ----------------
#NOTEDATA:;
#STEPSTYPE:dance-single;
#DESCRIPTION:forcednature;
#DIFFICULTY:Beginner;
#METER:4;
#RADARVALUES:0,0,0,0,0;
#CREDIT:forcednature;
#NOTES:
0000
0000
0000
0000
,
0000
0000
0000
0000
,
0000
0000
0000
0000
,
0000
0000
0000
0000
,
0000
0000
0000
0000
,
0000
0000
0000
0000
,
0000
0000
0000
0000
,
0000
0000
0000
0000
,
0000
0000
0000
0000
,
0000
0000
0000
0000
,
0000
0000
0000
0000
,
0001
0000
0000
0000
,
0000
0000
0000
0000
,
1000
0000
0000
0000
,
0100
0000
0000
0000
,
1000
0000
0000
0000
,
0000
0000
0000
0000
,
0001
0000
0000
0000
,
0010
0000
0000
0000
,
0001
0000
0000
0000
,
1000
0000
0000
0000
,
0001
0000
0000
0000
,
0100
0000
0000
0000
,
0010
0000
0000
0000
,
0010
0000
0000
0000
,
1000
0000
0000
0000
,
0001
0000
0000
0000
,
0010
0000
0000
0000
,
0100
0000
0000
0000
,
1000
0000
0000
0000
,
0100
0000
0000
0000
,
0010
0000
0000
0000
,
0001
0000
0000
0000
,
1000
0000
0000
0000
,
0001
0000
0000
0000
,
0100
0000
0000
0000
,
0010
0000
0000
0000
,
1000
0000
0000
0000
,
0001
0000
0000
0000
,
0010
0000
0000
0000
,
0001
0000
0000
0000
,
0100
0000
0000
0000
,
0010
0000
0000
0000
,
1001
0000
0000
0000
,
0000
0000
0000
0000
,
1000
0000
0000
0000
,
0000
0000
0000
0000
,
0100
0000
0000
0000
,
0000
0000
0000
0000
,
0010
0000
0000
0000
,
0001
0000
0000
0000
,
1000
0000
0000
0000
,
0001
0000
0000
0000
,
0100
0000
0000
0000
,
0010
0000
0000
0000
,
1001
0000
0000
0000
,
0110
0000
0000
0000
,
0001
0000
0001
0000
,
1000
0000
0000
0000
,
0000
0110
0000
0000
,
0001
0000
0100
0000
,
0001
0000
0000
0000
,
1000
0000
0100
0000
,
1000
0000
0000
0000
,
0010
0000
0100
0000
,
0010
0000
0000
0000
,
1000
0000
0001
0000
,
0010
0000
0100
0000
,
1000
0000
0100
0000
,
0010
0000
0001
0000
,
1000
0000
0001
0000
,
0100
0000
0010
0000
,
1000
0000
0001
0000
,
0010
0000
0100
0000
,
1000
0000
0001
0000
,
0000
0100
0100
0100
,
0000
0010
0010
0010
,
0000
1000
0000
0001
,
0000
0001
0000
1000
,
0000
0100
0100
0100
,
0000
0010
0010
0010
,
0000
0001
0000
1000
,
0000
0001
0001
0000
,
0100
0000
0100
0000
,
0010
0100
0010
0000
,
1001
0000
0000
0000
;

//--------------- dance-single - forcednature ----------------
#NOTEDATA:;
#STEPSTYPE:dance-single;
#DESCRIPTION:forcednature;
#DIFFICULTY:Easy;
#METER:8;
#RADARVALUES:0,0,0,0,0;
#CREDIT:forcednature;
#NOTES:
0000
0000
0000
0000
,
0000
0000
0000
0000
,
0000
0000
0000
0000
,
0000
0000
0000
0000
,
0000
0000
0000
0000
,
0000
0000
0000
0000
,
0000
0000
0000
0000
,
0000
0000
0000
0000
,
0000
0000
0000
0000
,
0000
0000
0000
0000
,
0000
0000
0000
0000
,
1001
0000
0001
0100
,
0010
0000
1000
0001
,
0010
0000
0100
1000
,
0001
1000
0010
0000
,
0110
0000
0100
0001
,
1000
0000
0001
0010
,
0100
0000
1000
0001
,
0100
0010
1000
0000
,
0001
0010
0001
0001
,
1000
0010
1000
1000
,
0001
0100
0001
0001
,
1000
0100
1000
1000
,
0010
0100
0001
1000
,
0100
0010
0001
1000
,
0010
0010
0010
0010
,
0200
0000
0301
1000
,
1001
0000
0001
0010
,
0100
1000
0001
0000
,
0100
0010
1000
0000
,
0010
0100
0001
0000
,
1000
0000
0100
0010
,
0001
0100
0010
0000
,
1000
0100
1000
0001
,
1000
0010
1000
0001
,
1000
0000
0100
0010
,
0001
0100
0010
0000
,
1000
0001
0010
0000
,
0001
0100
0010
0000
,
0110
0000
0100
0001
,
1000
0001
0010
0000
,
0100
1000
0100
1000
,
0001
0001
1000
0010
,
0100
0000
0001
0000
,
1000
0000
0001
0010
,
0100
0000
1000
0000
,
0001
0000
1000
0010
,
0100
0000
0001
0000
,
1000
0000
0001
0010
,
0100
0000
1000
0000
,
0001
0100
0001
0000
,
1001
0000
1000
0100
,
1000
0000
0001
0100
,
0001
0000
0010
0100
,
1000
0001
0010
0000
,
0001
0100
0001
0100
,
0010
1000
0010
1000
,
0100
0100
0010
0010
,
0002
0000
2003
3020
,
0030
1001
0000
0001
,
0010
0100
1000
0000
,
0001
0100
0001
0000
,
1000
0100
0010
0001
,
0100
0000
0010
1000
,
0001
1000
0100
0000
,
0010
0001
1000
0010
,
0100
0001
1000
0000
,
0100
0110
0010
0001
,
0100
0001
1000
0100
,
1000
0010
0100
0001
,
0010
0100
1000
0000
,
0001
1000
0001
0000
1000
0000
0010
0000
,
1000
0001
0010
0001
,
0100
0010
0100
0000
0001
0000
1000
0000
,
0100
0100
0010
0001
,
0000
0000
1000
0001
1000
0000
0010
0000
,
0000
0000
0001
1000
0001
0000
0010
0000
,
0000
1000
0100
0010
,
0001
0100
0010
1000
,
0000
0000
0001
1000
0001
0000
0100
0000
,
0000
0000
1000
0001
1000
0000
0100
0000
,
0010
0001
0100
0001
,
1000
1001
0001
1001
,
1000
0010
0100
0001
,
0010
0100
0010
0000
0100
0000
0110
0000
,
2002
0000
0000
0000
,
0000
0000
0000
0000
,
3003
0000
0000
0000
;

//--------------- dance-single - forcednature ----------------
#NOTEDATA:;
#STEPSTYPE:dance-single;
#DESCRIPTION:forcednature;
#DIFFICULTY:Medium;
#METER:14;
#RADARVALUES:0,0,0,0,0;
#CREDIT:forcednature;
#NOTES:
0000
0000
0000
0000
,
0000
0000
0000
0000
,
0000
0000
0000
0000
,
0000
0000
0000
0000
,
0000
0000
0000
0000
,
0000
0000
0000
0000
,
0000
0000
0000
0000
,
0000
0000
0000
0000
,
0000
0000
0000
0000
,
0000
0000
0000
0000
,
0000
0000
0000
0000
,
2002
0000
3003
0001
,
0100
0000
0010
1000
0000
0001
0010
0001
,
0000
1000
0000
0000
0010
0100
0000
0001
,
1000
0000
0100
0010
0001
0100
0010
0000
,
0220
0330
1000
0001
,
2002
3003
0100
0010
,
0220
0330
0001
1000
,
0001
0010
0000
1000
0010
0000
0001
1000
,
0010
0100
0110
0010
,
1000
0100
0010
0100
1000
0000
0001
0100
,
0010
0100
0001
0000
1000
0001
0010
0001
,
0100
0000
0001
1000
0010
1000
0100
0000
,
0010
0001
0010
0001
1000
0010
1000
0000
,
0100
1000
0100
1000
0001
0100
0001
0000
,
0010
0100
0010
0001
0100
0010
0100
0001
,
1000
0000
1000
0000
1000
0100
0001
0000
,
0220
0000
0330
0000
0010
0001
0100
0000
,
0010
0000
0000
1000
0000
1000
0000
1000
0001
0000
0000
0000
0010
0000
0100
0000
,
1000
0000
0001
0100
0010
1000
0001
0000
,
0020
0000
0230
0000
1300
0001
0100
0000
,
1010
0000
0001
0010
0100
0000
1000
0000
,
0001
0000
0000
0100
0000
0100
0000
0100
0010
0000
0000
0000
2000
0000
0000
0000
,
3001
0010
0100
0010
0001
1000
0100
0000
,
0110
0000
0010
0001
1000
0001
0100
0000
,
0020
0000
2030
0000
3001
0010
0100
0000
,
1000
0000
0000
0001
0000
0001
0000
0001
0100
0000
0000
0000
0010
0000
1000
0000
,
0001
0000
1000
0100
0010
0001
0100
0000
,
0020
0000
2030
0000
3001
0010
0100
1000
,
0010
0000
0100
0001
1000
0001
0010
0000
,
0100
0000
0000
1000
0000
1000
0000
1000
0001
0000
0100
0000
0001
0000
0000
0000
,
1000
0010
0100
0001
0100
0010
1000
0000
,
1100
0000
0101
0000
0001
0010
0100
0000
,
2001
0001
0100
0100
,
0001
0000
0001
0000
0010
0000
3010
1000
,
0002
1000
0100
0100
,
1000
0000
1000
0000
0010
0000
0013
0001
,
2000
0001
0010
0010
,
0001
0000
0001
0000
0100
0000
3100
1000
,
0001
0000
0100
0010
1000
0000
0001
0010
,
0100
0001
0000
0100
1000
0000
0010
1000
,
0001
0000
0100
0010
0000
1000
0100
1000
,
0001
0000
0000
0100
0000
0000
0010
0000
0000
0000
1000
0000
0000
0000
0001
1000
,
0001
0000
0010
0100
0000
1000
0000
0010
,
0000
0000
0100
0000
0000
0000
0001
0000
0000
0000
1000
0000
0000
0000
0100
0010
,
0100
0000
0100
1000
0010
1000
0001
0010
,
0100
0000
0010
0001
0100
0001
1000
0010
,
1000
0100
0001
0100
1000
0010
0001
0010
,
0200
0000
0000
0000
0301
0000
0010
0000
0100
0000
1000
0000
0001
1000
0001
0000
,
0100
0000
1001
0000
1000
0010
0001
0000
,
0011
0000
1000
0100
0010
0000
1000
0010
,
0001
0000
0100
0010
1000
0001
0010
0000
,
0100
0000
0000
0100
1000
0000
0001
0000
0000
0000
0100
0000
0010
1000
0000
1000
,
0001
0000
0010
0100
1000
0010
0100
0000
,
1000
0100
0001
0100
0010
0000
1000
0001
,
0010
0000
0000
0000
0100
0000
0001
0000
0100
0000
1000
0000
0001
0000
0010
0001
,
0010
0000
0000
0000
0100
0000
1000
0000
0001
0000
0100
0000
0010
0100
0010
0000
,
1000
0001
1001
0000
1000
0100
0001
0100
,
1000
0010
0001
0010
0100
0001
0010
0001
,
1000
0010
0000
0000
0010
0100
0000
0000
0100
0001
0000
0000
0001
1000
0000
0000
,
1000
0000
0100
0000
0001
0000
0100
0000
0010
0000
0001
0000
0100
0001
0000
0001
,
1000
1000
0010
0001
0010
0100
0001
1000
,
0100
0001
0100
1000
0001
0010
1000
0010
,
0110
0000
0100
1000
0001
1000
0010
0001
,
0010
0000
0100
0000
1000
0000
0100
0000
0001
0000
0000
0001
0010
0000
0010
0000
,
0100
0000
0000
0000
1000
0010
1000
0000
0010
0000
0100
0000
0001
0000
1000
0000
,
0001
0000
0000
0000
0001
0010
0001
0000
0010
0000
0100
0000
1000
0000
0001
0000
,
1000
0010
0100
0001
0010
0100
1000
0001
,
0100
0000
0000
0100
0010
0000
1000
0000
0010
0000
0100
0000
0001
0100
0001
0000
,
1000
0000
0000
0000
0001
0010
0001
0000
0010
0000
0100
0000
1000
0000
0001
0000
,
1000
0000
0000
0000
1000
0010
1000
0000
0010
0000
0100
0000
0001
0000
1000
0000
,
0100
1000
0100
0000
0010
0000
0001
0000
1000
0000
0001
0000
0100
0000
0010
0000
,
1000
0000
0100
0000
0001
0000
0100
0000
1000
0000
0100
0000
0010
0001
0010
0000
,
0001
0100
0001
0000
1000
0000
0010
0000
0001
0000
0010
0000
0100
0000
0001
0000
,
1000
0000
0100
0000
0001
0000
0100
0000
0010
0000
0001
0000
1000
0001
1000
0000
,
0020
0000
0000
0000
,
0000
0000
0000
0000
,
0030
0000
0000
0000
;

//--------------- dance-single - forcednature ----------------
#NOTEDATA:;
#STEPSTYPE:dance-single;
#DESCRIPTION:forcednature;
#DIFFICULTY:Hard;
#METER:17;
#RADARVALUES:0,0,0,0,0;
#CREDIT:forcednature;
#NOTES:
0000
0000
0000
0000
,
0000
0000
0000
0000
,
0000
0000
0000
0000
,
0000
0000
0000
0000
,
0000
0000
0000
0000
,
0000
0000
0000
0000
,
0000
0000
0000
0000
,
0000
0000
0000
0000
,
0000
0000
0000
0000
,
0000
0000
0000
0000
,
0000
0000
0000
0000
,
1002
0103
0110
0002
,
2003
0000
3100
0010
0000
0100
1000
0001
,
0001
0100
1000
0000
0100
0010
0000
1000
,
0001
0010
0001
0100
0010
0000
0001
0010
,
2000
3000
1100
0002
,
0023
0000
0031
0000
0101
0000
1000
0010
,
0200
0301
0011
0001
,
0100
0110
0000
0010
1000
0001
1000
0100
,
0110
0011
1100
0110
,
0010
0001
0100
0001
1000
0100
1000
0010
,
0100
1000
0100
0001
0010
1000
0010
0001
,
1000
0000
0001
0100
0010
1000
0001
0000
,
1010
0001
0100
0001
0011
1000
0100
1000
,
1100
0001
0010
0001
0101
1000
0010
1000
,
0001
0010
0001
0010
0100
1000
0100
1000
0001
0100
0010
1000
0001
0010
0100
1000
,
0010
0000
0000
0000
0010
0000
0000
0000
0100
0000
0001
1000
0001
0100
0010
1000
,
0002
0000
0000
0000
0000
0000
0000
0000
0013
0000
0100
1000
0001
1000
0100
0000
,
0010
0001
0000
0100
0000
0100
0010
0100
0010
0000
1000
0001
0010
0000
0100
1000
,
0001
0000
0000
0000
0100
1000
0100
1000
0100
0000
0001
0000
0010
0100
0010
0100
,
0002
0000
0000
0000
0203
0000
0000
0000
2300
0000
0000
0000
3010
0100
0001
0000
,
1000
0000
0000
0000
0100
0001
0100
1000
0100
0000
0010
0001
0000
0001
0100
0000
,
0010
1000
0000
0100
0000
0100
0000
0100
0020
0000
0001
0000
0130
0000
0000
0000
,
0110
0000
1001
0000
0001
0100
1010
0000
,
1100
0000
0000
0000
0001
0000
0010
0000
1000
0000
0010
0001
0100
0001
1000
0000
,
0020
0000
0000
0000
0230
0000
0000
0000
1300
0100
0001
0000
0010
0000
0001
0000
,
1000
0010
0000
0100
0000
0100
0000
0100
1000
0000
0100
0001
0010
0001
0010
0000
,
0001
0000
1000
0000
0010
0001
0010
1000
0010
0000
0100
0001
1000
0000
0001
0010
,
0200
0000
0000
0000
0302
0000
0000
0000
1003
0000
0010
0001
1000
0001
0100
0000
,
0120
0000
0000
0000
0031
0010
0100
0010
1000
0000
0001
1000
0100
0000
0010
0000
,
1000
0010
0000
0001
0000
0001
0000
0001
0100
0000
0010
1000
0001
1000
0010
0000
,
0100
0001
0011
0010
0100
1000
1010
0010
,
1001
0000
0100
0000
1001
0000
0010
0000
0110
0000
1001
0000
0100
0010
0100
0000
,
1002
1000
0100
0100
,
1000
0000
0000
0000
1000
0000
0000
0000
0010
0000
0000
0000
0013
0000
0010
0001
,
2000
0001
0100
0100
,
0001
0000
0000
0000
0001
0000
0000
0000
0010
0000
0000
0000
0010
0000
3010
1000
,
0002
1000
0010
0010
,
1000
0000
1000
0000
0100
0000
0103
0001
,
0020
0000
0130
1000
1010
0000
0001
0100
,
1000
0000
1100
0000
0000
0000
0100
0000
0101
0000
0000
0000
0001
0010
0100
1000
,
0010
0000
0010
0100
1000
0100
0001
0010
,
0110
0000
0000
1100
0000
0000
0011
0000
0000
0000
1001
0000
0000
0000
0001
0100
,
1000
0000
0100
0001
0010
0110
0000
1001
,
0000
0000
0011
0000
0000
0000
1100
0000
0000
0000
0101
0000
0000
0000
0001
0010
,
0001
0010
0100
0010
1000
0010
0100
0010
,
0001
0100
0010
0100
1000
0100
0010
0100
,
0001
0100
0010
1000
0001
0010
0100
1000
0001
0100
1000
0100
0010
1000
0001
1000
,
0100
0000
0100
0000
0010
0001
0000
0000
0100
0000
0000
0010
1000
0001
1000
0100
,
0020
0000
0000
0030
1001
0000
0000
0000
0001
0000
0100
0000
1010
0000
0000
0000
,
0001
0010
0100
0000
0011
0000
0000
0000
1000
0010
0100
0000
1010
0000
0000
0000
,
0001
1000
0100
0000
0011
0000
0000
0000
1000
0000
0001
0000
1100
0000
0200
0000
,
1300
0000
0000
1000
0100
0000
0010
0001
1000
0000
0010
0000
0100
1000
0000
0100
,
0001
0010
1100
0000
1000
0010
0101
0000
,
0001
0010
0100
0000
1010
0000
0000
0000
1000
0010
0100
0000
0011
0000
0000
0000
,
1000
0100
0010
0000
1100
0000
0000
0000
0001
0000
0010
0000
0100
1000
0010
1000
,
0002
0000
0000
0000
0100
0000
0000
0000
1003
0000
0001
0010
0100
1000
0000
0010
,
0100
0000
0110
0000
1001
0000
0000
0000
0001
0100
0010
0100
0001
1000
0010
1000
,
0001
0010
0100
0010
0001
1000
0100
1000
0001
0100
0010
1000
0001
0010
0100
1000
,
0001
0100
0001
0000
1000
0100
1000
0000
0001
0010
0001
0000
1000
0010
1000
0000
,
0100
1000
0001
1000
0010
0100
0001
1000
0001
0000
0001
0010
0001
1000
0000
1000
,
0010
0000
0110
0000
1001
0000
0000
0000
1000
0100
1000
0100
0010
0001
0010
0001
,
0100
0010
0100
0010
1000
0001
1000
0001
0010
0100
0010
0100
1000
0001
1000
0000
,
0001
0100
0010
1000
0001
0010
0100
1000
0001
0010
0001
1000
0001
0100
0010
0000
,
1000
0100
0010
0100
1000
0001
0010
0001
1000
0000
0010
0100
0001
1000
0000
1000
,
0010
0000
0000
0000
1000
0001
0010
0100
1000
0001
0100
0010
1000
0001
0100
1000
,
0100
0000
0000
0000
0001
1000
0010
0100
0001
1000
0100
0010
0001
1000
0100
0001
,
0100
1000
0010
0110
0100
0001
0010
0110
,
1001
0000
0000
0001
0100
0000
0100
0010
1000
0000
1000
0100
1000
0001
0010
0000
,
1001
0000
0000
0000
0001
1000
0100
0010
0001
1000
0010
0100
0001
1000
0010
0001
,
0010
0000
0000
0000
1000
0001
0100
0010
1000
0001
0010
0100
1000
0001
0010
1000
,
0010
0001
0010
0001
0100
0001
0100
0001
1000
0100
1000
0100
1000
0010
1000
0010
,
0100
0000
0110
0000
0010
0000
1001
0000
0110
0000
0000
0000
1000
0001
1000
0000
,
0001
0100
0010
1000
0001
0010
0100
1000
0010
0100
0001
1000
0100
0010
0001
0100
,
0010
1000
0100
1000
0001
0010
0001
0100
0010
1000
0001
1000
0100
0001
0100
1000
,
0020
0000
0000
0000
,
0000
0000
0000
0000
,
0030
0000
0000
0000
;

//--------------- dance-double - forcednature ----------------
#NOTEDATA:;
#STEPSTYPE:dance-double;
#DESCRIPTION:forcednature;
#DIFFICULTY:Easy;
#METER:10;
#RADARVALUES:0,0,0,0,0;
#CREDIT:forcednature;
#NOTES:
00000000
00000000
00000000
00000000
,
00000000
00000000
00000000
00000000
,
00000000
00000000
00000000
00000000
,
00000000
00000000
00000000
00000000
,
00000000
00000000
00000000
00000000
,
00000000
00000000
00000000
00000000
,
00000000
00000000
00000000
00000000
,
00000000
00000000
00000000
00000000
,
00000000
00000000
00000000
00000000
,
00000000
00000000
00000000
00000000
,
00000000
00000000
00000000
00000000
,
00011000
00000000
00001000
00000000
01000000
00000000
00010000
10000000
,
00010000
00100000
01000000
00000000
,
00010000
00000000
00001000
00000000
00010000
00000000
00000010
00001000
,
00000010
00000100
00000001
00000010
,
00000110
00000000
00000100
00010000
,
00011000
00000000
00001000
01000000
,
01100000
00000000
00100000
10000000
,
01000000
10000000
00000000
01000000
00100000
00000000
00010000
00100000
,
00001000
00001000
00010000
00010000
,
00000010
00000000
00000010
00001000
00000010
00000000
00001000
00000100
,
00001000
00000001
00000100
00000001
,
00000010
00000000
00000100
00001000
00000100
00000000
00010000
00000000
,
00011000
00011000
01001000
01001000
,
01000000
00010000
01000000
00000000
00010000
10000000
00010000
00000000
,
00100000
01000000
00100000
01000000
10000000
01000000
10000000
00000000
,
01000000
00010000
00001000
00000010
,
00000220
00000000
00000330
00000000
00000100
00001000
00000100
00000000
,
00010000
00000000
00001000
00000000
01000000
00010000
01000000
00000000
,
00001000
00000000
00010000
00000000
00000010
00001000
00000010
00000000
,
00000200
00000302
00000023
00000230
,
00001300
00000000
00000010
00000000
00010000
00001000
00010000
00000000
,
00001000
00000000
00100000
00000000
00010000
01000000
00010000
00000000
,
10000000
11000000
00010000
01010000
,
00100000
00000000
01100000
00000000
10000000
00010000
10000000
00000000
,
00200000
00000000
02300000
00000000
03010000
01000000
00010000
00000000
,
00100000
00000000
00001000
00000000
00010000
00001000
00010000
00000000
,
00000100
00000000
00001000
00000000
00000001
00000100
00000001
00000000
,
00000020
00000230
00020300
00032000
,
01003000
00000000
00010000
00000000
10000000
00100000
10000000
00000000
,
01000000
00000000
00100000
00000000
00010000
10000000
00010000
00000000
,
01000000
10010000
00100000
10010000
,
01010000
00000000
01010000
00000000
00001000
00010000
00001000
00000000
,
00021000
00000000
00000100
00000000
,
00001000
00001000
00001000
00000000
,
00030020
00000000
00001000
00000000
,
00000100
00000100
00000100
00000000
,
00002030
00000000
00000100
00000000
,
00000001
00000001
00000001
00000000
,
00003020
00000000
00001000
00000000
,
00010000
00010000
00010030
00000000
,
00011000
00000000
00001000
00100000
,
00010000
00000000
00100000
00000000
01000000
00000000
10000000
01000000
,
10000000
00000000
00010000
00000000
01000000
00000000
00001000
00010000
,
00001000
00100000
00010000
00100000
,
01100000
00000000
01000000
10000000
01000000
00000000
10000000
00100000
,
10000000
00000000
00010000
00100000
00010000
00000000
01000000
00010000
,
02000000
03002000
00023000
00030010
,
00000110
00000000
00000000
00000001
00001000
00000000
00000010
00000000
,
00000000
00000000
00011000
00000000
00100000
00010000
00100000
00000000
,
00001000
00000000
00010000
00000000
00000010
00001000
00000010
00000000
,
00010000
00000000
00001000
00000000
01000000
00010000
01000000
00000000
,
00001000
00010000
00001000
00000000
00100000
00010000
00100000
00000000
,
01000000
00000000
10000000
00000000
00010000
01000000
00010000
00000000
,
00100000
00000000
00001000
00000000
00010000
00000100
00010000
00000000
,
00001000
00000000
00000010
00000000
00000100
00000010
00000100
00000000
,
00001000
00000000
00000001
00000000
00000100
00000010
00000100
00000000
,
00000110
00000000
00001001
00000000
00000001
00000010
00000001
00000000
,
00000010
00000100
00000010
00000000
00000100
00001000
00000100
00000000
,
00001000
00000010
00001000
00000000
00000010
00010000
00000010
00000000
,
00010000
00001000
00100000
00010000
,
10000000
00100000
10000000
00000000
00100000
01000000
00100000
00000000
,
01000000
00010000
01000000
00000000
00001000
00010000
00001000
00000000
,
00100000
01000000
00100000
00001000
,
00010000
00000010
00001000
00000010
,
00000000
00000000
00000100
00000001
00000100
00000001
00000100
00000000
,
00000000
00000000
00000010
00001000
00000010
00001000
00000010
00000000
,
00010000
00001000
00100000
00010000
,
10000000
10010000
00010000
10010000
,
00000000
00000000
10000000
00100000
10000000
00100000
10000000
00000000
,
00000000
00000000
00010000
01000000
00010000
01000000
00010000
00000000
,
00200000
02300000
03020000
00032000
,
00003010
00000100
00000010
00000100
00000010
00000000
00001001
00000000
,
00000002
00000203
00000320
00002030
,
00023000
00000000
02030000
00000000
03100000
10000000
00100000
00000000
,
20020000
00000000
00000000
00000000
,
00000000
00000000
00000000
00000000
,
30030000
00000000
00000000
00000000
;

//--------------- dance-double - forcednature ----------------
#NOTEDATA:;
#STEPSTYPE:dance-double;
#DESCRIPTION:forcednature;
#DIFFICULTY:Medium;
#METER:15;
#RADARVALUES:0,0,0,0,0;
#CREDIT:forcednature;
#NOTES:
00000000
00000000
00000000
00000000
,
00000000
00000000
00000000
00000000
,
00000000
00000000
00000000
00000000
,
00000000
00000000
00000000
00000000
,
00000000
00000000
00000000
00000000
,
00000000
00000000
00000000
00000000
,
00000000
00000000
00000000
00000000
,
00000000
00000000
00000000
00000000
,
00000000
00000000
00000000
00000000
,
00000000
00000000
00000000
00000000
,
00000000
00000000
00000000
00000000
,
00022000
00000000
00033000
00000000
00001000
00010000
01000000
00000000
,
10000000
00000000
00010000
00100000
00000000
00010000
01000000
00001000
,
00010000
00000010
00001000
00000000
00000001
00000010
00000100
00001000
,
00000010
00000000
00010000
00001000
00100000
00010000
01000000
00000000
,
01100000
00000000
00100000
10000000
01000000
00000000
00100000
00000000
,
00001000
00000000
00000010
00000001
00000100
00000000
00000010
00000000
,
00010000
00000000
00100000
01000000
00010000
00000000
10000000
00000000
,
01000000
00010000
00000000
00001000
00000010
00000100
00000000
00001000
,
00000001
00000101
00001001
00000011
,
00000010
00000100
00010000
00000010
00001000
00010000
01000000
00001000
,
00100000
00010000
01000000
00100000
10000000
01000000
00010000
00001000
,
00100000
00010000
00001000
00000100
00010000
00000010
00001000
00000000
,
00000100
00000001
00000100
00001000
00000010
00000100
00000010
00010000
,
00001000
00100000
01000000
00100000
00001000
00010000
00001000
01000000
,
00010000
00100000
00010000
00000000
00100000
01000000
00100000
00000000
01000000
10000000
01000000
00000000
10000000
00010000
10000000
00000000
,
00100000
00000000
00100000
00000000
01000000
00001000
00010000
00000000
,
00012000
00000000
00000000
00000000
00003010
00000001
00000100
00000000
,
00000010
00010000
00001000
00000010
00001000
00010000
00000010
00000000
,
00000100
00001000
00010000
00000000
01000000
00010000
00001000
00000000
,
00100000
00000000
00001000
00000000
00010000
00000000
00100000
00000000
00010000
00000000
00001000
00000000
01000000
00010000
01000000
00000000
,
00100000
10000000
11000000
00000000
00100000
00010000
01000000
10000000
,
00000000
00000000
01000000
00010000
00000000
01000000
00000000
00010000
00100000
00000000
00001000
00010000
00001000
00000000
00000000
00000000
,
00000010
00000100
00010000
00000010
00010000
00001000
00000010
00000000
,
00000110
00000000
00000000
00000000
00000100
00000000
00001000
00000000
00000001
00000000
00000100
00000000
00000010
00001000
00000001
00001000
,
00000000
00000000
00000100
00000001
00000100
00001000
00000010
00010000
,
00000000
00000000
00001000
00100000
00000000
00010000
00000000
00100000
00001000
00000000
00010000
00000000
00100000
01000000
00100000
01000000
,
00000000
00010000
10000000
01000000
00010000
00001000
00100000
00001000
,
00010000
00000000
00000000
00000000
00010010
00000000
00000000
00000000
00000010
00000000
00001000
00000000
00000100
00000010
00000001
00000000
,
00000100
00000000
00000110
00000000
00000010
00001000
00000100
00010000
,
00000000
00000000
00001000
00010000
00000000
00000100
00000000
00010000
00001000
00000000
00100000
00010000
00100000
00000000
00000000
00000000
,
01000000
10000000
01000000
00010000
00001000
00100000
00010000
00000000
,
01010000
00000000
01001000
00000000
00001000
00010000
00000100
00000000
,
00000110
00000010
00000001
00000001
,
00000100
00000000
00000100
00000000
00001000
00000000
00001000
00010000
,
00100000
00100000
10000000
10000000
,
01000000
00000000
01000000
00000000
00010000
00000000
00010000
00001000
,
00000010
00000010
00000001
00000001
,
00000100
00000000
00000100
00000000
00001000
00000000
00001000
00010000
,
00100000
00000000
01000000
00010000
10000000
00000000
01000000
00010000
,
00001000
00000000
00100000
00000000
00000000
00000000
00001000
00000000
00010000
00000000
00000010
00000000
00010000
00000000
00000100
00001000
,
00000001
00000000
00000100
00001000
00010000
00001000
00100000
00010000
,
10000000
00000000
00000000
10100000
00000000
00000000
01100000
00000000
00000000
00000000
01000000
00000000
00010000
00000000
00100000
00010000
,
00100000
00000000
00001000
00010000
00000010
00010000
00001000
00001010
,
00000000
00000000
00000011
00000000
00000000
00000000
00000101
00000000
00000000
00000000
00001100
00000000
00000000
00000000
00001000
00010000
,
00001000
00000000
01000000
00000000
00010000
00000000
00100000
00000000
01000000
00000000
00100000
00000000
00001000
00000000
00010000
00001000
,
00010000
00000100
00001000
00000010
00000100
00000010
00001000
00000100
,
00000010
00000001
00000010
00000000
00000001
00000100
00000001
00000000
00001000
00000100
00001000
00000000
00000010
00001000
00000010
00000000
,
00020000
00000000
00000000
00000000
00001000
00000000
00000000
00000000
00030100
00000000
00010000
00000000
00001000
00010000
00001000
00000000
,
00100000
00000000
00000000
00000000
01100000
00000000
00000000
00000000
01000000
00000000
10000000
00100000
10000000
00000000
01000000
00000000
,
00010000
00000000
00001000
00000000
00100000
00000000
00010000
00000000
00100000
00000000
00001000
00010000
00001000
00000000
00000000
00000000
,
00000010
00000100
00001000
00000001
00000100
00000010
00001000
00000000
,
00001100
00000000
00000000
00010100
00000000
00000000
00011000
00000000
00000000
00000000
00001000
00100000
00010000
00100000
00000000
00000000
,
01000000
00000000
00100000
00000000
00010000
00000000
01000000
00000000
00100000
10000000
00100000
00000000
01000000
00000000
00010000
00000000
,
00100000
00000000
01000000
00000000
00100000
00000000
00001000
00000000
00010000
00001000
00010000
00000000
00000100
00000000
00000000
00000000
,
00001000
00000000
00000001
00000000
00000100
00000000
00000010
00000000
00001000
00000010
00001000
00000000
00000001
00000000
00000010
00000001
,
00000010
00000000
00000000
00000010
00000100
00000000
00000000
00000100
00001000
00000000
00000001
00000000
00000100
00000010
00001000
00000010
,
00000100
00000000
00000100
00000000
00001001
00000000
00000000
00000000
00000001
00000010
00000001
00000000
00000010
00000000
00000100
00000000
,
00001000
00000100
00001000
00000000
00000100
00000000
00010000
00000000
00001000
00010000
00001000
00000000
01000000
00000000
00010000
00000000
,
00100000
00010000
00100000
00000000
01000000
00100000
01000000
00000000
10000000
01000000
10000000
00000000
00010000
10000000
00010000
00000000
,
01000000
00000000
10000000
00000000
01000000
00000000
00010000
00000000
00100000
00000000
01000000
00000000
00010000
00001000
00000000
00001000
,
00010000
00000000
00000100
00000000
00001100
00000000
00000000
00000000
00001000
00000010
00001000
00000000
00000010
00000100
00000010
00000000
,
00000100
00000001
00000100
00000000
00000001
00001000
00000001
00000000
00000010
00000001
00000010
00000000
00000100
00000000
00010000
00000000
,
00001000
00100000
00001000
00000000
00010000
00000000
00000010
00000000
00010000
00000000
00001000
00000000
01000000
00000000
00010000
00000000
,
00100000
00010000
00100000
00000000
01000000
00000000
10000000
00000000
00010000
00000000
00000000
00010000
01000000
00001000
00010000
00000000
,
00000100
00000000
00000000
00000000
00001000
00000100
00001000
00000100
00001000
00000000
00000010
00000000
00010000
00000000
00001000
00000000
,
01000000
00000000
00000000
00000000
00010000
01000000
00010000
01000000
00010000
00000000
00100000
00000000
00001000
00000000
00010000
00000000
,
00000100
00000000
00000000
00000100
00001000
00000000
00000001
00000000
00000100
00000000
00001000
00000000
00000100
00000000
00000001
00000000
,
00000010
00000000
00000000
00000010
00001000
00000000
00010000
00000000
00001000
00000000
01000000
00000000
00010000
01000000
00010000
00000000
,
10000000
00000000
00000000
00000000
01000000
00100000
01000000
00100000
01000000
00000000
00010000
00000000
00001000
00000000
00100000
00000000
,
00001000
00000000
00000000
00000000
00010000
00000100
00010000
00000100
00010000
00000000
00001000
00000000
00000010
00000000
00000001
00000000
,
00000100
00000001
00000100
00000000
00001000
00000000
00010000
00000000
00100000
00000000
10000000
00000000
00010000
00000000
00000000
00000000
,
10000000
01000000
10000000
00000000
01000000
00000000
00010000
00000000
00001000
00000000
00100000
00000000
00010000
10000000
00010000
10000000
,
00010000
01000000
00100000
00010000
00001000
00100000
00010000
00001000
,
00000100
00010000
00001000
00000100
00000010
00001000
00000100
00000010
,
00000002
00000000
00000000
00000000
,
00000000
00000000
00000000
00000000
,
00000003
00000000
00000000
00000000
;

//--------------- dance-double - forcednature ----------------
#NOTEDATA:;
#STEPSTYPE:dance-double;
#DESCRIPTION:forcednature;
#DIFFICULTY:Hard;
#METER:18;
#RADARVALUES:0,0,0,0,0;
#CREDIT:forcednature;
#NOTES:
00000000
00000000
00000000
00000000
,
00000000
00000000
00000000
00000000
,
00000000
00000000
00000000
00000000
,
00000000
00000000
00000000
00000000
,
00000000
00000000
00000000
00000000
,
00000000
00000000
00000000
00000000
,
00000000
00000000
00000000
00000000
,
00000000
00000000
00000000
00000000
,
00000000
00000000
00000000
00000000
,
00000000
00000000
00000000
00000000
,
00000000
00000000
00000000
00000000
,
00021000
00030100
00001100
00002000
,
00003002
00000000
00000103
00001000
00000000
00010000
00001000
00100000
,
00000000
00001000
00010000
00000000
00100000
10000000
00000000
01000000
,
10000000
00000000
01000000
00010000
00001000
00010000
00000100
00000000
,
00000220
00000000
00000330
00000000
00000010
00000000
00000001
00000100
,
00001000
00000000
00010000
00000000
00011000
00000000
00001000
00100000
,
02000000
03010000
01100000
00100000
,
00001000
00010000
00100000
00000000
00010000
00001000
00000000
00000010
,
00000110
00010100
00011000
00101000
,
00100000
00010000
01000000
00010000
10000000
01000000
00010000
00001000
,
00000010
00000100
00010000
00000000
00000010
00000100
00001000
00000100
,
00000001
00000000
00000010
00000100
00010000
00001000
00100000
00000000
,
01100000
01000000
10000000
00100000
01100000
01000000
00001000
00010000
,
00011000
00001000
00000010
00000100
00000110
00000010
00000001
00000100
,
00000010
00001000
00000010
00001000
00000001
00000100
00000010
00000100
00000001
00001000
00000010
00001000
00000100
00010000
00001000
00010000
,
00002000
00000000
00000000
00000000
00100000
00000000
00000000
00000000
00023000
00000000
00000000
00000000
00030100
00001000
00000100
00010000
,
00002000
00000000
00000000
00000000
00000000
00000000
00003000
00000000
00000010
00000000
00000001
00001000
00000010
00000100
00000001
00000000
,
00000010
00001000
00000000
00010000
00000000
00001000
00000000
00000100
00000001
00000000
00000000
00000000
00000010
00000100
00001000
00000100
,
00010000
00000000
00001000
00000000
01000000
00010000
01000000
00100000
01000000
00000000
00010000
00000000
00100000
01000000
00100000
01000000
,
20000000
00000000
00000000
00000000
30020000
00000000
00000000
00000000
00032000
00000000
00000000
00000000
00003001
00000000
00000010
00000100
,
00001000
00000000
00000000
00000000
00000010
00001000
00000010
00010000
00001000
00000000
00100000
00010000
00000000
01000000
00010000
00000000
,
00100000
01000000
00000000
00010000
00000000
00001000
00000000
00000010
00000100
00000000
00001000
00000001
00000100
00000000
00000000
00000000
,
00001000
00010000
00100000
01000000
00001000
00010000
01000000
00000000
,
01100000
00000000
00000000
00000000
00100000
00000000
00001000
00000000
00010000
00000000
00000100
00001000
00000001
00001000
00000100
00000010
,
00000002
00000000
00000203
00000000
00000301
00000010
00001000
00010000
,
00100000
00010000
00000000
00001000
00000000
00010000
00000000
01000000
10000000
00000000
00000000
00000000
00100000
01000000
00010000
01000000
,
00001000
00000000
00100000
00000000
00010000
00100000
00010000
10000000
01000000
00000000
00010000
00001000
00010000
00000000
00001000
00010000
,
00000020
00000000
00000000
00000000
00002030
00000000
00000000
00000000
00003001
00000000
00000010
00000100
00001000
00000100
00010000
00000000
,
00011000
00000000
00000000
00000000
00001000
00010000
00001000
01000000
00010000
00000000
10000000
00010000
00100000
00000000
00001000
00000000
,
00000010
00001000
00000000
00010000
00000000
00001000
00000000
00000100
00000001
00000000
00000010
00000000
00000100
00001000
00000100
00010000
,
00001000
01000000
01010000
00010000
00100000
01000000
01100000
00000000
,
00100000
00000000
00001000
00000000
00000010
00000000
00001000
00000000
00010000
00000100
00001000
00000100
00010000
00001000
00010000
00000010
,
00002000
00000100
00000001
00000010
,
00023000
00000000
00000000
00000000
01000000
00000000
00000000
00000000
10000000
00000000
00000000
00000000
00130000
00000000
00010000
00001000
,
00020000
00100000
10000000
01000000
,
00032000
00000000
00000000
00000000
00000010
00000000
00000000
00000000
00000001
00000000
00000000
00000000
00003100
00000000
00001000
00010000
,
00002000
00000100
00000001
00000010
,
00023000
00000000
01000000
00000000
10000000
00000000
00130000
00010000
,
00002000
00000000
00003100
00010000
00011000
00000000
00001000
00000010
,
00000001
00000000
00000101
00000000
00000000
00000000
00001000
00000000
00001010
00000000
00000000
00000000
00000010
00001000
00000010
00010000
,
00001000
00000000
00100000
01000000
00010000
00001000
01000000
00010000
,
00110000
00000000
00000000
10010000
00000000
00000000
02010000
00000000
00000000
00000000
03100000
00000000
00010000
00000000
00001000
00010000
,
00000100
00000000
00000000
00000000
00001000
00000000
00000001
00000010
00000001
00000000
00000010
00000100
00001000
00000000
00001100
00000000
,
00000000
00000000
00011000
00000000
00000000
00000000
00110000
00000000
00000000
00000000
00011000
00000000
00000000
00000000
00001000
01000000
,
00010000
00000000
00100000
00000000
01000000
00000000
00100000
00000000
10000000
00000000
00100000
00000000
01000000
00000000
00100000
00001000
,
00010000
00000010
00001000
00000010
00000100
00000010
00000001
00000010
,
00000100
00000001
00001000
00000001
00000010
00000100
00001000
00000100
00010000
00001000
00010000
00000010
00001000
00000010
00010000
00001000
,
01000000
00000000
01000000
00000000
00010000
01000000
00000000
00000000
01100000
00000000
00000000
00100000
10000000
00010000
10000000
01000000
,
00200000
00000000
00000000
00300000
00011000
00000000
00000000
00000000
00001000
00000000
00000010
00000000
00000100
00000000
00001000
00000000
,
00000001
00000100
00001000
00000000
00010000
00000000
00001000
00000000
00010000
00100000
10000000
00000000
00010000
00000000
00100000
00000000
,
01000000
00010000
00001000
00000000
00100000
00000000
00010000
00000000
01000000
00000000
00001000
00000000
00010000
00001000
00010000
00000100
,
00002000
00000000
00003010
00000100
00000001
00000000
00000010
00000100
00001000
00000000
00000010
00000000
00010000
00001000
01000000
00010000
,
01000000
00000000
00100000
00000000
10000000
00000000
01000000
00100000
00010000
00000000
01000000
00000000
01001000
00000000
00000000
00000000
,
00001000
00010000
00000100
00000000
00001000
00000000
00000010
00000000
00010000
00001000
01000000
00000000
00010000
00000000
00100000
01000000
,
10000000
01000000
00100000
00000000
00001000
00000000
00010000
00000000
00000100
00000000
00001000
00000000
00000010
00000100
00000001
00000100
,
00002000
00000000
00000000
00000000
00010000
00000000
00000000
00000000
00103000
00000000
00001000
00010000
00001000
01000000
00010000
01000000
,
00100000
00000000
01100000
00000000
10010000
00000000
00000000
00000000
10000000
01000000
10000000
00010000
01000000
00010000
00100000
00001000
,
00010000
00001000
01000000
00010000
01000000
00001000
00010000
00000100
00001000
00000100
00010000
00001000
00010000
00000010
00001000
00000010
,
00000100
00000001
00001000
00000000
00000100
00010000
00001000
00000000
01000000
00001000
00010000
00000000
00001000
00100000
00010000
00000000
,
01000000
00010000
10000000
00010000
00100000
01000000
10000000
01000000
00010000
00000000
00010000
00001000
00010000
00000100
00000000
00000100
,
00000010
00000000
00000110
00000000
00001001
00000000
00000000
00000000
00000001
00000100
00000001
00000100
00000010
00001000
00000010
00001000
,
00000100
00010000
00000100
00010000
00001000
01000000
00001000
01000000
00010000
00100000
01000000
00100000
00010000
10000000
00010000
00000000
,
01000000
00001000
00010000
00000010
00010000
00001000
00100000
00010000
00100000
01000000
10000000
01000000
00010000
00001000
00100000
00000000
,
00001000
00010000
00000010
00001000
00000010
00010000
00001000
00000010
00000100
00000000
00001000
00000100
00000001
00000000
00000001
00000100
,
00001000
00000000
00000000
00000000
00000001
00000100
00000010
00001000
00000100
00000010
00001000
00010000
00001000
01000000
00010000
00100000
,
01000000
00000000
00000000
00000000
10000000
01000000
00100000
00010000
01000000
00100000
00010000
00001000
00010000
00000100
00001000
00000010
,
00000100
00000001
00000010
00001000
00010000
01000000
00100000
00001000
,
00010000
00000000
00000000
00010000
00100000
00000000
00100000
01000000
00010000
00000000
00010000
10000000
01000000
00100000
00010000
00000000
,
01100000
00000000
00000000
00000000
10000000
00100000
01000000
00010000
00100000
01000000
00010000
00001000
00010000
00000010
00001000
00000100
,
00000010
00000000
00000000
00000000
00000001
00000010
00000100
00001000
00000010
00000100
00001000
00010000
00001000
00100000
00010000
01000000
,
00100000
00010000
00100000
00010000
00100000
10000000
00100000
10000000
01000000
00100000
01000000
00100000
00001000
00010000
00001000
00010000
,
00000100
00000000
00000001
00000000
00000100
00000000
00001000
00000000
00001001
00000000
00000000
00000001
00000100
00000010
00001000
00000000
,
00000001
00000010
00000100
00001000
00000010
00000100
00000010
00001000
00000100
00010000
00001000
01000000
00010000
00100000
01000000
00100000
,
00001000
00010000
00001000
01000000
00010000
01000000
00001000
00010000
00000100
00000010
00000001
00000100
00000010
00010000
00001000
00100000
,
00020000
00000000
00000000
00000000
,
00000000
00000000
00000000
00000000
,
00030000
00000000
00000000
00000000
;
