#VERSION:0.83;
#TITLE:とろぴかる倶楽部;
#SUBTITLE:;
#ARTIST:HALFBY;
#TITLETRANSLIT:Tropical club;
#SUBTITLETRANSLIT:;
#ARTISTTRANSLIT:;
#GENRE:TROPICAL;
#CREDIT:;
#MUSIC:Tropical club.ogg;
#BANNER:Tropical club.png;
#BACKGROUND:Tropical club-bg.png;
#CDTITLE:./CDTitles/bm IIDX 22 PENDUAL.png;
#SAMPLESTART:81.615;
#SAMPLELENGTH:15.000;
#SELECTABLE:YES;
#OFFSET:1.488;
#BPMS:0.000=120.001;
#STOPS:;
#TIMESIGNATURES:0.000=4=4;
#BGCHANGES:0.000=../BGAs/10ho.mp4=1.000=0=0=0=StretchNoLoop====,
99999.000=-nosongbg-=1.000=0=0=0=StretchNoLoop====
;
#FGCHANGES:;

//--------------- dance-single - forcednature ----------------
#NOTEDATA:;
#STEPSTYPE:dance-single;
#DESCRIPTION:forcednature;
#CREDIT:forcednature;
#DIFFICULTY:Beginner;
#METER:2;
#RADARVALUES:0,0,0,0,0;
#NOTES:
0000
0000
0000
0000
,
0000
0000
0000
0000
,
0000
0000
0000
0000
,
0000
0000
0000
0000
,
0000
0000
0000
0000
,
0000
0000
0000
0000
,
1000
0000
0000
0000
,
1000
0000
0000
0000
,
0001
0000
0000
0000
,
0100
0000
0000
0000
,
1001
0000
0000
0000
,
0000
0000
0000
0000
,
0010
0000
0000
0000
,
0000
0000
0000
0000
,
1000
0000
1000
0000
,
0001
0000
0001
0000
,
0100
0000
0100
0000
,
0010
0000
0000
0000
,
1001
0000
0000
0000
,
1000
0000
0100
0000
,
1000
0000
0000
0000
,
0001
0000
0100
0000
,
0001
0000
0000
0000
,
0010
0000
0100
0000
,
0010
0000
0000
0000
,
0001
0000
1000
0000
,
1001
0000
0000
0000
,
0000
1000
0000
1000
,
0000
1000
0000
1000
,
0000
1000
0000
0000
,
0000
0001
0000
0001
,
0000
0001
0000
0001
,
0000
0100
0100
0000
,
0010
0010
0000
0000
,
1000
0000
1000
0000
,
1000
0000
0000
0000
,
0001
0000
0001
0000
,
0001
0000
0000
0000
,
1001
0000
0000
0000
,
0000
0000
0000
0000
,
0100
0000
0100
0000
,
0010
0010
0000
0000
,
1000
0000
0100
0000
,
1000
0100
1000
0000
,
0001
0000
0100
0000
,
0001
0100
0001
0000
,
1000
0000
0010
0000
,
1000
0010
1000
0000
,
0001
0000
0010
0000
,
0001
0010
0001
0000
,
0100
0000
0010
0010
,
0100
0000
0010
0010
,
0100
0000
0010
0010
,
1000
0000
0001
0000
;

//--------------- dance-single - forcednature ----------------
#NOTEDATA:;
#STEPSTYPE:dance-single;
#DESCRIPTION:forcednature;
#CREDIT:forcednature;
#DIFFICULTY:Easy;
#METER:7;
#RADARVALUES:0,0,0,0,0;
#NOTES:
0000
0000
0000
0000
,
0000
0000
0000
0000
,
0000
0000
0000
0000
,
0000
0000
0000
0000
,
2002
0000
0000
3003
0000
0000
0000
0000
0010
0000
0000
0000
0000
0000
0000
0000
,
0100
0100
0100
0000
,
1001
0000
1000
0100
,
1000
0000
0001
0100
,
0001
0000
0010
0100
,
0020
0000
0030
0000
,
1001
0000
0000
0000
,
1000
1000
1000
0000
,
0010
0000
0100
0000
,
0001
0001
0001
0000
,
1000
1000
0001
0001
,
1000
1000
0001
0001
,
0100
0100
0100
0100
,
0010
0010
0010
0000
,
1000
0001
1000
0000
0001
1000
0000
0000
,
0001
1000
0000
0000
0010
0000
0100
0000
,
0001
1000
0001
0000
1000
0001
0000
0000
,
1000
0001
0000
0000
0010
0000
0100
0000
,
1000
0010
1000
0000
0010
1000
0000
0000
,
0010
1000
0000
0000
0100
0000
0010
0000
,
0001
0010
0001
0000
0010
0001
0000
0000
,
0010
0001
0000
0000
0100
0000
0010
0000
,
2002
0000
0000
3003
,
0000
0100
0000
0100
0000
0010
0000
0010
,
0000
0001
0000
0001
0000
1000
0000
1000
,
0000
0010
0000
0010
0000
0100
0010
0100
,
0000
0001
0000
0001
0000
1000
0000
1000
,
0000
0100
0000
0100
0000
0010
0000
0010
,
0001
0000
0001
1000
0001
0000
0001
1000
,
0002
0000
0003
0000
,
1001
0000
0001
0100
0000
1000
0000
0100
,
0000
1000
0000
0100
0002
0000
0000
0000
,
0003
0100
0000
1000
0000
0100
0000
1000
,
0000
0100
0001
0000
0001
0100
0000
0000
,
1001
0000
1000
0100
,
1000
0000
0000
0000
0001
0001
0001
0000
,
0100
0001
0010
0001
,
0100
0010
0100
0010
0000
0000
0000
0000
,
1000
0100
0000
0010
0100
0010
0000
0100
,
1000
0100
0000
0010
0100
0010
0000
0000
,
0001
0100
0000
0010
0100
0010
0000
0000
,
0001
0100
0000
0010
0100
0010
0000
0000
,
1000
0010
0000
0100
0010
0100
0000
0000
,
0001
0010
0000
0100
0010
0100
0000
0000
,
1000
0001
0000
0100
0010
0100
0000
0000
,
0001
1000
0000
0100
0010
0100
0000
0000
,
1001
0010
1001
0100
,
1001
0010
1001
0100
,
1001
0010
1001
0100
,
1001
0000
1001
0000
0010
0100
0010
0100
;

//--------------- dance-single - forcednature ----------------
#NOTEDATA:;
#STEPSTYPE:dance-single;
#DESCRIPTION:forcednature;
#CREDIT:forcednature;
#DIFFICULTY:Medium;
#METER:10;
#RADARVALUES:0,0,0,0,0;
#NOTES:
0000
0000
0000
0000
,
0000
0000
0000
0000
,
0000
0000
0000
0000
,
0000
0000
0000
0000
,
2002
0000
0000
3003
0000
0000
0100
0000
0010
0000
0000
0000
0000
0000
0000
0000
,
0100
0100
0000
0100
0010
0000
0110
0000
,
1000
0000
1000
0000
0000
0000
0001
0000
0100
0000
0000
0001
0100
0000
0000
0000
,
0001
0000
0001
0000
0000
0000
1000
0000
0100
0000
0000
1000
0100
0000
0000
0000
,
1000
0000
1000
0000
0000
0000
0001
0000
0010
0000
0000
0001
0010
0000
0000
0000
,
0220
0330
0000
0000
,
1002
0203
0320
2030
,
0000
3200
0320
0032
,
1000
0203
0320
2030
,
0001
3200
0320
0031
,
0201
1300
1200
0301
,
0021
1030
1020
0031
,
0001
0100
0001
0100
0010
1000
0010
1000
,
0001
1000
0000
0100
0000
0100
0000
0100
0000
0000
0000
0000
0000
0000
0000
0000
,
2000
0001
3100
0000
2000
0001
3100
0000
,
2000
0001
3100
0000
0010
0000
1001
0000
,
0002
1000
0103
0000
0002
1000
0103
0000
,
0002
1000
0103
0000
0010
0000
1001
0000
,
2000
0001
3100
0000
2000
0001
3010
0000
,
2000
0001
3100
0000
0010
0000
1001
0000
,
0002
1000
0103
0000
0002
1000
0013
0000
,
0002
1000
0103
0000
0001
0010
0100
1000
,
2002
0000
0000
0000
0000
3003
0000
0001
,
0100
0010
0100
1000
0100
0010
0100
0001
,
0100
0010
0100
1000
0100
0010
0100
0001
,
0100
0010
0100
1000
0100
0001
0001
0001
,
0000
0010
0100
0001
0100
0010
0100
1000
,
0100
0010
0100
0001
0100
0010
0100
1000
,
0001
0001
0100
0100
0010
0010
1000
1000
,
0001
1000
0000
0100
0000
0100
0000
0100
0000
0000
0000
0000
0000
0000
0000
0000
,
0010
0001
0200
0000
0310
1000
0200
0000
,
0310
0000
0001
0000
0200
0000
0000
0000
0320
0000
0000
1000
0000
0000
1030
0000
,
0000
0100
0001
0020
0000
0130
1000
0020
,
0100
0230
0001
0302
1000
2003
3100
0000
,
0220
0000
0000
0330
0000
0000
0000
0000
0001
1000
0000
0001
1000
0000
0000
0000
,
0110
0000
0000
0000
0000
0000
0000
0000
1000
0001
1000
0001
1000
0000
0000
0000
,
0100
0100
0010
0000
0100
0100
0010
0000
,
0001
1000
0000
0100
0000
0100
0000
0100
0000
0000
0000
0000
0000
0000
0000
0000
,
1000
0000
0001
0100
0001
0000
0000
0000
1000
0000
0001
0010
0001
0000
0000
0000
,
1000
0000
0001
0100
0001
0000
0000
0000
0010
0000
0100
0000
1001
0000
0000
0000
,
0001
0000
1000
0100
1000
0000
0000
0000
0001
0000
1000
0010
1000
0000
0000
0000
,
0001
0000
1000
0100
1000
0000
0000
0000
0010
0000
0100
0000
1001
0000
0000
0000
,
1000
0000
0100
0010
0100
0000
0000
0000
1000
0000
0010
0100
0010
0000
0000
0000
,
1000
0000
0100
0010
0100
0000
0000
0000
0010
0000
0100
0000
1001
0000
0000
0000
,
0001
0000
0100
0010
0100
0000
0000
0000
0001
0000
0010
0100
0010
0000
0000
0000
,
0001
0000
0100
0010
0100
0000
0000
0000
0010
0000
0100
0000
1001
0000
0000
0000
,
1000
0000
0001
1000
0000
0001
1000
0000
0001
0000
1000
0001
0000
1000
0001
0000
,
0100
0000
0010
0100
0000
0010
0100
0000
0010
0000
0100
0010
0000
0100
0010
0000
,
1000
0000
0001
1000
0000
0001
1000
0000
0001
0000
1000
0001
0000
1000
0001
0000
,
0010
0100
0000
0000
0100
0010
0000
0000
0002
0000
0023
0000
0230
0000
2300
0000
,
3000
0000
0000
0000
;

//--------------- dance-single - forcednature ----------------
#NOTEDATA:;
#STEPSTYPE:dance-single;
#DESCRIPTION:forcednature;
#CREDIT:forcednature;
#DIFFICULTY:Hard;
#METER:13;
#RADARVALUES:0,0,0,0,0;
#NOTES:
0000
0000
0000
0000
,
0000
0000
0000
0000
,
0000
0000
0000
0000
,
0000
0000
0000
0000
,
2002
0000
0000
3003
0000
0000
0001
0000
0100
0000
0000
0000
0000
0000
0000
0000
,
0001
0000
0001
1000
0000
0000
1000
0000
0100
0000
0010
0100
0010
0000
0000
0000
,
0001
0000
0001
0000
0100
0000
0001
0000
0010
0000
0000
0010
0100
0000
0000
0000
,
1000
0000
1000
0000
0100
0000
1000
0000
0010
0100
0000
0100
0001
0000
0000
0000
,
0010
0000
0010
0000
0100
0000
0010
0000
0001
0100
0000
0100
0010
0000
1000
0000
,
2000
0000
0000
0000
3001
0000
0011
0000
0010
0000
0000
0100
0000
0000
1000
0000
,
1002
0000
0000
0000
0100
0000
0000
0000
1000
0000
0000
0010
0000
0000
1000
0000
,
2003
0000
0000
0000
0100
0000
0000
0000
0001
0000
0000
0010
0000
0000
0001
0000
,
3002
0000
0000
0000
0100
0000
0000
0000
1000
0000
0000
0010
0000
0000
1000
0000
,
2003
0000
0000
0000
0100
0000
0000
0000
0001
0000
0000
0010
0000
0000
0001
0000
,
3001
0101
1000
1100
,
0001
0011
1000
1010
,
0001
0101
1000
1100
0001
0011
1000
1010
,
0100
0010
0000
0110
0000
0110
0000
0110
0000
0000
0000
0000
0000
0000
0000
0000
,
1000
0000
0100
0010
0001
0000
0000
0000
1000
0000
0010
0100
0001
0000
0000
0000
,
1000
0000
0100
0010
0001
0000
0000
0000
1001
0000
0110
0000
1001
0000
0000
0000
,
0001
0000
0100
0010
1000
0000
0000
0000
0001
0000
0010
0100
1000
0000
0000
0000
,
0001
0000
0100
0010
1000
0000
0000
0000
1001
0000
0110
0000
1001
0000
0000
0000
,
1000
0000
0010
0001
0010
0000
0000
0000
1000
0000
0100
0001
0100
0000
0000
0000
,
1000
0000
0010
0001
0010
0000
0000
0000
1100
0000
0101
0000
1001
0000
0000
0000
,
0001
0000
0100
1000
0100
0000
0000
0000
0001
0000
0010
1000
0010
0000
0000
0000
,
0001
0000
0100
1000
0100
0000
0000
0000
0001
0000
0010
0000
0100
0000
1000
0000
,
2002
0000
0000
0000
0000
0000
0000
0000
0000
0000
0000
0000
3003
0000
0001
0100
,
0000
1000
0000
0100
0001
0000
1000
0100
0000
0001
0000
0100
1000
0000
0001
0010
,
0000
1000
0000
0010
0001
0000
1000
0010
0000
0001
0000
0010
1000
0000
0001
0100
,
0000
1000
0000
0100
0001
0000
1000
0100
0000
0000
0110
0000
0110
0000
0110
0000
,
0000
0010
0000
0001
0100
0000
0100
0010
0000
0010
0000
1000
0100
0000
0100
0010
,
0000
0010
0000
0001
0100
0000
0100
0010
0000
0010
0000
1000
0100
0000
0100
0010
,
0001
0101
1000
1100
0001
0011
1000
1010
,
0100
0010
0000
0110
0000
0110
0000
0110
0000
0000
0000
0000
0000
0000
0000
0000
,
0001
0100
0001
0000
1000
0100
1000
0000
0001
0100
0000
0001
1000
0000
0100
0000
,
1000
0100
0000
1000
0001
0000
0100
0000
0020
0000
0000
0100
0000
0000
0130
0000
,
0001
0100
0001
0000
1000
0100
1000
0000
0010
0000
0100
0010
0100
0000
0001
0000
,
1000
0100
1000
0000
1000
0001
1000
0000
1000
0010
0100
0001
1000
0000
0000
0000
,
0110
0000
0000
0000
0000
0000
0000
0000
0001
0100
0000
0100
0001
0000
0000
0000
,
0110
0000
0000
1000
0000
0000
0001
0000
0010
0100
0010
0100
0020
0000
0000
0000
,
0031
0000
0001
0000
0100
0000
0100
0000
0010
1000
0000
1000
0100
0000
0110
0000
,
0001
1000
0000
0010
0100
0001
0100
0010
0000
0000
0000
0000
0000
0000
0000
0000
,
1000
0100
0001
0000
0100
0000
1000
0100
0001
0000
0100
1000
0010
0000
1000
0100
,
0001
0100
1000
0000
0010
0000
1000
0100
0001
0000
0110
0000
1001
0000
0000
0000
,
1000
0000
0001
0100
1000
0000
1000
0100
0001
0000
0001
0100
1000
0000
0110
0000
,
1000
0000
0001
0100
1000
0000
0100
0001
0010
0000
0110
0000
1001
0000
0000
0000
,
0001
0000
1000
0010
0001
0000
0010
1000
0001
0000
1000
0010
0001
0000
0010
0000
,
0110
0000
1000
0010
0001
0000
0010
1000
0100
0000
0110
0000
1001
0000
0000
0000
,
1000
0000
0001
0010
1000
0000
1000
0010
0001
0000
0001
0010
1000
0000
0110
0000
,
1000
0000
0001
0010
1000
0000
0010
0001
0100
0000
0110
0000
1001
0000
0000
0000
,
1010
0000
1000
0100
0000
0001
0100
0000
0011
0000
0001
0100
0000
1000
0100
0000
,
1010
0000
1000
0100
0000
0001
0100
0000
0011
0000
0001
0100
0000
1000
0100
0000
,
1010
0000
1000
0100
0000
0001
0100
0000
0011
0000
0001
0100
0000
1000
0100
0000
,
0010
1000
0000
1000
0100
0001
0000
0001
0200
0000
2300
0000
3020
0000
0032
0000
,
0003
0000
0000
0000
;

//--------------- dance-double - forcednature ----------------
#NOTEDATA:;
#STEPSTYPE:dance-double;
#DESCRIPTION:forcednature;
#CREDIT:forcednature;
#DIFFICULTY:Easy;
#METER:7;
#RADARVALUES:0,0,0,0,0;
#NOTES:
00000000
00000000
00000000
00000000
,
00000000
00000000
00000000
00000000
,
00000000
00000000
00000000
00000000
,
00000000
00000000
00000000
00000000
,
00022000
00000000
00000000
00033000
00000000
00000000
00000000
00000000
00000000
00000000
00000000
00000000
00000000
00000000
00000000
00000000
,
00000000
00000000
00000000
00000000
,
00011000
00000000
01000000
00000000
,
00011000
00000000
00000100
00000000
,
00011000
00000000
00100000
00000000
,
02000000
00000000
03000000
00000000
,
10010000
00000000
00000000
00000000
,
00010000
00010000
00010000
00000000
,
01000000
00000000
01000000
00000000
,
00010000
00010000
00010000
00000000
,
00100000
00000000
00001000
00000000
,
00010000
00000000
00001000
00000000
,
00010000
00010000
00010000
00010000
,
00000200
00000000
00000300
00000000
,
00000010
00000100
00000000
00000000
00000010
00000100
00000000
00000000
,
00000010
00000100
00000000
00000000
00000100
00000000
00010000
00000000
,
00001000
00010000
00000000
00000000
00001000
00010000
00000000
00000000
,
00001000
00010000
00000000
00000000
00010000
00000000
00001000
00000000
,
01000000
00010000
01000000
00000000
00010000
01000000
00000000
00000000
,
00010000
01000000
00000000
00000000
01000000
00000000
00100000
00000000
,
10000000
01000000
10000000
00000000
00000000
01000000
10000000
00000000
,
00000000
01000000
10000000
00000000
00010000
00000000
01000000
00000000
,
20020000
00000000
00000000
30030000
,
00000000
00010000
00000000
00010000
00000000
01000000
00000000
01000000
,
00000000
00001000
00000000
00001000
00000000
00010000
00000000
00010000
,
00000000
00000100
00000000
00000100
00000000
00000100
00000010
00000100
,
00000000
00000010
00000000
00000010
00000000
00000001
00000000
00000001
,
00000000
00000100
00000000
00000100
00000000
00000010
00000000
00000010
,
00001000
00001000
00000100
00000100
,
00020000
00000000
00030000
00000000
,
00011000
00000000
00001000
01000000
00000000
00010000
00000000
01000000
,
00000000
00001000
00000000
01000000
00020000
00000000
00000000
00000000
,
00030000
01000000
00000000
00010000
00000000
01000000
00000000
00001000
,
00000000
01000000
00000000
00010000
01000000
00000000
00001000
00000000
,
00022000
00000000
00000000
00033000
00000000
00000000
00000000
00000000
00000000
00000000
00000000
00000000
00000000
00000000
00000000
00000000
,
00000000
00000000
00000000
00000000
00010000
00001000
00010000
00000000
,
00000100
00001000
00000100
00001000
,
00000010
00000000
00000010
00000100
00000000
00000000
00000000
00000000
,
00000001
00000000
00001000
00000000
00000001
00001000
00000000
00000000
,
00000001
00001000
00000100
00000100
,
00010000
00000000
00001000
00000000
00010000
00001000
00000000
00000000
,
00010000
00001000
01000000
01000000
,
00010000
00000000
10000000
00000000
00010000
10000000
00000000
00000000
,
00010000
10000000
00010000
00010000
,
01000000
00000000
00001000
00000000
01000000
00001000
00000000
00000000
,
01000000
00001000
00010000
00010000
,
00011000
00000000
00011000
00000000
,
00011000
00000000
00011000
00000000
,
00011000
00000000
00011000
00000000
,
00010000
00010000
00001000
01000000
;

//--------------- dance-double - forcednature ----------------
#NOTEDATA:;
#STEPSTYPE:dance-double;
#DESCRIPTION:forcednature;
#CREDIT:forcednature;
#DIFFICULTY:Medium;
#METER:11;
#RADARVALUES:0,0,0,0,0;
#NOTES:
00000000
00000000
00000000
00000000
,
00000000
00000000
00000000
00000000
,
00000000
00000000
00000000
00000000
,
00000000
00000000
00000000
00000000
,
00022000
00000000
00000000
00033000
00000000
00000000
00000000
00000000
00000000
00000000
00000000
00000000
00000000
00000000
00000000
00000000
,
00001000
00010000
00000000
00010000
00000000
00010000
00011000
00000000
,
00000100
00000000
00000100
00000000
00000000
00000000
00010000
00000000
00000100
00000000
00000000
00010000
00000100
00000000
00000000
00000000
,
01000000
00000000
01000000
00000000
00000000
00000000
00001000
00000000
01000000
00000000
00000000
00001000
01000000
00000000
00000000
00000000
,
00000010
00000000
00000010
00000000
00000000
00000000
00010000
00000000
00000010
00000000
00000000
00010000
00000010
00000000
00000000
00000000
,
00022000
00033000
00000000
00000000
,
02000000
03020000
00230000
00302000
,
00000000
00023000
00030020
00002030
,
00010000
00003200
00020300
00032000
,
01000000
00023000
00230000
10300000
,
01002000
00003100
01002000
00003100
,
00102000
00003010
00102000
00003010
,
00001000
00010000
00000100
00010000
00001000
00010000
00000010
00010000
,
00001000
01000000
00000000
00100000
00000000
00100000
00000000
00100000
00000000
00000000
00000000
00000000
00000000
00000000
00000000
00000000
,
10000000
01000000
00010000
00000000
01000000
00010000
00001000
00000000
,
00010000
00001000
00000010
00000000
00000100
00000000
00001001
00000000
,
00000001
00000100
00001000
00000000
00000100
00001000
00010000
00000000
,
00001000
00010000
00100000
00000000
01000000
00000000
10010000
00000000
,
10000000
00100000
00010000
00000000
00100000
00010000
00001000
00000000
,
00010000
00001000
00000100
00000000
00000010
00000000
00001001
00000000
,
00000001
00000010
00001000
00000000
00000010
00001000
00010000
00000000
,
00001000
00000000
00010000
00000000
01000000
00000000
00000000
00000000
00100000
00000000
00000000
01000000
00000000
00000000
01000000
00000000
,
20020000
00000000
00000000
00000000
00000000
30030000
00000000
10000000
,
01000000
00010000
01000000
10000000
01000000
00010000
00000000
00001000
,
00000100
00000001
00000100
00001000
00000100
00000001
00000000
00000001
,
00000010
00001000
00000010
00000001
00000010
00001000
00001000
00001000
,
00000000
00010000
00100000
00010000
00001000
00010000
00000100
00010000
,
00001000
00010000
01000000
00010000
00001000
00010000
00000010
00010000
,
00001000
00000010
00001000
00010000
00001000
00000010
00001000
00010000
,
00001000
01000000
00000000
00100000
00000000
00100000
00000000
00100000
00000000
00000000
00000000
00000000
00000000
00000000
00000000
00000000
,
10000000
00010000
00001000
00010000
,
10000000
00010000
00001000
00000000
00022000
00000000
00000000
00000000
,
00033000
00000000
00000001
00000000
00001000
00010000
00001000
00000000
,
01000000
00001000
00010000
00000100
00010000
00001000
00100000
00000000
,
02200000
00000000
00000000
03300000
00000000
00000000
00000000
00000000
00000000
00010000
00000000
00010000
10000000
00000000
00000000
00000000
,
00011000
00000000
00000000
00000000
00000000
00000000
00000000
00000000
00000001
00001000
00000001
00001000
00000001
00000000
00000000
00000000
,
00000100
00001000
00000100
00000000
00001000
00010000
00001000
00000000
,
00001000
01000000
00000000
00100000
00000000
00100000
00000000
00100000
00000000
00000000
00000000
00000000
00000000
00000000
00000000
00000000
,
00001000
00000000
01000000
00010000
01000000
00000000
00000000
00000000
00001000
00000000
00100000
00010000
00100000
00000000
00000000
00000000
,
00001000
00000000
01000000
00010000
01000000
00000000
00000000
00000000
00100000
00000000
00010000
00000000
00001000
00000000
00000000
00000000
,
00010000
00000000
00000100
00001000
00000100
00000000
00000000
00000000
00010000
00000000
00000010
00001000
00000010
00000000
00000000
00000000
,
00010000
00000000
00000100
00001000
00000100
00000000
00000000
00000000
00000010
00000000
00001000
00000000
00010000
00000000
00000000
00000000
,
00001000
00000000
01000000
00100000
01000000
00000000
00000000
00000000
00001000
00000000
00100000
01000000
00100000
00000000
00000000
00000000
,
00001000
00000000
01000000
00100000
01000000
00000000
00000000
00000000
00100000
00000000
00010000
00000000
00001000
00000000
00000000
00000000
,
00010000
00000000
00000100
00000010
00000100
00000000
00000000
00000000
00010000
00000000
00000010
00000100
00000010
00000000
00000000
00000000
,
00010000
00000000
00000100
00000010
00000100
00000000
00000000
00000000
00000010
00000000
00001000
00000000
00010000
00000000
00000000
00000000
,
00001000
00000000
00001000
01000000
00000000
01000000
00001000
00000000
00010000
00000000
00010000
00000100
00000000
00000100
00010000
00000000
,
00001000
00000000
00001000
00100000
00000000
00100000
00001000
00000000
00010000
00000000
00010000
00000010
00000000
00000010
00010000
00000000
,
00001000
00000000
00001000
00000100
00000000
00000100
00001000
00000000
00010000
00000000
00010000
01000000
00000000
01000000
00010000
00000000
,
00001000
00000000
00000000
00001000
00010000
00000000
00000000
00001000
00020000
00000000
00030200
00000000
00002300
00000000
00003020
00000000
,
00000030
00000000
00000000
00000000
;

//--------------- dance-double - forcednature ----------------
#NOTEDATA:;
#STEPSTYPE:dance-double;
#DESCRIPTION:forcednature;
#CREDIT:forcednature;
#DIFFICULTY:Hard;
#METER:14;
#RADARVALUES:0,0,0,0,0;
#NOTES:
00000000
00000000
00000000
00000000
,
00000000
00000000
00000000
00000000
,
00000000
00000000
00000000
00000000
,
00000000
00000000
00000000
00000000
,
00022000
00000000
00000000
00033000
00000000
00000000
01000000
00000000
00100000
00000000
00000000
00000000
00000000
00000000
00000000
00000000
,
00011000
00000000
00000000
01000000
00100000
00000000
10010000
00000000
,
10000000
00000000
01000000
00000000
00010000
00000000
00001000
00000000
00010000
00000000
00000000
00001000
00000010
00000000
00000000
00000000
,
00000001
00000000
00000100
00000000
00001000
00010000
00001000
00000000
00010000
00001000
00000000
00010000
00100000
00000000
00000000
00000000
,
10000000
00000000
01000000
00000000
00010000
00000000
00001000
00000000
00010000
00001000
00000000
00000010
00001000
00000000
00020000
00000000
,
00000200
00030300
00000000
00000000
,
00002001
00000100
00000001
00000010
,
00000000
00000100
00000001
00000010
,
00023000
01000000
10000000
00100000
,
00000000
01000000
10000000
00100000
,
00032000
00000100
00000001
00000010
,
00023000
01000000
10000000
00100000
,
00032000
00000100
00000001
00000010
00023000
01000000
10000000
00100000
,
00031000
00010000
00000000
00011000
00000000
00011000
00000000
00011000
00000000
00000000
00000000
00000000
00000000
00000000
00000000
00000000
,
00000010
00000000
00000100
00001000
00010000
00000000
00000000
00000000
00000010
00000000
00000100
00001000
00010000
00000000
00000000
00000000
,
00000010
00000000
00000100
00001000
00010000
00000000
00000000
00000000
00010100
00000000
01001000
00000000
00011000
00000000
00000000
00000000
,
00100000
00000000
01000000
00010000
00001000
00000000
00000000
00000000
00100000
00000000
01000000
00010000
00001000
00000000
00000000
00000000
,
00100000
00000000
01000000
00010000
00001000
00000000
00000000
00000000
01001000
00000000
00010100
00000000
00011000
00000000
00000000
00000000
,
01000000
00000000
00100000
00010000
00001000
00000000
00010000
00000000
00000100
00000000
00000010
00001000
00010000
00000000
00001000
00000000
,
01000000
00000000
00100000
00010000
00001000
00000000
00010000
00000000
00010010
00000000
00101000
00000000
00011000
00000000
00000000
00000000
,
00000100
00000000
00000010
00001000
00010000
00000000
00001000
00000000
01000000
00000000
00100000
00010000
00001000
00000000
00010000
00000000
,
00000100
00000000
00000010
00001000
00010000
00000000
00001000
00000000
02000000
00000000
03200000
00000000
00320000
00000000
00031000
00000000
,
00000220
00000000
00000000
00000000
00000000
00000000
00000000
00000000
00000000
00000000
00000000
00000000
00000330
00000000
00000000
00000001
,
00000000
00000100
00000000
00001000
00010000
00000000
00100000
10000000
00000000
01000000
00000000
00010000
00001000
00000000
00000010
00000001
,
00000000
00000100
00000000
00001000
00010000
00000000
00100000
10000000
00000000
01000000
00000000
00010000
00001000
00000000
00000010
00000001
,
00000000
00000100
00000000
00001000
00010000
00000000
00100000
10000000
00000000
01000000
00010000
00000000
00010000
00000000
00010000
00001000
,
00000000
00000100
00000000
00000001
00000010
00000000
00001000
00010000
00000000
01000000
00000000
10000000
00100000
00000000
00010000
00001000
,
00000000
00000100
00000000
00000001
00000010
00000000
00001000
00010000
00000000
01000000
00000000
10000000
00100000
00000000
00010000
00001000
,
01000000
00010000
00000100
00001000
00100000
00010000
00000010
00001000
,
00010000
00001000
00000000
00011000
00000000
00011000
00000000
00011000
00000000
00000000
00000000
00000000
00000000
00000000
00000000
00000000
,
10000000
00100000
00010000
00100000
01000000
00001000
00000010
00001000
,
00010000
00000100
00000001
00000100
00002000
00000000
00000000
00000000
,
00003001
00000100
00010000
00000100
00000010
00010000
01000000
00010000
,
00000100
00001000
00100000
00001000
00000100
00001000
00100000
00000000
,
00011000
00000000
00000000
00000000
00000000
00000000
00000000
00000000
01000000
00010000
00000000
01000000
00010000
00000000
00000000
00000000
,
00100000
00000000
00000000
00001000
00000000
00000000
00100000
00000000
00010000
01000000
00100000
01000000
00010000
01000000
00100000
01000000
,
00010000
00000000
00100000
00000000
01000000
00000000
00100000
00000000
00001000
00010000
00000000
00010000
00001000
00000000
00000010
00000000
,
00000100
00010000
00000000
00001000
01000000
00001000
00100000
00001000
00000000
00000000
00000000
00000000
00000000
00000000
00000000
00000000
,
00001000
00000000
00000100
00000010
00000100
00000000
00001000
00010000
00001000
00000000
00000100
00000010
00000100
00000000
00001000
00010000
,
00001000
00010000
00001000
00000000
00001000
00000000
00000100
00000010
00000100
00000000
00001000
00000000
00011000
00000000
00000000
00000000
,
00010000
00000000
01000000
00100000
01000000
00000000
00010000
00001000
00010000
00000000
01000000
00100000
01000000
00000000
01100000
00000000
,
01000000
00000000
00010000
00001000
00010000
00000000
01000000
00100000
01000000
00000000
00010000
00000000
00011000
00000000
00000000
00000000
,
00001000
00000000
00000010
00000100
00000010
00000000
00001000
00010000
00001000
00000000
00000010
00000100
00000010
00000000
00000110
00000000
,
00000010
00000000
00001000
00010000
00001000
00000000
00000010
00000100
00000010
00000000
00001000
00000000
00011000
00000000
00000000
00000000
,
00010000
00000000
00100000
01000000
00100000
00000000
00010000
00001000
00010000
00000000
00100000
01000000
00100000
00000000
01100000
00000000
,
00100000
00000000
00010000
00001000
00010000
00000000
00100000
01000000
00100000
00000000
00010000
00000000
00011000
00000000
00000000
00000000
,
01000000
00000000
00001000
00000010
00000000
00000001
00000010
00000000
00000100
00000000
00010000
00100000
00000000
10000000
00100000
00000000
,
01000000
00000000
00001000
00000010
00000000
00000001
00000010
00000000
00000100
00000000
00010000
00100000
00000000
10000000
00100000
00000000
,
01000000
00000000
00001000
00000010
00000000
00000001
00000010
00000000
00000100
00000000
00010000
00100000
00000000
10000000
00100000
00000000
,
01000000
00001000
00000000
00001000
00001000
00001000
00000000
00001000
00200000
00000000
00320000
00000000
00032000
00000000
00003200
00000000
,
00000300
00000000
00000000
00000000
;
