#VERSION:0.83;
#TITLE:Tp-RZ;
#SUBTITLE:;
#ARTIST:CAPACITY GATE;
#TITLETRANSLIT:;
#SUBTITLETRANSLIT:;
#ARTISTTRANSLIT:;
#GENRE:BREAKBEATS;
#CREDIT:;
#MUSIC:Tp-RZ.ogg;
#BANNER:Tp-RZ.png;
#BACKGROUND:Tp-RZ-bg.png;
#CDTITLE:./CDTitles/bm IIDX 20 tricoro.png;
#SAMPLESTART:11.634;
#SAMPLELENGTH:15.000;
#SELECTABLE:YES;
#OFFSET:1.050;
#BPMS:0.000=170.000;
#STOPS:;
#TIMESIGNATURES:0.000=4=4;
#BGCHANGES:0.000=../BGAs/19cy.mp4=1.000=0=0=0=StretchNoLoop====,
99999.000=-nosongbg-=1.000=0=0=0=StretchNoLoop====
;
#FGCHANGES:;

//--------------- dance-single - forcednature ----------------
#NOTEDATA:;
#STEPSTYPE:dance-single;
#DESCRIPTION:forcednature;
#DIFFICULTY:Beginner;
#METER:2;
#RADARVALUES:0,0,0,0,0;
#CREDIT:forcednature;
#NOTES:
0000
0000
0000
0000
,
0000
0000
0000
0000
,
0000
0000
0000
0000
,
0000
0000
0000
0000
,
0000
0000
0000
0000
,
1000
0000
0000
0000
,
0001
0000
0000
0000
,
0100
0000
0000
0000
,
0010
0000
0000
0000
,
1001
0000
0000
0000
,
0000
0000
0000
0000
,
1000
0000
0000
0000
,
0000
0000
0000
0000
,
0010
0000
0000
0000
,
0000
0000
0000
0000
,
0100
0000
0000
0000
,
0001
0000
0000
0000
,
1001
0000
0000
0000
,
0000
0000
0000
0000
,
0001
0000
0000
0000
,
0000
0000
0000
0000
,
0010
0000
0000
0000
,
0000
0000
0000
0000
,
0100
0000
0000
0000
,
1000
0000
0000
0000
,
1001
0000
0000
0000
,
0000
0000
0000
0000
,
0001
0000
0000
0000
,
0000
0000
0000
0000
,
0100
0000
0000
0000
,
0000
0000
0000
0000
,
0010
0000
0000
0000
,
1000
0000
0000
0000
,
0000
0000
0001
0000
,
0000
0000
0001
0000
,
0000
0000
1000
0000
,
0000
0000
1000
0000
,
0000
0000
0010
0000
,
0000
0000
0010
0000
,
0000
0000
0100
0000
,
0000
0000
0100
0000
,
0000
0001
0000
0000
,
0001
0000
0000
0001
,
0000
1000
0000
0000
,
1000
0000
0000
1000
,
0000
0010
0000
0000
,
0010
0000
0000
0010
,
0000
0100
0000
0000
,
0100
0000
0000
0100
,
0000
0001
0000
0000
,
0010
0000
0000
0001
,
0000
1000
0000
0000
,
0010
0000
0000
1000
,
0000
0000
0000
0000
,
0100
0000
0000
0000
,
0010
0000
0010
0000
,
0001
0000
0000
0000
,
1000
0000
0000
0000
,
1001
0000
0000
0000
,
0001
0000
0100
0000
,
0001
0000
0000
0000
,
1000
0000
0000
0000
,
0100
0000
0000
0000
,
0010
0000
0001
0000
,
0010
0000
0000
0000
,
0100
0000
0000
0000
,
1001
0000
0000
0000
,
1000
0000
0010
0000
,
1000
0000
0000
0000
,
0001
0000
0000
0000
,
0010
0000
0000
0000
,
0100
0000
1000
0000
,
0100
0000
0000
0000
,
0010
0000
0000
1001
;

//--------------- dance-single - forcednature ----------------
#NOTEDATA:;
#STEPSTYPE:dance-single;
#DESCRIPTION:forcednature;
#DIFFICULTY:Easy;
#METER:7;
#RADARVALUES:0,0,0,0,0;
#CREDIT:forcednature;
#NOTES:
0000
0000
0000
0000
,
0000
0000
0000
0000
,
0000
0000
0000
0000
,
0000
0000
0000
0000
,
0000
0000
0000
0000
,
1000
0000
0000
1000
0000
0000
0000
0000
,
0001
0000
0000
0001
0000
0000
0000
0000
,
0100
0000
0000
0100
0000
0000
0000
0000
,
0010
0000
0000
0010
0000
0000
0010
0000
0000
0010
0000
0000
0000
0000
0000
0000
,
1001
0000
1000
0001
,
0100
0010
1000
0001
,
0010
0000
0100
1000
,
0100
0010
0001
1000
,
0010
0000
0100
0001
,
1000
0100
1000
0001
,
0100
0000
0010
1000
,
0001
0010
0100
1000
,
1001
0000
0001
0010
,
0001
0100
0010
1000
,
0100
0000
1000
0010
,
0100
0001
0010
0100
,
0010
0000
0001
1000
,
0010
1000
0001
0010
,
0100
0000
1000
0001
,
0100
0010
1000
0001
,
2000
0000
0000
0000
,
3200
0000
0000
0320
0000
0000
0000
0032
,
0000
0000
0000
0000
,
0003
0000
0000
0000
,
0002
0000
0000
0000
,
0203
0000
0000
0320
0000
0000
0000
2030
,
0000
0000
0000
0000
,
0002
0000
0000
3003
,
1000
0000
1100
0000
,
0001
0010
0001
0000
,
0001
0000
0101
0000
,
1000
0010
1000
0000
,
0100
0000
0110
0000
,
0010
0001
0010
0000
,
0100
0000
1001
0000
,
1000
0010
1000
0000
,
0001
0100
1000
0100
,
0001
0100
1000
0100
,
0001
0010
1000
0010
,
0001
0010
1000
0010
,
0001
0100
0001
0010
,
0001
0100
0001
0010
,
0100
1000
0010
1000
,
0100
1000
0010
1000
,
0100
0001
0100
1000
,
0100
0001
0100
1000
,
0010
0001
0010
1000
,
0010
0001
0010
1000
,
0100
1000
0010
1000
,
0001
0100
0001
0010
,
0002
0003
2000
3000
,
0010
0000
0000
0010
0000
0000
0010
0000
0000
0010
0000
0000
0000
0000
0000
0000
,
0100
0000
0000
0100
0000
0000
0100
0000
0000
0100
0000
0000
0000
0000
0000
0000
,
1001
1000
0100
0010
,
0001
0100
0010
1000
,
0001
0010
0001
0000
1000
0000
0010
0000
,
0100
0001
1000
0000
,
0100
0010
0100
0000
1000
0000
0001
0000
,
0100
0010
1000
0001
,
0010
0100
0010
0000
0001
0000
1000
0000
,
0010
0100
0001
0000
,
1000
0100
1000
0000
0001
0000
0100
0000
,
0010
1000
0001
0010
,
0001
0100
0001
0000
1000
0000
0010
0000
,
1000
0100
0001
0100
,
0010
0001
0010
0000
0100
0000
1000
0000
,
0001
0100
0010
1000
,
0100
0010
0100
0000
1000
0000
0001
0000
,
0100
0000
0000
0100
0000
0000
0100
0000
0000
0100
0000
0000
1001
0000
0000
0000
;

//--------------- dance-single - forcednature ----------------
#NOTEDATA:;
#STEPSTYPE:dance-single;
#DESCRIPTION:forcednature;
#DIFFICULTY:Medium;
#METER:11;
#RADARVALUES:0,0,0,0,0;
#CREDIT:forcednature;
#NOTES:
0000
0000
0000
0000
,
0000
0000
0000
0000
,
0000
0000
0000
0000
,
0000
0000
0000
0000
,
0000
0000
0000
0000
,
1000
0100
0000
1000
0100
0000
0010
0000
,
0000
0001
0000
0000
0001
0000
0000
0100
0000
0000
0010
0000
1000
0000
0000
0000
,
0001
0100
0000
0001
0100
0000
0010
0000
,
1000
0000
0000
1001
0000
0000
0001
0000
0000
1001
0000
0000
0000
0000
0000
0000
,
0110
0000
0001
0000
0100
0010
1000
0000
,
0001
0010
0100
1000
0100
0010
0001
0000
,
0100
0100
0010
0000
1000
0000
0001
0000
,
0010
0100
1000
0000
0001
0100
1000
0000
,
0100
0000
0010
0000
1000
0001
0010
0000
,
0100
1000
0100
0010
0001
1000
0010
0000
,
0100
0001
1000
0000
0100
0001
0100
0000
,
0010
0000
0001
1000
0010
0000
0110
0000
,
0100
0001
1000
0000
0010
1000
0001
0000
,
1000
0000
0100
0000
0010
0001
0010
0100
,
1000
0000
0001
0000
0100
0010
1000
0000
,
0001
0001
0010
0000
0100
1000
0001
0000
,
0100
0000
0010
0000
1000
0001
0010
0000
,
0100
1000
0100
0010
0001
1000
0010
0000
,
0100
0001
0100
0000
0010
1000
0010
0000
,
1000
0100
0001
0000
0100
0010
0001
0000
,
2001
0000
0000
0000
,
3020
0000
0000
0230
0000
0000
0000
0302
,
0000
0000
0000
0000
,
0010
0010
0000
0003
,
0210
0000
0000
0000
,
2300
0000
0000
3002
0000
0000
0000
0203
,
0000
0000
0000
0300
,
0020
0000
0000
0100
0000
0000
0100
0000
0000
1000
0000
0000
1030
0000
0000
0000
,
0001
0000
0010
0100
1000
0000
0001
0000
,
1000
0010
0000
0001
0010
0000
0100
0000
,
0001
0000
1000
0100
0010
0000
1000
0000
,
0010
0001
0000
0100
0001
0000
0010
0000
,
0100
0000
1000
0001
0100
0000
1000
0000
,
0100
0001
0000
0010
0001
0000
1000
0000
,
0010
0000
1000
0100
0001
0000
0100
0000
,
0010
0000
0000
0001
0000
0000
1000
0000
0010
0000
0000
0000
0010
0000
0000
0000
,
0100
0100
0001
0100
0100
1000
0100
0100
,
0001
0100
0100
1000
0100
0100
0001
0000
,
0010
0010
1000
0010
0010
0001
0010
0010
,
1000
0010
0010
0001
0010
0010
1000
0000
,
0010
0100
1000
0010
0100
0001
0010
0100
,
1000
0010
0100
0001
0010
0100
1000
0000
,
0001
0100
1000
0100
0001
0010
0001
0100
,
1000
0100
0001
0010
0001
0100
1000
0000
,
0100
0100
0001
0010
0010
1000
0010
0010
,
0001
0100
0100
1000
0100
0100
0001
0000
,
0010
0010
0100
0001
0001
0100
1000
1000
,
0100
0010
0010
0100
0001
0001
0100
0000
,
2000
0010
0001
3100
,
0002
0010
1000
0103
,
0010
0001
0010
0000
0100
1000
0100
0000
,
1000
0000
0000
1010
0000
0000
1000
0000
0000
1100
0000
0000
0000
0000
0000
0000
,
0001
0000
0000
0011
0000
0000
0001
0000
0000
0101
0000
0000
0000
0000
0000
0000
,
1001
0000
0000
1000
0000
0000
0100
0000
0010
0000
0001
0000
0010
0000
0000
0000
,
0100
1000
0001
0000
0100
0001
1000
0000
,
0010
0000
0000
0100
0000
0000
0001
0000
1000
0000
0010
0000
1000
0000
0000
0000
,
0001
0010
0100
0000
0010
0001
1000
0000
,
0010
0000
0000
0100
0000
0000
0001
0000
1000
0000
0100
0000
1000
0000
0000
0000
,
0010
0100
0010
0000
1000
0001
1000
0000
,
0100
0000
0000
0010
0000
0000
0001
0000
1000
0000
0010
0000
1000
0000
0000
0000
,
0001
0010
0001
0000
0100
0000
0110
0000
,
0010
1000
0001
0100
0010
1000
0001
0000
,
0010
0100
1000
0000
0100
0010
0001
0000
,
1000
0001
0100
0010
1000
0001
0100
0000
,
0010
1000
0001
0000
0010
0001
1000
0000
,
0001
0010
0100
1000
0100
0010
0001
0000
,
1000
0001
0100
0000
0001
1000
0100
0000
,
0010
0000
0000
0110
0000
0000
2002
0000
0000
0000
0000
0000
3003
0000
0000
0000
,
1100
0000
0000
1001
0000
0000
0101
0000
0000
1001
0000
0000
0110
0000
0000
0000
;

//--------------- dance-single - forcednature ----------------
#NOTEDATA:;
#STEPSTYPE:dance-single;
#DESCRIPTION:forcednature;
#DIFFICULTY:Hard;
#METER:15;
#RADARVALUES:0,0,0,0,0;
#CREDIT:forcednature;
#NOTES:
0000
0000
0000
0000
,
0000
0000
0000
0000
,
0000
0000
0000
0000
,
0000
0000
0000
0000
,
0000
0000
0000
0000
,
1000
1000
0100
1000
1000
0010
1000
0001
,
0000
0100
0000
0000
0100
0000
0000
1000
0000
0000
0100
0000
0001
0000
0010
0000
,
0001
0001
0100
0001
0001
0010
0001
0000
,
1000
0100
0000
1000
0100
0000
0010
0001
0000
0010
0001
0000
1001
0000
0000
0000
,
1000
0000
0010
0000
0100
0000
0001
0000
0000
0010
0001
0000
0100
0000
0000
0000
,
0010
0000
1000
0000
0001
0000
0010
0000
0100
1000
0100
0000
0010
0000
0001
0000
,
1000
0000
0010
0000
0100
0000
0001
0000
0000
1000
0100
0000
1000
0000
0000
0000
,
0010
0000
0100
0000
0001
0000
0010
0000
0000
0100
1000
0000
1100
0000
0000
0000
,
0010
0000
0010
0000
0001
0000
1000
0000
0000
0001
0100
0000
0010
0000
1000
0000
,
0001
0000
0010
0000
0100
0000
1000
0000
0010
1000
0010
0000
0100
0000
0000
0000
,
0001
0000
1000
0000
0100
0000
0010
0000
0000
0100
1000
0000
0001
0000
0000
0000
,
0010
0000
0100
0000
0010
0000
0001
0000
1000
0010
1000
0000
0001
0000
0000
0000
,
1001
0000
1000
0000
0100
0000
0010
0000
0001
0100
0001
0000
1000
0000
0010
0000
,
0001
0000
0010
0000
0100
0000
0001
0000
0000
0010
0100
0000
1000
0000
0000
0000
,
0001
0000
0010
0000
0100
0000
1000
0000
0010
0100
0010
0000
1000
0000
0001
0000
,
0010
0000
0100
0000
1000
0000
0001
0000
0000
0100
0010
0000
1000
0000
0000
0000
,
0100
0000
0100
0000
0001
0000
0100
0000
1000
0100
1000
0000
0001
0000
0010
0000
,
0001
0000
1000
0000
0010
0000
0100
0000
0000
0001
1000
0000
0100
0000
0000
0000
,
0010
0000
0010
0000
0001
0000
1000
0000
0010
0100
0010
0000
1000
0000
0000
0000
,
0001
0000
0010
0000
0001
0000
0100
0000
0000
1000
0100
0000
0001
0000
0000
0000
,
2001
0000
0000
0000
,
3200
0000
0000
0320
0000
0000
0000
0032
,
0000
0000
0000
0000
,
0100
0100
0100
0000
0000
0000
0003
0000
,
1002
0000
0000
0000
,
0023
0000
0000
0230
0000
0000
0000
2300
,
0000
0000
0000
0000
,
3010
1000
0000
0100
1000
0000
0010
1000
0000
0100
1000
0000
1001
0000
0000
0000
,
1000
0000
1000
0000
0100
0000
0001
0100
1000
0000
0000
0000
0001
0000
0000
0000
,
0010
0000
0001
0000
0100
0000
1000
0100
0001
0000
0000
0000
0010
0000
0100
0000
,
1000
0000
0001
0000
0010
0000
1000
0010
0001
0000
0000
0000
0100
0000
0000
0000
,
0100
0000
0010
0000
1000
0000
0001
0010
1000
0000
0000
0000
0010
0000
0000
0000
,
0001
0000
0010
0000
0100
0000
1000
0010
0001
0000
0000
0000
0010
0000
0000
0000
,
0100
0000
0001
0000
1000
0000
0001
0010
1000
0000
0000
0000
0010
0000
0100
0000
,
1000
0000
0001
0000
0010
0000
0001
0100
1000
0000
0000
0000
0100
0000
0000
0000
,
0001
0000
0010
0000
0100
0000
1000
0100
0001
0000
0000
0000
0110
0000
0000
0000
,
0001
0000
1000
0010
0100
0000
0001
0000
1000
0100
0010
0000
0001
0000
1000
0010
,
0100
0000
0001
0000
1000
0100
0010
0000
0001
0000
1000
0010
0100
0000
0001
0000
,
1000
0000
0001
0010
0100
0000
1000
0000
0001
0100
0010
0000
1000
0000
0001
0010
,
0100
0000
1000
0000
0001
0100
0010
0000
1000
0000
0001
0010
0100
0000
1000
0000
,
0001
0000
0100
0010
0100
0000
1000
0000
0100
0010
0100
0000
0001
0000
0100
0010
,
0100
0000
1000
0000
0100
0010
0100
0000
0001
0000
0100
0010
0100
0000
1000
0000
,
0100
0000
0010
1000
0001
0000
0010
0000
0100
1000
0001
0000
0100
0000
0010
1000
,
0001
0000
0010
0000
0100
1000
0001
0000
0100
0000
0010
1000
0001
0000
0000
0000
,
1000
0000
0100
0001
0100
0000
0010
0000
0100
0001
0100
0000
1000
0000
0100
0001
,
0100
0000
0010
0000
0100
0001
0100
0000
1000
0000
0100
0001
0100
0000
0010
0000
,
0001
0000
0100
1000
0100
0000
0010
0000
0100
1000
0100
0000
0001
0000
0100
1000
,
0100
0000
0010
0000
0100
1000
0100
0000
0001
0000
0100
1000
0100
0000
0000
0000
,
0010
0010
0010
1000
0100
0010
0001
0000
,
0010
0010
0010
0001
0100
0010
1000
0000
,
0001
0100
0001
0000
1000
0000
0010
0000
1000
0100
1000
0000
0002
0000
0000
0000
,
0103
0001
0000
0001
0010
0000
0100
1000
0000
1000
0010
0000
0000
0000
0000
0000
,
1000
0100
0000
0001
0100
0000
1000
0100
0000
0001
0100
0000
0110
0000
0000
0000
,
0010
0001
0010
0000
0100
0000
1000
0001
0000
0100
0010
0000
1000
0000
0001
0000
,
0010
0100
0010
0000
0001
0000
1000
0000
0010
0100
0010
0000
1000
0000
0000
0000
,
0001
0010
0001
0000
1000
0000
0010
0100
0000
0001
1000
0000
0100
0000
0010
0000
,
0001
0100
0001
0000
0010
0000
1000
0000
0010
0100
0010
0001
1000
0000
0000
0000
,
0001
0100
0001
0000
1000
0000
0010
0100
0000
0001
0010
0000
0100
0000
0001
0000
,
0100
1000
0100
0000
0010
0000
0001
0000
1000
0010
0100
0000
0001
0000
0000
0000
,
1000
0010
1000
0000
0100
0000
0001
0100
0000
0010
0001
0000
1000
0000
0010
0000
,
0100
1000
0100
0000
0001
0000
1000
0000
0100
0010
0001
1000
0010
0000
0000
0000
,
0100
1000
0100
0000
0001
0000
1000
0100
0000
0010
0001
0000
0100
0000
0010
0000
,
1000
0001
0010
0000
0100
0000
0010
0000
0001
1000
0010
0000
0100
0000
0000
0000
,
0001
0010
0001
0000
1000
0000
0010
0001
0000
0010
0100
0000
0001
0000
1000
0000
,
0100
0010
0001
0000
0100
0000
0010
0000
1000
0001
0010
0001
0100
0000
0000
0000
,
0010
1000
0001
0000
0010
0000
0100
0001
0000
0100
1000
0000
0010
0000
0100
0000
,
0001
0010
0100
0000
1000
0000
0001
0000
0100
0010
1000
0001
0010
0000
0000
0000
,
0100
1000
0001
0000
0010
0000
0001
0100
0000
1000
0100
0000
0110
0000
0000
0000
,
0010
1000
0000
0001
0010
0000
0100
1000
0000
0001
0100
0000
1001
0000
0000
0000
;

//--------------- dance-double - forcednature ----------------
#NOTEDATA:;
#STEPSTYPE:dance-double;
#DESCRIPTION:forcednature;
#DIFFICULTY:Easy;
#METER:7;
#RADARVALUES:0,0,0,0,0;
#CREDIT:forcednature;
#NOTES:
00000000
00000000
00000000
00000000
,
00000000
00000000
00000000
00000000
,
00000000
00000000
00000000
00000000
,
00000000
00000000
00000000
00000000
,
00000000
00000000
00000000
00000000
,
00001000
00000000
00000000
00001000
00000000
00000000
00000000
00000000
,
00010000
00000000
00000000
00010000
00000000
00000000
00000000
00000000
,
00100000
00000000
00000000
00100000
00000000
00000000
00000000
00000000
,
01100000
00000000
00000000
01100000
00000000
00000000
00000000
00000000
,
01000000
00010000
00100000
01000000
,
00000000
00100000
00001000
00010000
,
00000100
00001000
00000100
00010000
,
00000000
00001000
00010000
00000010
,
00001000
00000001
00000010
00000001
,
00000000
00001000
00000010
00010000
,
00001000
01000000
00010000
01000000
,
00000000
00010000
00010000
00000000
,
10010000
00000000
10000000
01000000
,
00100000
01000000
10000000
00010000
,
00100000
00000000
00001000
00010000
,
00000010
00001000
00000010
00000100
,
00000001
00000000
00000010
00000100
,
00010000
00001000
00010000
00000010
,
00001000
00000000
00010000
01000000
,
00010000
00100000
01000000
00000000
,
01200000
00000000
00000000
00000000
,
00302000
00000000
00000000
00000000
,
00023000
00000000
00000000
00000000
,
00001000
00001000
00000000
00030000
,
00000200
00000000
00000000
00000000
,
00002300
00000000
00000000
00000000
,
00003002
00000000
00000000
00000000
,
00000100
00000100
00000103
00001001
,
00000000
00001000
00000100
00010000
,
00000000
00001000
00100000
00010000
,
00000000
01000000
00001000
00010000
,
00000000
00000010
00010000
00001000
,
00000000
00100000
00010000
01000000
,
00000000
00100000
10000000
01000000
,
00000000
00100000
00001000
00010000
,
00000000
00000010
00010000
00001000
,
00000000
00000000
00011000
00000000
00000000
00011000
00000000
00000000
,
00011000
00000000
00000000
00011000
00000000
00000000
00011000
00000000
,
00000000
00000000
00001100
00000000
00000000
00001100
00000000
00000000
,
00001100
00000000
00000000
00001100
00000000
00000000
00001100
00000000
,
00000000
00000000
00011000
00000000
00000000
00011000
00000000
00000000
,
00011000
00000000
00000000
00011000
00000000
00000000
00011000
00000000
,
00000000
00000000
01010000
00000000
00000000
01010000
00000000
00000000
,
01010000
00000000
00000000
01010000
00000000
00000000
01010000
00000000
,
00000000
00000000
00101000
00000000
00000000
00101000
00000000
00000000
,
00101000
00000000
00000000
00101000
00000000
00000000
00101000
00000000
,
00000000
00000000
00010010
00000000
00000000
00010010
00000000
00000000
,
00010010
00000000
00000000
00010010
00000000
00000000
00010010
00000000
,
00000000
00010000
00000100
00010000
,
00000000
00001000
01000000
00001000
,
00000000
00010000
00000010
00010000
,
00001000
00000000
00000000
00001000
00000000
00000000
00000000
00000000
,
00011000
00000000
00000000
00011000
00000000
00000000
00000000
00000000
,
00010000
01000000
10000000
00010000
,
00100000
00001000
00010000
00000000
,
00000010
00001000
00000010
00000100
,
00000001
00000010
00000100
00000000
,
00010000
00001000
01000000
00010000
,
00100000
01000000
10000000
00000000
,
00010000
01000000
00001000
00010000
,
00000010
00010000
00001000
00000000
,
00000010
00000100
00001000
00000001
,
00000100
00000010
00001000
00000100
,
00010000
00001000
01000000
00010000
,
00100000
01000000
00010000
00001000
,
01000000
00010000
10000000
01000000
,
00010000
00001000
00100000
00010000
,
01000000
00001000
00010000
00000000
,
00011000
00000000
00000000
00011000
00000000
00000000
00011000
00000000
;

//--------------- dance-double - forcednature ----------------
#NOTEDATA:;
#STEPSTYPE:dance-double;
#DESCRIPTION:forcednature;
#DIFFICULTY:Medium;
#METER:11;
#RADARVALUES:0,0,0,0,0;
#CREDIT:forcednature;
#NOTES:
00000000
00000000
00000000
00000000
,
00000000
00000000
00000000
00000000
,
00000000
00000000
00000000
00000000
,
00000000
00000000
00000000
00000000
,
00000000
00000000
00000000
00000000
,
00001000
00010000
01000000
00100000
,
00000000
00010000
00000000
00000000
00010000
00000000
00000000
10000000
00000000
00000000
10000000
00000000
00000000
00000000
00000000
00000000
,
00100000
00010000
00001000
00000010
,
00000100
00000010
00000000
00000100
00000010
00000000
00000100
00000010
00000000
00000100
00000010
00000000
00000000
00000000
00000000
00000000
,
00000001
00000100
00001000
00000000
00010000
00000000
01000000
00000000
,
00100000
00000000
00001000
00000000
00010000
00001000
00010000
00000000
,
00100000
10000000
01000000
00000000
00010000
00000000
00001000
00000000
,
00000010
00000000
00000001
00000000
00000100
00000010
00000100
00000000
,
00000001
00000010
00001000
00000000
00010000
00000000
01000000
00000000
,
00100000
00000000
00001000
00000000
00010000
00000100
00010000
00000000
,
00001000
00000010
00000001
00000000
00000100
00000000
00001000
00000000
,
00010000
00100000
01100000
10010000
,
10000000
01000000
00010000
00000000
00001000
00000000
00100000
00000000
,
00010000
00000000
01000000
00000000
00001000
00010000
00001000
00000000
,
00000010
00000100
00010000
00000000
00000010
00000000
00001000
00000000
,
00000001
00000000
00000010
00000000
00001000
00010000
00001000
00000000
,
01000000
00100000
00010000
00000000
00001000
00000000
00100000
00000000
,
01000000
00000000
10000000
00000000
00100000
01000000
00010000
00000000
,
10000000
01000000
00010000
00000000
00001000
00000000
00000010
00000000
,
00000110
00000100
00001001
00000010
,
00012000
00000000
00000000
00000000
,
00203000
00000000
00000000
02300000
00000000
00000000
00000000
23000000
,
00000000
00000000
00000000
00000000
,
00100000
00100000
00100000
00000000
00000000
00000000
30000000
00000000
,
01000000
00000000
00000000
00000000
,
00010000
00000000
00000000
00001000
00000000
00000000
00000000
00000010
,
00000000
00000000
00000000
00000000
,
00000001
00001000
00000000
00000001
00001000
00000000
00000001
00001000
00000000
00000001
00001000
00000000
00000010
00000000
00000000
00000000
,
00000100
00001000
00010000
00000000
00011000
00000000
00001000
00000000
,
00010000
01000000
10000000
00000000
11000000
00000000
00100000
00000000
,
10000000
01000000
00010000
00000000
00011000
00000000
00001000
00000000
,
00000010
00000100
00001000
00000000
00001010
00000000
00000010
00000000
,
00000100
00000001
00000010
00000000
00000110
00000000
00000100
00000000
,
00010000
00001000
01000000
00000000
01100000
00000000
00100000
00000000
,
10000000
01000000
00010000
00000000
00011000
00000000
00001000
00000000
,
00000010
00000001
00000100
00000000
00000110
00000000
00000110
00000000
,
00000000
00000010
00010000
00000000
00001000
01000000
00000000
00001000
,
00010000
00000000
00000010
00010000
00000000
00001000
00100000
00000000
,
00000000
01000000
10000000
00000000
00100000
10000000
00000000
01000000
,
00100000
00000000
00001000
00010000
00000000
00000100
00000010
00000000
,
00000000
00000001
00000100
00000000
00000001
00000010
00000000
00000100
,
00010000
00000000
00001000
00100000
00000000
00001000
00010000
00000000
,
00000000
00100000
01000000
00000000
00010000
00100000
00000000
01000000
,
10000000
00000000
00100000
01000000
00000000
00001000
00010000
00000000
,
00000000
00000100
00001000
00000000
00000001
00000100
00000000
00000001
,
00000010
00000000
00000100
00001000
00000000
00000010
00010000
00000000
,
00000000
00001000
00100000
00000000
00010000
01000000
00000000
00001000
,
00010000
00000000
00001000
00100000
00000000
01000000
00100000
00000000
,
00020000
01000000
10000000
00130000
,
00002000
00000100
00000001
00003010
,
00020000
00000000
01000000
00030000
00002000
00000000
00000100
00003000
,
00000010
00000100
00000000
00000010
00000100
00000000
00000010
00000100
00000000
00000010
00000100
00000000
00000000
00000000
00000000
00000000
,
00010000
00001000
00000000
00010000
00001000
00000000
00010000
00001000
00000000
00010000
00001000
00000000
00000000
00000000
00000000
00000000
,
01000000
00010000
00100000
01000000
10000000
00000000
00100000
00000000
,
01100000
00010000
00011000
00000000
,
00001000
00010000
00000100
00001000
00000010
00000000
00000100
00000000
,
00001001
00000010
00000110
00000000
,
00000001
00000100
00001000
00010000
00000010
00000000
00010000
00000000
,
00011000
00100000
01100000
00000000
,
10000000
01000000
00010000
00001000
00100000
00000000
00010000
00000000
,
10010000
01000000
01100000
00000000
,
10000000
01000000
00100000
00010000
00100000
01000000
10000000
00000000
,
00010000
01000000
00001000
00000000
00010000
00000100
00001000
00000000
,
00000010
00000100
00001000
00010000
00000100
00000010
00000001
00000000
,
00000100
00001000
00010000
00000000
00011000
00000000
00011000
00000000
,
00001000
00100000
00010000
01000000
00001000
00010000
01000000
00000000
,
00100000
00010000
10000000
00000000
00100000
00010000
00001000
00000000
,
00011000
00000000
00000000
00011000
00000000
00000000
00022000
00000000
00000000
00000000
00000000
00000000
00033000
00000000
00000000
00000000
,
00000010
00000100
00000000
00000010
00000100
00000000
00000010
00000100
00000000
00000010
00000100
00000000
00000001
00000000
00000000
00000000
;

//--------------- dance-double - forcednature ----------------
#NOTEDATA:;
#STEPSTYPE:dance-double;
#DESCRIPTION:forcednature;
#DIFFICULTY:Hard;
#METER:15;
#RADARVALUES:0,0,0,0,0;
#CREDIT:forcednature;
#NOTES:
00000000
00000000
00000000
00000000
,
00000000
00000000
00000000
00000000
,
00000000
00000000
00000000
00000000
,
00000000
00000000
00000000
00000000
,
00000000
00000000
00000000
00000000
,
00001000
00010000
00000000
00100000
00010000
00000000
00001000
00000010
,
00000000
00000100
00000000
00000000
00010000
00000000
00000000
00000010
00000000
00000000
00001000
00000000
00000001
00000000
00000000
00000000
,
00000100
00001000
00000000
00010000
01000000
00000000
00100000
00000000
,
00010000
10000000
00000000
00010000
10000000
00000000
00010000
10000000
00000000
00010000
10000000
00000000
00100000
00000000
00000000
00000000
,
10000000
01000000
00010000
00001000
01000000
00010000
00100000
00000000
,
00001000
00010000
00000010
00000000
00001010
00000000
00000110
00000000
,
00000001
00000100
00001000
00010000
00000100
00001000
00000010
00000000
,
00010000
00001000
00100000
00000000
00110000
00000000
01100000
00000000
,
01000000
00010000
00001000
01000000
00010000
00100000
01000000
00000000
,
10000000
00100000
00010000
00000000
00110000
00000000
10100000
00000000
,
10000000
01000000
00010000
00001000
00100000
00010000
01000000
00000000
,
00001000
00010000
00000010
00000000
00001010
00000000
00001100
00000000
,
00000100
00000010
00000001
00000100
00001000
00010000
00000100
00001000
,
00000100
00000010
00001000
00010000
01000000
00100000
00001000
00000000
,
00010000
00100000
01000000
00010000
10000000
01000000
00010000
00001000
,
00100000
00010000
01000000
00001000
00010000
00000010
00010000
00000000
,
00001000
00000010
00000001
00000100
00001000
00000100
00000001
00000010
,
00001000
00010000
01000000
00100000
00001000
00010000
00100000
00000000
,
10000000
01000000
00010000
00001000
01000000
00010000
00100000
00000000
,
01100000
00000000
10010000
00000000
10000000
01000000
00010000
00000000
,
00012000
00000000
00000000
00000000
,
00003020
00000000
00000000
00000032
00000000
00000000
00000000
00000203
,
00000000
00000000
00000000
00000000
,
00000010
00000010
00000010
00000000
00000000
00000000
00000300
00000000
,
00002001
00000000
00000000
00000000
,
00023000
00000000
00000000
02030000
00000000
00000000
00000000
03200000
,
00000000
00000000
00000000
00000000
,
10000000
00000000
00000000
10000000
00000000
00000000
10000000
00000000
00000000
10300000
00000000
00000000
01100000
00000000
00000000
00000000
,
01000000
00000000
00010000
00000000
00100000
00000000
01000000
00100000
01000000
00000000
00000000
00000000
00010000
00000000
00001000
00000000
,
00000010
00000000
00000100
00000000
00001000
00000000
00000001
00001000
00000001
00000000
00000000
00000000
00000100
00000000
00001000
00000000
,
00010000
00000000
00000010
00000000
00001000
00000000
00000100
00001000
00000100
00000000
00000000
00000000
00000010
00000000
00000001
00000000
,
00000100
00000000
00001000
00000000
00010000
00000000
00001000
00010000
00001000
00000000
00000000
00000000
00011000
00000000
00000000
00000000
,
00010000
00000000
01000000
00000000
10000000
00000000
01000000
10000000
01000000
00000000
00000000
00000000
00100000
00000000
00001000
00000000
,
00010000
00000000
00100000
00000000
01000000
00000000
00010000
01000000
00010000
00000000
00000000
00000000
10000000
00000000
01000000
00000000
,
00100000
00000000
01000000
00000000
00010000
00000000
00001000
00010000
00001000
00000000
00000000
00000000
00000010
00000000
00000100
00000000
,
00001000
00000000
00000001
00000000
00000100
00000000
00000010
00000100
00000010
00000000
00000000
00000000
00000110
00000000
00000000
00000000
,
00000100
00001000
00010000
01000000
00010000
00001000
00000010
00001000
,
00010000
00100000
00010000
00001000
00000100
00001000
00010000
00000000
,
01000000
00100000
00001000
00010000
00100000
01000000
00001000
00010000
,
01000000
00100000
00001000
00010000
00100000
01000000
00010000
00000000
,
10000000
01000000
00010000
00001000
00000010
00000001
00000100
00001000
,
00010000
01000000
10000000
00100000
00010000
00100000
10000000
00000000
,
01000000
00010000
00001000
00000100
00001000
00010000
00100000
00010000
,
00001000
00000010
00001000
00010000
00001000
00000100
00000001
00000000
,
00000010
00000001
00000010
00000000
00000100
00000000
00001000
00000100
00001000
00000000
00000010
00000000
00010000
00000010
00010000
00000000
,
00001000
00000000
00010000
00001000
00010000
00000000
00100000
00000000
01000000
00100000
01000000
00000000
00010000
00000000
00000000
00000000
,
10000000
01000000
10000000
00000000
00010000
00000000
00100000
00010000
00100000
00000000
00001000
00000000
00010000
00001000
00010000
00000000
,
00000010
00000000
00001000
00000010
00001000
00000000
00000100
00000000
00000010
00000100
00000010
00000000
00000001
00000000
00000000
00000000
,
00001001
00000000
00000001
00000100
00001000
00010000
01000000
00000000
,
10010000
00000000
10000000
01000000
00010000
00001000
00000100
00000000
,
00000010
00010000
00001000
00100000
00001000
00010000
00200000
00000000
,
01300000
00010000
00000000
01000000
00010000
00000000
01000000
00010000
00000000
01000000
00010000
00000000
00000000
00000000
00000000
00000000
,
10000000
01000000
00000000
00100000
01000000
00000000
00100000
00001000
00000000
00010000
00001000
00000000
00011000
00000000
00000000
00000000
,
00010000
00000000
00000010
00000000
00001000
00000000
00000010
00000000
00001000
00000100
00001000
00000000
00000001
00000000
00000100
00000000
,
00000001
00000010
00001000
00000010
00000100
00010000
00001000
00000000
,
00100000
00000000
00010000
00000000
01000000
00000000
00100000
00000000
10000000
01000000
10000000
00000000
00010000
00000000
01000000
00000000
,
00010000
00100000
01000000
00010000
00001000
00000010
00000110
00000000
,
00000100
00000000
00001000
00000000
00000001
00000000
00000100
00000000
00000010
00001000
00000010
00000000
00000100
00000000
00001000
00000000
,
00010000
01000000
00100000
00001000
00010000
00100000
01000000
00000000
,
00010000
00000000
10000000
00000000
01000000
00000000
00010000
00000000
00001000
00100000
00001000
00000000
00010000
00000000
01000000
00000000
,
00100000
00001000
00000010
00000100
00001000
00000010
00000110
00000000
,
00000100
00000001
00000100
00000000
00000001
00000000
00000010
00000000
00000100
00001000
00000100
00000000
00010000
00000000
00001000
00000000
,
01001000
01000000
00010000
00100000
01100000
01000000
10000000
00000000
,
00100000
01000000
00100000
00000000
01000000
00000000
00010000
00000000
00100000
00001000
00100000
00000000
00010000
00000000
10000000
00000000
,
11000000
01000000
00010000
00001000
00011000
00001000
00000010
00000000
,
00000100
00001000
00000100
00000000
00010000
00000000
00001000
00000000
01000000
00010000
01000000
00000000
00001000
00000000
00010000
00000000
,
00010010
00000010
00000100
00000001
00000011
00000010
00000100
00000000
,
00010100
00000000
00000000
00011000
00000000
00000000
00202000
00000000
00000000
00000000
00000000
00000000
00303000
00000000
00000000
00000000
,
01000000
00100000
00000000
01000000
00100000
00000000
01000000
00100000
00000000
01000000
00100000
00000000
10010000
00000000
00000000
00000000
;
