#VERSION:0.83;
#TITLE:Todestrieb;
#SUBTITLE:;
#ARTIST:Rche;
#TITLETRANSLIT:;
#SUBTITLETRANSLIT:;
#ARTISTTRANSLIT:;
#GENRE:SACRED TRANCE;
#CREDIT:;
#MUSIC:Todestrieb.ogg;
#BANNER:Todestrieb.png;
#BACKGROUND:Todestrieb-bg.png;
#CDTITLE:./CDTitles/bm IIDX 19 Lincle.png;
#SAMPLESTART:86.459;
#SAMPLELENGTH:15.000;
#SELECTABLE:YES;
#OFFSET:-0.851;
#BPMS:0.000=185.000;
#STOPS:;
#TIMESIGNATURES:0.000=4=4;
#BGCHANGES:0.000=Todestrieb.mp4=1.000=0=0=0=StretchNoLoop====,
99999.000=-nosongbg-=1.000=0=0=0=StretchNoLoop====
;
#FGCHANGES:;

//--------------- dance-single - forcednature ----------------
#NOTEDATA:;
#STEPSTYPE:dance-single;
#DESCRIPTION:forcednature;
#DIFFICULTY:Beginner;
#METER:2;
#RADARVALUES:0,0,0,0,0;
#CREDIT:forcednature;
#NOTES:
0000
0000
0000
0000
,
0000
0000
0000
0000
,
0000
0000
0000
0000
,
0000
0000
0000
0000
,
0000
0000
0000
0000
,
0000
0000
0000
0000
,
0000
0000
0000
0000
,
0000
0000
0000
0000
,
0000
0000
0000
0000
,
0000
0000
0000
0000
,
1000
0000
0000
0000
,
0000
0000
0000
0000
,
0001
0000
0000
0000
,
0000
0000
0000
0000
,
0100
0000
0000
0000
,
0000
0000
0000
0000
,
0010
0000
0000
0000
,
0000
0000
0000
0000
,
1000
0000
0000
0000
,
0000
0000
0000
0000
,
0100
0000
0000
0000
,
0000
0000
0000
0000
,
0010
0000
0000
0000
,
0000
0000
0000
0000
,
0001
0000
0000
0000
,
0100
0000
0000
0000
,
0110
0000
0000
0000
,
0000
0000
0000
0000
,
1000
0000
0000
0000
,
0000
0000
0000
0000
,
0001
0000
0000
0000
,
0000
0000
0000
0000
,
0010
0000
0000
0000
,
0100
0000
0000
0000
,
1000
0000
0000
0000
,
0001
0000
0000
0000
,
0100
0000
0000
0000
,
0010
0000
0000
0000
,
1000
0000
0000
0000
,
0001
0000
0000
0000
,
0010
0000
0000
0000
,
0001
0000
0000
0000
,
0100
0000
0000
0000
,
0010
0000
0000
0000
,
1000
0000
0000
0000
,
0100
0000
0000
0000
,
1000
0000
0000
0000
,
0010
0000
0000
0000
,
0100
0000
0000
0000
,
0001
0000
0000
0000
,
0020
0000
0000
0000
,
0000
0000
0000
0000
,
0000
0000
0000
0000
,
0030
0000
0000
0000
,
0200
0000
0000
0000
,
0000
0000
0000
0000
,
0000
0000
0000
0000
,
0300
0000
0000
0000
,
0000
1000
0000
0000
,
0000
1000
0000
0000
,
0000
0001
0000
0000
,
0000
0100
0000
0000
,
0000
0001
0000
0000
,
0000
0001
0000
0000
,
0000
1000
0000
0000
,
0000
0100
0000
0000
,
0000
0000
0010
0000
,
0000
0000
0001
0000
,
0000
0000
0100
0000
,
0000
0000
0001
0000
,
0000
0000
1000
0000
,
0000
0000
0010
0000
,
0000
0000
1000
0000
,
0000
0000
0100
0000
,
0000
0000
0000
0010
,
0000
0000
0000
0001
,
0000
0000
0000
1000
,
0000
0000
0000
0010
,
0000
0000
0000
0100
,
0000
0000
0000
0001
,
0000
0000
0000
0000
,
0110
0000
0000
0000
,
1000
0000
0000
0000
,
0001
0000
0000
0000
,
0100
0000
0000
0000
,
0010
0000
0000
0000
,
1000
0000
0000
0000
,
0001
0000
0000
0000
,
0010
0000
0000
0000
,
0100
0000
0000
0000
,
2002
0000
0000
0000
,
0000
0000
0000
0000
,
0000
0000
0000
0000
,
0000
0000
0000
0000
,
0000
0000
0000
0000
,
0000
0000
0000
0000
,
0000
0000
0000
0000
,
3003
0000
0000
0000
,
0220
0000
0000
0000
,
0000
0000
0000
0000
,
0000
0000
0000
0000
,
0330
0000
0000
0000
;

//--------------- dance-single - forcednature ----------------
#NOTEDATA:;
#STEPSTYPE:dance-single;
#DESCRIPTION:forcednature;
#DIFFICULTY:Easy;
#METER:8;
#RADARVALUES:0,0,0,0,0;
#CREDIT:forcednature;
#NOTES:
0000
0000
0000
0000
,
0000
0000
0000
0000
,
0000
0000
0000
0000
,
0000
0000
0000
0000
,
0000
0000
0000
0000
,
0000
0000
0000
0000
,
0000
0000
0000
0000
,
0000
0000
0000
0000
,
0000
0000
0000
0000
,
0000
0000
0000
0000
,
1000
0000
0000
0100
0000
0000
1000
0000
,
0000
0010
0000
0000
1000
0000
0000
0000
,
0001
0000
0000
0100
0000
0000
0001
0000
,
0000
0010
0000
0000
0001
0000
0000
0000
,
0100
0000
0000
0010
0000
0000
1000
0000
,
0000
0001
0000
0000
0010
0000
0000
0000
,
0100
0000
0000
0010
0000
0000
0001
0000
,
0000
1000
0000
0000
0010
0000
0000
0000
,
0100
0001
0100
0000
,
0010
1000
0010
0000
,
1000
0100
1000
0000
,
0001
0010
0001
0000
,
0100
0010
1000
0000
,
0100
0010
0001
0000
,
1000
1000
0001
0001
,
0100
0010
0110
0000
,
1001
0000
0000
0000
,
2000
0000
0000
0000
,
3200
0000
0000
0000
,
0320
0000
0000
0000
,
0032
0000
0000
0000
,
0203
0000
0000
0000
,
0320
0000
0030
0000
,
1001
0000
1000
0010
,
0000
0000
0100
0000
0000
0001
0000
0000
0100
0000
0000
0001
0000
0000
0100
0000
,
0000
0000
0010
0000
0000
1000
0000
0000
0010
0000
0000
1000
0000
0000
0010
0000
,
0000
0000
1000
0000
0000
0100
0000
0000
1000
0000
0000
0100
0000
0000
1000
0000
,
0000
0000
0001
0000
0000
0010
0000
0000
0001
0000
0000
0010
0000
0000
0001
0000
,
0000
0000
0100
0000
0000
0010
0000
0000
0100
0000
0000
0010
0000
0000
0100
0000
,
0000
0000
0001
0000
0000
1000
0000
0000
0001
0000
0000
1000
0000
0000
0001
0000
,
0000
0000
0010
0000
0000
0100
0000
0000
0010
0000
0000
0100
0000
0000
0010
0000
,
0000
0000
0001
0000
0000
1000
0000
0000
0001
0000
0000
0100
0000
0000
0010
0000
,
0000
0000
1000
0000
0000
0100
0000
0000
1000
0000
0000
0100
0000
0000
0010
0000
,
0000
0000
0001
0000
0000
0100
0000
0000
0001
0000
0000
0100
0000
0000
0010
0000
,
0000
0000
1000
0000
0000
0001
0000
0000
1000
0000
0000
0001
0000
0000
0010
0000
,
0000
0000
0100
0000
0000
1000
0000
0000
0100
0000
0000
1000
0000
0000
0010
0000
,
0000
0000
0100
0000
0000
0001
0000
0000
0100
0000
0000
0001
0000
0000
1000
0000
,
0000
0000
0100
0000
0000
0010
0000
0000
0100
0000
0000
0010
0000
0000
0001
0000
,
0000
0000
1000
0000
0000
0010
0000
0000
1000
0000
0000
0010
0000
0000
0100
0000
,
0000
0000
0001
0000
0000
0010
0000
0000
0100
0000
0000
1000
0000
0000
0010
0000
,
0000
0000
0000
0000
,
0200
0000
0302
0000
,
2003
0000
3200
0000
,
0320
0000
0000
0000
,
0032
0000
0000
0000
,
0203
0000
0320
0000
,
2030
0000
3002
0000
,
0023
0000
0000
0000
,
0030
0100
1000
0100
,
0000
0010
0001
0010
,
0000
0001
0100
0001
,
0000
1000
0010
1000
,
0000
0100
0010
0001
,
0000
0100
0010
1000
,
0000
0100
1000
0001
,
0000
0100
0001
1000
,
0010
1000
0100
0100
,
0000
0010
0001
0001
,
0000
1000
0010
0010
,
0000
0100
0001
1000
,
0000
0100
0010
0010
,
0000
0001
0100
0100
,
0000
0010
1000
1000
,
0000
0100
0010
0001
,
0000
1000
0010
1010
,
0000
0001
0100
0101
,
0000
1000
0100
1100
,
0000
0001
0010
0011
,
0000
1000
0001
1001
,
0000
0010
0100
0110
,
0000
0001
1000
1001
,
0000
1000
0010
0100
,
0000
0000
0001
0000
0000
0010
0000
0000
0100
0000
0000
0010
0000
0000
0001
0000
,
0000
0000
1000
0000
0000
0010
0000
0000
0100
0000
0000
0010
0000
0000
1000
0000
,
0000
0000
0001
0000
0000
0100
0000
0000
0001
0000
0000
1000
0000
0000
0010
0000
,
0000
0000
1000
0000
0000
0100
0000
0000
0010
0000
0000
0001
0000
0000
0100
0000
,
0000
0000
0010
0000
0000
1000
0000
0000
0001
0000
0000
0010
0000
0000
0100
0000
,
0000
0000
0010
0000
0000
0001
0000
0000
0100
0000
0000
0010
0000
0000
1000
0000
,
0000
0000
0100
0000
0000
1000
0000
0000
0001
0000
0000
0100
0000
0000
0010
0000
,
0000
0000
1000
0000
0000
0100
0000
0000
0010
0000
0000
0001
0000
0000
0100
0000
,
0002
0000
0000
0000
,
2003
0000
0000
0000
,
3200
0000
0000
0000
,
0320
0000
0000
0000
,
0032
0000
0000
0000
,
0203
0000
0000
0000
,
0320
0000
0000
0000
,
2030
0000
0000
3000
,
1001
0000
0000
0000
;

//--------------- dance-single - forcednature ----------------
#NOTEDATA:;
#STEPSTYPE:dance-single;
#DESCRIPTION:forcednature;
#DIFFICULTY:Medium;
#METER:11;
#RADARVALUES:0,0,0,0,0;
#CREDIT:forcednature;
#NOTES:
0000
0000
0000
0000
,
0000
0000
0000
0000
,
0000
0000
0000
0000
,
0000
0000
0000
0000
,
0000
0000
0000
0000
,
0000
0000
0000
0000
,
0000
0000
0000
0000
,
0000
0000
0000
0000
,
0000
0000
0000
0000
,
0000
0000
0000
0000
,
1000
0100
0000
1000
0010
0000
1000
0100
,
0000
1000
0010
0000
0100
0000
0100
0000
,
0001
0100
0000
0001
0010
0000
0001
0100
,
0000
0001
0010
0000
0100
0000
0100
0000
,
1000
0010
0000
0001
0010
0000
1000
0010
,
0000
0001
0010
0000
0100
0000
0100
0000
,
0001
0010
0000
1000
0010
0000
0001
0010
,
0000
1000
0010
0000
0100
0000
0100
0000
,
1001
0001
0100
0100
,
0010
0010
1000
1000
,
0001
0001
0010
0010
,
0100
0100
1000
1000
,
0101
0001
0010
0010
,
0100
0100
1000
1000
,
0010
0010
0100
0100
,
1001
0000
0110
0000
0001
0100
0010
1000
,
0002
0000
0000
0000
,
0023
0000
0000
0000
,
0230
0000
0000
0000
,
2300
0000
0000
0000
,
3020
0000
0000
0000
,
0230
0000
0000
0000
,
0301
0100
0001
0100
0010
1000
0010
1000
,
0001
0000
0110
0000
1000
0100
0010
0001
,
0100
0000
0001
0000
0000
1000
0000
0000
0010
0000
0000
1000
0000
0000
0001
0000
,
0000
0000
0010
0000
0000
0100
0000
0000
1000
0000
0000
0100
0000
0000
0010
0000
,
0000
0000
0001
0000
0000
0100
0000
0000
0010
0000
0000
1000
0000
0000
0001
0000
,
0000
0000
0010
0000
0000
0100
0000
0000
1000
0000
0000
0010
0000
0000
0110
0000
,
0000
0000
0100
0000
0000
0001
0000
0000
1000
0000
0000
0100
0000
0000
1000
0000
,
0000
0000
0010
0000
0000
0100
0000
0000
0001
0000
0000
0010
0000
0000
0100
0000
,
0000
0000
0010
0000
0000
0001
0000
0000
1000
0000
0000
0010
0000
0000
0100
0000
,
0000
0000
0001
0000
0000
1000
0000
0000
0100
0000
0000
0010
0000
0000
0110
0000
,
0000
0000
0100
0000
0000
1000
0000
0000
0010
0000
0000
0100
0000
0000
0001
0000
,
0000
0000
0010
0000
0000
1000
0000
0000
0010
0000
0000
0001
0000
0000
0100
0000
,
0000
0000
0010
0000
0000
0001
0000
0000
0010
0000
0000
1000
0000
0000
0001
0000
,
0000
0000
1000
0000
0000
0100
0000
0000
0001
0000
0000
0100
0000
0000
0110
0000
,
0000
0000
0010
0000
0000
0001
0000
0000
0100
0000
0000
0010
0000
0000
1000
0000
,
0000
0000
0100
0000
0000
1000
0000
0000
0001
0000
0000
0100
0000
0000
1000
0000
,
0000
0000
0100
0000
0000
0001
0000
0000
0010
0000
0000
0001
0000
0000
1000
0000
,
0010
0100
0010
0100
0001
0010
0100
1000
,
0020
0000
0000
0000
,
0230
0000
0302
0000
,
2003
0000
3200
0000
,
0320
0000
0000
0000
,
0032
0000
0000
0000
,
0203
0000
0320
0000
,
2030
0000
3002
0000
,
0023
0000
0000
0000
,
0130
0000
1000
1000
0001
1000
0010
0000
,
0100
0000
0001
0001
1000
0001
0010
0000
,
0100
0000
1000
1000
0010
0100
0001
0000
,
0010
0000
0100
0100
1000
0001
0100
0000
,
0010
0000
0100
0100
0001
1000
0100
0000
,
0010
0000
0001
0001
1000
0010
0100
0000
,
0001
0010
0001
0000
1000
0010
1000
0000
,
0100
0010
0100
0010
0001
1000
0010
0000
,
0100
0001
0010
0000
0100
0100
1000
1000
,
0000
0010
0100
0000
0001
0001
0010
0010
,
0000
0001
0100
0000
0010
0010
1000
1000
,
0000
0100
0010
0000
0001
0100
0001
0010
,
0000
0100
1000
0000
0010
0010
0100
0100
,
0000
0001
1000
0000
0100
0100
0010
0010
,
0000
0001
0100
0000
0010
0010
1000
1000
,
0000
0001
0010
0000
0100
1000
0100
0010
,
0001
0000
0000
0001
0100
0000
0000
0100
0010
0000
0000
0010
1000
0000
0000
0000
,
1000
0000
0000
1000
0100
0000
0000
0100
0010
0000
0000
0010
0001
0000
0000
0000
,
0100
0000
0000
0100
0010
0000
0000
0010
1000
0000
0000
1000
0100
0000
0000
0000
,
0100
0000
0000
0100
0010
0000
0000
0010
0001
0000
0000
0001
0100
0000
0000
0000
,
0010
0000
0000
0010
1000
0000
0000
1000
0001
0000
0000
0001
0010
0000
0000
0000
,
0010
0000
0000
0010
0001
0000
0000
0001
1000
0000
0000
1000
0010
0000
0000
0000
,
0100
0001
0100
0001
1000
0100
1000
0100
,
0010
0000
0110
0000
0100
1000
0010
1000
,
0001
0000
0010
0000
0000
0100
0000
0000
1000
0000
0000
0010
0000
0000
1010
0000
,
0000
0000
0100
0000
0000
0001
0000
0000
0010
0000
0000
0001
0000
0000
1001
0000
,
0000
0000
1000
0000
0000
0100
0000
0000
0001
0000
0000
0100
0000
0000
0110
0000
,
0000
0000
0020
0000
0000
0001
0000
0000
0100
0000
0000
1030
0000
0000
0010
0000
,
0000
0000
0001
0000
0000
0100
0000
0000
0110
0000
0000
1000
0000
0000
1100
0000
,
0000
0000
1000
0000
0000
0001
0000
0000
1010
0000
0000
0100
0000
0000
0011
0000
,
0000
0000
0001
0000
0000
1000
0000
0000
0101
0000
0000
0001
0000
0000
0010
0000
,
0100
0000
1001
0000
1000
0100
0010
0001
,
0200
0000
0000
0000
,
0320
0000
0000
0000
,
2030
0000
0000
0000
,
3002
0000
0000
0000
,
2003
0000
0000
0000
,
3200
0000
0000
0000
,
0320
0000
0000
0000
,
0032
0000
0000
0003
,
1001
0000
0000
0000
;

//--------------- dance-single - forcednature ----------------
#NOTEDATA:;
#STEPSTYPE:dance-single;
#DESCRIPTION:forcednature;
#DIFFICULTY:Hard;
#METER:15;
#RADARVALUES:0,0,0,0,0;
#CREDIT:forcednature;
#NOTES:
0000
0000
0000
0000
,
0000
0000
0000
0000
,
0000
0000
0000
0000
,
0000
0000
0000
0000
,
0000
0000
0000
0000
,
0000
0000
0000
0000
,
0000
0000
0000
0000
,
0000
0000
0000
0000
,
0000
0000
0000
0000
,
0000
0000
0000
0000
,
1000
0100
1000
0001
0100
0001
1000
0010
,
1000
0001
0010
0001
0100
0000
0010
0000
,
1000
0100
0010
0001
0100
0010
1000
0001
,
0010
0001
1000
0010
0100
0000
0001
0000
,
0010
0100
1000
0010
0100
0001
1000
0100
,
0010
0001
0100
0010
1000
0000
0001
0000
,
0010
0100
0100
1000
0100
0100
0010
0001
,
0001
0100
0001
0001
1000
0000
0010
0000
,
0110
0100
0001
0001
,
1000
1000
0100
0100
,
0010
0010
0001
0001
,
1000
1000
0010
0010
,
0110
0100
0001
0001
,
1000
1000
0100
0100
,
0010
0010
0001
0001
,
0100
0000
0010
0000
1001
0000
0000
0000
0001
0100
0001
0100
0010
1000
0010
1000
,
0002
0000
0000
0000
,
0023
0000
0000
0000
,
0230
0000
0000
0000
,
2300
0000
0000
0000
,
3002
0000
0000
0000
,
0203
0010
0010
0310
,
0001
1000
0001
1000
0010
0100
0010
0100
,
0110
0000
0000
0000
1000
0000
0001
0000
1000
0100
1000
0100
0010
0001
0010
0001
,
1000
0000
0010
0000
0100
0001
0000
0000
0010
0100
0000
1000
0100
0000
0010
0000
,
0001
0000
1000
0000
0001
0100
0000
0000
0010
1000
0000
0001
0010
0000
0100
0000
,
0010
0000
0001
0000
0100
0010
0000
0000
1000
0100
0000
1000
0010
0000
0100
0000
,
0001
0000
0010
0000
0100
1000
0000
1000
0010
0000
0010
0100
0000
0001
1000
0000
,
0100
0000
0010
0000
0001
0100
0000
0000
0010
1000
0000
0001
1000
0000
0100
0000
,
0010
0000
0001
0000
0100
0010
0000
0000
1000
0001
0000
0010
0001
0000
0100
0000
,
0010
0000
1000
0000
0001
0010
0000
0000
0100
1000
0000
0010
1000
0000
0001
0000
,
0100
0000
0010
0000
1000
0100
0000
0100
0010
0000
0010
0001
0000
1000
0010
0000
,
0100
0000
1000
0000
0100
0001
0000
0000
1000
0010
0000
1000
0100
0000
0010
0000
,
1000
0000
0010
0000
0001
0010
0000
0000
0100
1000
0000
0001
0100
0000
0010
0000
,
0001
0000
0010
0000
1000
0001
0000
0000
0100
0010
0000
1000
0100
0000
0010
0000
,
0001
0000
1000
0000
0010
0100
0000
0100
0001
0000
0001
0010
0000
0100
1000
0000
,
0001
0000
0100
0000
0010
0100
0000
0000
0001
0010
0000
0001
1000
0000
0010
0000
,
0100
0000
0001
0000
1000
0100
0000
0000
0010
0001
0000
0100
0010
0000
1000
0000
,
0100
0000
1000
0000
0010
0100
0000
0000
0001
0010
0000
0100
0010
0000
0001
0000
,
1000
0000
1000
0000
0010
0000
0010
0000
0100
0001
0100
0001
1000
0100
1000
0100
,
0020
0000
0000
0000
,
0032
0000
2003
0000
,
3020
0000
0230
0000
,
0302
0000
0000
0003
,
2020
0000
0000
3030
,
0102
0000
0020
0033
,
2200
0300
0020
3030
,
2002
0000
0000
3003
,
1000
0000
0000
0000
0000
0000
0001
0000
0010
0000
0100
0000
1000
0000
0000
0010
0000
0000
1000
0000
0000
0000
0000
0000
,
0001
0000
0000
0000
0000
0000
1000
0000
0010
0000
0100
0000
0001
0000
0000
0010
0000
0000
0001
0000
0000
0000
0000
0000
,
1000
0000
0000
0000
0000
0000
0100
0000
0010
0000
0100
0000
1000
0000
0000
0010
0000
0000
1000
0000
0000
0000
0000
0000
,
0001
0000
0000
0000
0000
0000
0100
0000
0010
0000
0100
0000
0001
0000
0000
0010
0000
0000
0001
0000
0000
0000
0000
0000
,
0100
0000
0000
0000
0000
0000
0010
0000
1000
0000
0100
0000
0010
0000
0000
0001
0000
0000
1000
0000
0000
0000
0000
0000
,
0100
0000
0000
0000
0000
0000
0010
0000
0001
0000
0100
0000
0010
0000
0000
1000
0000
0000
0001
0000
0000
0000
0000
0000
,
0100
0001
0100
0001
1000
0100
1000
0100
,
0020
1000
0100
0031
,
0010
0000
0000
0010
0001
0000
1000
0000
0001
0100
0001
0000
0100
0010
0100
0000
,
0001
0000
0000
0001
0010
0000
0100
0000
1000
0010
1000
0000
0100
1000
0100
0000
,
0010
0000
0000
0010
0001
0000
1000
0000
0010
0100
0010
0000
0100
0001
0100
0000
,
0010
0000
0000
0010
1000
0000
0001
0000
0010
0100
1000
0000
0100
1000
0100
0000
,
0010
0000
0000
0010
0001
0000
1000
0000
0010
0100
0010
0000
0100
0001
0100
0000
,
0010
0000
0000
0010
1000
0000
0001
0000
0010
0100
0010
0000
0100
1000
0100
0000
,
0010
0000
0000
0010
0001
0000
1000
0000
0001
0100
0001
0000
1000
0100
1000
0000
,
0010
0000
0000
0010
0100
0000
0001
0000
1000
0000
1000
0000
0100
0010
0100
0010
,
0001
0000
0100
0000
0010
1000
0000
0000
0001
0010
0000
0000
0100
0010
0000
0000
,
0001
0100
0001
0000
1000
0100
0000
0000
0010
0100
0000
0000
1000
0001
0000
0000
,
0100
0010
0100
0000
0001
0010
0000
0000
0100
0010
0000
0000
0001
1000
0000
0000
,
0010
0100
0010
0000
1000
0100
0000
0000
0010
0100
0000
0000
1000
0010
0000
0000
,
0100
0001
0100
0000
0010
0001
0000
0000
0010
1000
0000
0000
0001
0100
0000
0000
,
0001
0010
0001
0000
1000
0100
0000
0000
0001
0100
0000
0000
0010
0001
0000
0000
,
1000
0010
1000
0000
0100
0001
0000
0000
0100
1000
0000
0000
0010
0100
0000
0000
,
1001
0000
0000
0000
0110
0000
0000
0000
0001
0010
0001
0010
0100
1000
0100
1000
,
0001
0000
0010
0000
0100
0010
0000
0001
0100
0000
0010
1000
0000
0001
0010
0000
,
0100
0000
0010
0000
0001
1000
0000
0010
0100
0001
0100
0001
0000
1000
0010
0000
,
1000
0000
0100
0000
0010
0001
0000
0100
0010
0000
1000
0001
0000
0010
0100
0000
,
1000
0000
0010
0000
0100
1000
0000
1000
0100
0000
0100
0001
0000
0001
0010
0000
,
0100
0000
1000
0000
0001
0100
0000
0010
1000
0000
0001
0010
0000
0100
0010
0000
,
0001
0000
1000
0000
0010
0100
0000
0001
0010
0100
0010
0100
0000
1000
0010
0000
,
0100
0000
0001
0000
1000
0100
0000
0010
0100
0000
1000
0010
0000
0100
0001
0000
,
0011
0000
0000
0000
1100
0000
0000
0000
1000
0010
0100
0001
0100
0010
1000
0001
,
0020
0000
0000
0000
,
0002
0000
0030
0000
,
0200
0000
0003
0000
,
0020
0000
0300
0000
,
2000
0000
0030
0000
,
0002
0000
3000
0000
,
0020
0000
0003
0000
,
0200
0000
0330
0000
,
1001
0000
0000
0000
;

//--------------- dance-single - forcednature ----------------
#NOTEDATA:;
#STEPSTYPE:dance-single;
#DESCRIPTION:forcednature;
#DIFFICULTY:Challenge;
#METER:17;
#RADARVALUES:0,0,0,0,0;
#CREDIT:forcednature;
#NOTES:
0000
0000
0000
0000
,
0000
0000
0000
0000
,
0000
0000
0000
0000
,
0000
0000
0000
0000
,
0000
0000
0000
0000
,
0000
0000
0000
0000
,
0000
0000
0000
0000
,
0000
0000
0000
0000
,
0000
0000
0000
0000
,
0000
0000
0000
0000
,
1002
0000
0000
0203
0000
0000
0320
0000
,
0000
2030
0000
0000
3001
0010
0100
0010
,
0200
0000
0000
2300
0000
0000
3002
0000
,
0000
0203
0000
0000
0310
1000
0001
1000
,
0200
0000
0000
0320
0000
0000
0032
0000
,
0000
2003
0000
0000
3010
0100
0001
0100
,
0020
0000
0000
2030
0000
0000
3002
0000
,
0000
0023
0000
0000
0130
1000
0001
1000
,
0010
0000
0010
0100
0001
0000
0001
0010
,
0100
0000
0100
1000
0002
0000
0100
0000
,
1003
0000
1000
0100
0010
0000
0010
0001
,
1000
0000
1000
0010
0200
0000
0001
0000
,
0310
0000
0010
1000
0001
0000
0001
0010
,
0100
0000
0100
1000
0002
0000
0010
0000
,
0103
0000
0100
0010
1000
0000
1000
0100
,
0010
0000
0110
0000
1001
0000
0000
0000
1000
0100
0010
0001
1000
0010
0100
0001
,
2000
0000
0000
0000
,
0020
0000
0000
3000
,
0200
0000
0000
0030
,
0002
0000
0000
0300
,
0013
0100
0010
0100
1000
0100
1000
0100
,
0010
0001
0010
0001
0100
0001
0100
0001
,
1000
0010
1000
0010
0100
0001
0100
0001
1000
0010
0100
0001
0100
0010
1000
0001
,
0010
0000
0000
0000
0110
0000
0000
0000
0100
1000
0001
1000
0010
0100
0001
1000
,
0100
0000
0010
0000
0001
0010
0000
0100
0010
0000
0001
1000
0000
0010
1000
0000
,
0100
0000
0010
0000
0001
0100
0000
0010
0100
0000
0001
1000
0000
0100
1000
0000
,
0010
0000
0100
0000
0001
0010
0000
0100
1000
0001
1000
0010
0000
0100
0001
0000
,
1000
0000
0100
0000
0010
1000
0000
0010
0001
0000
0100
0001
0000
0100
1000
0000
,
0100
0000
0010
0000
1000
0001
0000
0010
0001
0000
0100
0010
0000
1000
0100
0000
,
0010
0000
0001
0000
1000
0010
0000
0100
0001
0000
0010
0001
0000
1000
0010
0000
,
0100
0000
0001
0000
0010
0100
0000
1000
0100
0010
0001
0010
0000
0001
0100
0000
,
0010
0000
1000
0000
0100
0001
0000
0100
1000
0000
0010
1000
0000
0010
0001
0000
,
0110
0000
0100
0000
0001
0010
0000
0100
0010
0000
0001
1000
0000
0010
1000
0000
,
0100
0000
0010
0000
0001
0100
0000
0010
0100
0000
0001
1000
0000
0100
1000
0000
,
0010
0000
0100
0000
0001
0010
0000
0100
1000
0010
1000
0001
0000
0010
0100
0000
,
1000
0000
0010
0000
0100
1000
0000
0100
0001
0000
0010
0001
0000
0010
1000
0000
,
0010
0000
0100
0000
1000
0010
0000
0100
0010
0000
1000
0001
0000
0010
0100
0000
,
0010
0000
0001
0000
0100
0010
0000
1000
0100
0000
0010
0001
0000
0100
0010
0000
,
1000
0000
0001
0000
0010
1000
0000
0010
0001
0000
0100
1000
0000
0100
0001
0000
,
0010
0001
0010
0001
1000
0010
1000
0010
0100
0001
1000
0001
0100
0001
1000
0001
,
0020
0000
0000
0000
,
0200
0030
2000
0300
,
0002
3000
0200
0003
,
0020
0000
0000
0300
,
2000
0000
0000
0030
,
0200
3000
0020
0300
,
0002
0030
0200
0003
,
0020
0000
0000
0000
,
0330
0000
0000
0000
0000
0000
1000
0000
0100
0000
0010
0000
0001
0000
0000
0001
0000
0000
0100
0000
0000
0000
0000
0000
,
0000
0000
0000
0000
0000
0000
0001
0000
0100
0000
0010
0000
1000
0000
0000
1000
0000
0000
0100
0000
0000
0000
0000
0000
,
0000
0000
0000
0000
0000
0000
1000
0000
0001
0000
0010
0000
0100
0000
0000
0100
0000
0000
1000
0000
0000
0000
0000
0000
,
0000
0000
0000
0000
0000
0000
0001
0000
1000
0000
0010
0000
0100
0000
0000
0100
0000
0000
0001
0000
0000
0000
0000
0000
,
0000
0000
0000
0000
0000
0000
0010
0000
0100
0000
1000
0000
0010
0000
0000
0010
0000
0000
0100
0000
0000
0000
0000
0000
,
0000
0000
0000
0000
0000
0000
0010
0000
0100
0000
0001
0000
0010
0000
0000
0010
0000
0000
0100
0000
0000
0000
0000
0000
,
1000
1000
0001
0001
0100
0100
0010
0010
,
1000
0010
0100
0010
1000
0001
0100
0001
1000
0100
1000
0100
0010
0000
0000
0000
,
0001
0100
0010
1000
0010
0100
0001
1000
0100
0010
0001
0000
0100
0010
1000
0000
,
0001
0010
0100
1000
0100
0010
0001
1000
0010
0100
0001
0000
0010
0100
1000
0000
,
0001
0100
0010
1000
0010
0100
0001
1000
0100
0010
0001
0000
0100
0010
1000
0000
,
0001
0010
0100
1000
0100
0010
0001
1000
0010
0000
0010
0100
0001
0000
0000
0000
,
1000
0010
0100
0001
0010
0001
0100
0010
1000
0001
0100
0000
0001
1000
0100
0000
,
0010
0001
0100
0010
1000
0010
0100
0001
0010
0100
1000
0000
0010
0100
0001
0000
,
1000
0100
0010
0001
0100
0001
0010
0100
1000
0001
0010
0000
0001
1000
0010
0000
,
0100
0001
0010
0100
1000
0100
0010
0001
0100
0000
0010
0100
0010
0100
0010
1000
,
0001
0010
0100
1000
0001
0100
0010
1000
0001
1000
0100
0000
0110
0000
0000
0000
,
1000
0010
0100
0001
1000
0100
0010
0001
1000
0001
0100
0000
0110
0000
0000
0000
,
0001
0010
0100
1000
0100
0010
0001
1000
0010
0100
0010
0000
1001
0000
0000
0000
,
1000
0010
0100
0001
0100
0010
1000
0001
0010
0100
0010
0000
1001
0000
0000
0000
,
1000
0010
1000
0001
0010
0001
1000
0100
1000
0001
0100
0000
1010
0000
0000
0000
,
0001
0010
0001
1000
0010
1000
0001
0100
0001
1000
0100
0000
0011
0000
0000
0000
,
1000
0010
0100
0001
1000
0100
0010
0001
0100
0010
0100
0000
1001
0000
0000
0000
,
1100
0000
0000
0000
0101
0000
0000
0000
1000
0010
0100
0010
1000
0001
0100
0001
,
1000
0000
0010
0100
0010
1000
0100
0010
0001
0010
0100
1000
0001
0100
0010
0000
,
1000
0000
0001
0010
0001
1000
0010
1000
0100
1000
0001
0010
0100
0010
0001
0000
,
0100
0000
0010
1000
0001
1000
0010
0100
0001
1000
0100
1000
0001
0010
0001
0000
,
2000
0000
3020
0000
0130
0002
0000
0013
0200
0000
1300
0020
0000
0130
0002
0000
,
0013
0000
0100
1000
0001
0010
0001
1000
0010
0100
0001
1000
0100
1000
0010
0000
,
0100
0000
0001
0010
0100
1000
0010
0100
0001
0010
0100
0010
0001
1000
0010
0000
,
0100
0000
0001
1000
0100
1000
0010
0100
0010
1000
0100
0010
0001
0100
0010
0000
,
1000
0001
0100
0001
1000
0010
0100
0010
1000
0001
0010
0100
1000
0100
0010
0001
,
0200
0000
0000
0000
,
0020
0000
0300
0000
,
2000
0000
0030
0000
,
0002
0000
3000
0000
,
0020
0000
0003
0000
,
0200
0000
0030
0000
,
2000
0000
0300
0000
,
0020
0000
3030
0000
,
1001
0000
0000
0000
;

//--------------- dance-double - forcednature ----------------
#NOTEDATA:;
#STEPSTYPE:dance-double;
#DESCRIPTION:forcednature;
#DIFFICULTY:Easy;
#METER:9;
#RADARVALUES:0,0,0,0,0;
#CREDIT:forcednature;
#NOTES:
00000000
00000000
00000000
00000000
,
00000000
00000000
00000000
00000000
,
00000000
00000000
00000000
00000000
,
00000000
00000000
00000000
00000000
,
00000000
00000000
00000000
00000000
,
00000000
00000000
00000000
00000000
,
00000000
00000000
00000000
00000000
,
00000000
00000000
00000000
00000000
,
00000000
00000000
00000000
00000000
,
00000000
00000000
00000000
00000000
,
00001000
00000000
00000000
01000000
00000000
00000000
00010000
00000000
,
00000000
00100000
00000000
00000000
00001000
00000000
00000000
00000000
,
00010000
00000000
00000000
00000100
00000000
00000000
00001000
00000000
,
00000000
00000010
00000000
00000000
00010000
00000000
00000000
00000000
,
00001000
00000000
00000000
00100000
00000000
00000000
00010000
00000000
,
00000000
01000000
00000000
00000000
00001000
00000000
00000000
00000000
,
00010000
00000000
00000000
00000010
00000000
00000000
00001000
00000000
,
00000000
00000100
00000000
00000000
00010000
00000000
00000000
00000000
,
00001000
01000000
00001000
00000000
,
00100000
00010000
00100000
00000000
,
01000000
10000000
01000000
00000000
,
00010000
00001000
00010000
00000000
,
00000010
00001000
00000100
00000000
,
00000010
00000001
00000100
00000000
,
00000010
00000010
00010000
00010000
,
00001000
00100000
00101000
00000000
,
10010000
00000000
00000000
00000000
,
20000000
00000000
00000000
00000000
,
30020000
00000000
00000000
00000000
,
02030000
00000000
00000000
00000000
,
03002000
00000000
00000000
00000000
,
00023000
00000000
00000000
00000000
,
00030200
00000000
00000300
00000000
,
00000110
00000000
00000010
00000001
,
00000000
00000000
00001000
00000000
00000000
00000100
00000000
00000000
00001000
00000000
00000000
00000100
00000000
00000000
00001000
00000000
,
00000000
00000000
00000010
00000000
00000000
00010000
00000000
00000000
00000010
00000000
00000000
00010000
00000000
00000000
00000010
00000000
,
00000000
00000000
00010000
00000000
00000000
00001000
00000000
00000000
00010000
00000000
00000000
00001000
00000000
00000000
00010000
00000000
,
00000000
00000000
00100000
00000000
00000000
01000000
00000000
00000000
00100000
00000000
00000000
01000000
00000000
00000000
00100000
00000000
,
00000000
00000000
10000000
00000000
00000000
01000000
00000000
00000000
10000000
00000000
00000000
01000000
00000000
00000000
10000000
00000000
,
00000000
00000000
00010000
00000000
00000000
01000000
00000000
00000000
00010000
00000000
00000000
01000000
00000000
00000000
00010000
00000000
,
00000000
00000000
00100000
00000000
00000000
00001000
00000000
00000000
00100000
00000000
00000000
00001000
00000000
00000000
00100000
00000000
,
00000000
00000000
00001000
00000000
00000000
00010000
00000000
00000000
00001000
00000000
00000000
00010000
00000000
00000000
00000100
00000000
,
00000000
00000000
00001000
00000000
00000000
00000100
00000000
00000000
00001000
00000000
00000000
00000100
00000000
00000000
00000010
00000000
,
00000000
00000000
00000001
00000000
00000000
00000100
00000000
00000000
00000001
00000000
00000000
00000100
00000000
00000000
00000010
00000000
,
00000000
00000000
00010000
00000000
00000000
00001000
00000000
00000000
00010000
00000000
00000000
00001000
00000000
00000000
01000000
00000000
,
00000000
00000000
00010000
00000000
00000000
10000000
00000000
00000000
00010000
00000000
00000000
10000000
00000000
00000000
01000000
00000000
,
00000000
00000000
00100000
00000000
00000000
00010000
00000000
00000000
00100000
00000000
00000000
00010000
00000000
00000000
01000000
00000000
,
00000000
00000000
00001000
00000000
00000000
00010000
00000000
00000000
00001000
00000000
00000000
00010000
00000000
00000000
00000100
00000000
,
00000000
00000000
00001000
00000000
00000000
00000010
00000000
00000000
00001000
00000000
00000000
00000010
00000000
00000000
00000100
00000000
,
00000000
00000000
00000001
00000000
00000000
00000010
00000000
00000000
00000100
00000000
00000000
00010000
00000000
00000000
00001000
00000000
,
00000000
00000000
00000000
00000000
,
02000000
00000000
03020000
00000000
,
20030000
00000000
32000000
00000000
,
03200000
00000000
00000000
00000000
,
00302000
00000000
00000000
00000000
,
00023000
00000000
00030020
00000000
,
00002030
00000000
00003002
00000000
,
00000023
00000000
00000000
00000000
,
00000030
00000100
00010000
00001000
,
00000000
00100000
00001000
00010000
,
00000000
00000010
00010000
00001000
,
00000000
01000000
00001000
00010000
,
00000000
00100000
00010000
00001000
,
00000000
00000010
00001000
00010000
,
00000000
01000000
00010000
00001000
,
00000000
00000100
00001000
00010000
,
00001000
01000000
00010000
00010000
,
00000000
00100000
01000000
01000000
,
00000000
10000000
00010000
00010000
,
00000000
01000000
00001000
00010000
,
00000000
00000100
00001000
00001000
,
00000000
00000001
00000100
00000100
,
00000000
00000010
00010000
00010000
,
00000000
00001000
00100000
01000000
,
00000000
00100000
00001000
00101000
,
00000000
00000010
00010000
00010010
,
00000000
01000000
00001000
01001000
,
00000000
00000100
00010000
00010100
,
00000000
01000000
00001000
00011000
,
00000000
00000100
00010000
00011000
,
00000000
00100000
00001000
00011000
,
00000000
00000010
00010000
00011000
,
00000000
00000000
00000100
00000000
00000000
00001000
00000000
00000000
00000100
00000000
00000000
00000010
00000000
00000000
00000001
00000000
,
00000000
00000000
00001000
00000000
00000000
00000010
00000000
00000000
00010000
00000000
00000000
00001000
00000000
00000000
00100000
00000000
,
00000000
00000000
00010000
00000000
00000000
01000000
00000000
00000000
00010000
00000000
00000000
10000000
00000000
00000000
00100000
00000000
,
00000000
00000000
10000000
00000000
00000000
01000000
00000000
00000000
00010000
00000000
00000000
00001000
00000000
00000000
00010000
00000000
,
00000000
00000000
00000100
00000000
00000000
00001000
00000000
00000000
00000010
00000000
00000000
00001000
00000000
00000000
00000001
00000000
,
00000000
00000000
00000010
00000000
00000000
00000100
00000000
00000000
00010000
00000000
00000000
00001000
00000000
00000000
00100000
00000000
,
00000000
00000000
01000000
00000000
00000000
10000000
00000000
00000000
00010000
00000000
00000000
10000000
00000000
00000000
00100000
00000000
,
00000000
00000000
01000000
00000000
00000000
00001000
00000000
00000000
00010000
00000000
00000000
00000010
00000000
00000000
00001000
00000000
,
00000002
00000000
00000000
00000000
,
00000023
00000000
00000000
00000000
,
00000230
00000000
00000000
00000000
,
00020300
00000000
00000000
00000000
,
00032000
00000000
00000000
00000000
,
02003000
00000000
00000000
00000000
,
03020000
00000000
00000000
00000000
,
20030000
00000000
00000000
30000000
,
10010000
00000000
00000000
00000000
;

//--------------- dance-double - forcednature ----------------
#NOTEDATA:;
#STEPSTYPE:dance-double;
#DESCRIPTION:forcednature;
#DIFFICULTY:Medium;
#METER:12;
#RADARVALUES:0,0,0,0,0;
#CREDIT:forcednature;
#NOTES:
00000000
00000000
00000000
00000000
,
00000000
00000000
00000000
00000000
,
00000000
00000000
00000000
00000000
,
00000000
00000000
00000000
00000000
,
00000000
00000000
00000000
00000000
,
00000000
00000000
00000000
00000000
,
00000000
00000000
00000000
00000000
,
00000000
00000000
00000000
00000000
,
00000000
00000000
00000000
00000000
,
00000000
00000000
00000000
00000000
,
00002000
00000000
00000000
00023000
00000000
00000000
00230000
00000000
,
00000000
20300000
00000000
00000000
31000000
00000000
00010000
00000000
,
00002000
00000000
00000000
00003020
00000000
00000000
00000032
00000000
,
00000000
00000203
00000000
00000000
00001300
00000000
00010000
00000000
,
02000000
00000000
00000000
23000000
00000000
00000000
30200000
00000000
,
00000000
00320000
00000000
00000000
00031000
00000000
00000010
00000000
,
00000002
00000000
00000000
00000203
00000000
00000000
00002300
00000000
,
00000000
00023000
00000000
00000000
01030000
00000000
00100000
00000000
,
00110000
00010000
01000000
01000000
,
00001000
00001000
00010000
00010000
,
00000100
00000100
00001000
00001000
,
00000001
00000001
00000100
00000100
,
00001010
00001000
00000100
00000100
,
00010000
00010000
00001000
00001000
,
01000000
01000000
00010000
00010000
,
00110000
00000000
11000000
00000000
10000000
00010000
01000000
00001000
,
00020000
00000000
00000000
00000000
,
00030200
00000000
00000000
00000000
,
00002300
00000000
00000000
00000000
,
00003002
00000000
00000000
00000000
,
00000203
00000000
00000000
00000000
,
00000320
00000000
00000000
00000000
,
00010030
00001000
00010000
00001000
00100000
00010000
00100000
00010000
,
01000000
00000000
01100000
00000000
00100000
10000000
00010000
10000000
,
01000000
00000000
00010000
00000000
00000000
00001000
00000000
00000000
00010000
00000000
00000000
00000010
00000000
00000000
00001000
00000000
,
00000000
00000000
00000100
00000000
00000000
00000010
00000000
00000000
00000001
00000000
00000000
00000100
00000000
00000000
00001000
00000000
,
00000000
00000000
00010000
00000000
00000000
00100000
00000000
00000000
01000000
00000000
00000000
00100000
00000000
00000000
10000000
00000000
,
00000000
00000000
01000000
00000000
00000000
00010000
00000000
00000000
00001000
00000000
00000000
00000100
00000000
00000000
00000110
00000000
,
00000000
00000000
00000010
00000000
00000000
00010000
00000000
00000000
00001000
00000000
00000000
00000010
00000000
00000000
00000100
00000000
,
00000000
00000000
00001000
00000000
00000000
00000001
00000000
00000000
00000100
00000000
00000000
00000001
00000000
00000000
00000010
00000000
,
00000000
00000000
00001000
00000000
00000000
00010000
00000000
00000000
00100000
00000000
00000000
01000000
00000000
00000000
00100000
00000000
,
00000000
00000000
10000000
00000000
00000000
01000000
00000000
00000000
00010000
00000000
00000000
00001000
00000000
00000000
00011000
00000000
,
00000000
00000000
00010000
00000000
00000000
00000100
00000000
00000000
00001000
00000000
00000000
00000010
00000000
00000000
00000100
00000000
,
00000000
00000000
00001000
00000000
00000000
00000100
00000000
00000000
00000001
00000000
00000000
00000010
00000000
00000000
00000001
00000000
,
00000000
00000000
00001000
00000000
00000000
00000010
00000000
00000000
00010000
00000000
00000000
00001000
00000000
00000000
01000000
00000000
,
00000000
00000000
00010000
00000000
00000000
00100000
00000000
00000000
10000000
00000000
00000000
00100000
00000000
00000000
01100000
00000000
,
00000000
00000000
00100000
00000000
00000000
00001000
00000000
00000000
00010000
00000000
00000000
00000010
00000000
00000000
00001000
00000000
,
00000000
00000000
00000100
00000000
00000000
00000001
00000000
00000000
00000100
00000000
00000000
00010000
00000000
00000000
00001000
00000000
,
00000000
00000000
01000000
00000000
00000000
00010000
00000000
00000000
10000000
00000000
00000000
00100000
00000000
00000000
01000000
00000000
,
00001000
00000000
00001000
00010000
00000100
00001000
00000100
00000010
,
00000002
00000000
00000000
00000000
,
00000203
00000000
00002300
00000000
,
00023000
00000000
00230000
00000000
,
20300000
00000000
00000000
00000000
,
32000000
00000000
00000000
00000000
,
03200000
00000000
00302000
00000000
,
00023000
00000000
00030020
00000000
,
00002030
00000000
00000000
00000000
,
00003100
00000000
00010000
00000000
00001000
01000000
00010000
00000000
,
00100000
00000000
01000000
00000000
10000000
00010000
01000000
00000000
,
00001000
00000000
00010000
00000000
00000100
00001000
00000001
00000000
,
00000100
00000000
00000010
00000000
00010000
00001000
00100000
00000000
,
01000000
00000000
00100000
00000000
00001000
00010000
00100000
00000000
,
10000000
00000000
01000000
00000000
00010000
00001000
00000010
00000000
,
00000100
00000000
00010000
00000000
00001000
00000100
00000001
00000000
,
00000010
00000100
00000010
00000100
00010000
00001000
00010000
00000000
,
00100000
01000000
00010000
00000000
10000000
10000000
01000000
01000000
,
00000000
00100000
00001000
00000000
00010000
00010000
00000010
00000010
,
00000000
00000100
00001000
00000000
00000100
00000100
00000001
00000001
,
00000000
00000010
00000100
00000000
00010000
00001000
00100000
00001000
,
00000000
00010000
00100000
00000000
10000000
10000000
00010000
00010000
,
00000000
00100000
01000000
00000000
00100000
00100000
00001000
00001000
,
00000000
00010000
00000010
00000000
00000100
00000100
00001000
00001000
,
00000000
00000100
00000001
00000000
00000010
00000100
00001000
00000100
,
00010000
00000000
00000000
00010000
00001000
00000000
00000000
00001000
01000000
00000000
00000000
01000000
00010000
00000000
00000000
00000000
,
00100000
00000000
00000000
00100000
01000000
00000000
00000000
01000000
10000000
00000000
00000000
10000000
00010000
00000000
00000000
00000000
,
01000000
00000000
00000000
01000000
00001000
00000000
00000000
00001000
00010000
00000000
00000000
00010000
00000100
00000000
00000000
00000000
,
00001000
00000000
00000000
00001000
00000001
00000000
00000000
00000001
00000100
00000000
00000000
00000100
00000010
00000000
00000000
00000000
,
00001000
00000000
00000000
00001000
00000100
00000000
00000000
00000100
00010000
00000000
00000000
00010000
00001000
00000000
00000000
00000000
,
01000000
00000000
00000000
01000000
00010000
00000000
00000000
00010000
00100000
00000000
00000000
00100000
01000000
00000000
00000000
00000000
,
10000000
00100000
01000000
00100000
00010000
00001000
00010000
00000100
,
00000010
00000000
00000110
00000000
00000100
00001000
00000010
00001000
,
00000001
00000000
00000010
00000000
00000000
00000100
00000000
00000000
00010000
00000000
00000000
00001000
00000000
00000000
00011000
00000000
,
00000000
00000000
01000000
00000000
00000000
00010000
00000000
00000000
00100000
00000000
00000000
01000000
00000000
00000000
11000000
00000000
,
00000000
00000000
10000000
00000000
00000000
00100000
00000000
00000000
00010000
00000000
00000000
00001000
00000000
00000000
00011000
00000000
,
00000000
00000000
00000200
00000000
00000000
00001000
00000000
00000000
00000010
00000000
00000000
00000301
00000000
00000000
00000100
00000000
,
00000000
00000000
00010000
00000000
00000000
00001000
00000000
00000000
01001000
00000000
00000000
00010000
00000000
00000000
00110000
00000000
,
00000000
00000000
10000000
00000000
00000000
00010000
00000000
00000000
01010000
00000000
00000000
00001000
00000000
00000000
00011000
00000000
,
00000000
00000000
00010000
00000000
00000000
00000100
00000000
00000000
00001100
00000000
00000000
00001000
00000000
00000000
00000010
00000000
,
00000100
00000000
00001001
00000000
00000001
00000100
00001000
00010000
,
00200000
00000000
00000000
00000000
,
20300000
00000000
00000000
00000000
,
32000000
00000000
00000000
00000000
,
03020000
00000000
00000000
00000000
,
00032000
00000000
00000000
00000000
,
00003020
00000000
00000000
00000000
,
00000032
00000000
00000000
00000000
,
00000203
00000000
00000000
00000300
,
00011000
00000000
00000000
00000000
;

//--------------- dance-double - forcednature ----------------
#NOTEDATA:;
#STEPSTYPE:dance-double;
#DESCRIPTION:forcednature;
#DIFFICULTY:Hard;
#METER:16;
#RADARVALUES:0,0,0,0,0;
#CREDIT:forcednature;
#NOTES:
00000000
00000000
00000000
00000000
,
00000000
00000000
00000000
00000000
,
00000000
00000000
00000000
00000000
,
00000000
00000000
00000000
00000000
,
00000000
00000000
00000000
00000000
,
00000000
00000000
00000000
00000000
,
00000000
00000000
00000000
00000000
,
00000000
00000000
00000000
00000000
,
00000000
00000000
00000000
00000000
,
00000000
00000000
00000000
00000000
,
00010000
00001000
00000000
00001000
00000010
00000000
00000010
00000001
,
00000000
00000001
00000100
00000000
00001000
00000000
00010000
00000000
,
00001000
00010000
00000000
00010000
00100000
00000000
00100000
10000000
,
00000000
10000000
01000000
00000000
00010000
00000000
00001000
00000000
,
00001000
00000100
00000000
00000100
00000001
00000000
00000001
00000010
,
00000000
00000010
00001000
00000000
00010000
00000000
00001000
00000000
,
00010000
00100000
00000000
00100000
10000000
00000000
10000000
01000000
,
00000000
01000000
00010000
00000000
00001000
00000000
00010000
00000000
,
00010100
00000100
00001000
00001000
,
00000010
00000010
00010000
00010000
,
00001000
00001000
00100000
00100000
,
00010000
00010000
01000000
01000000
,
01001000
00001000
00010000
00010000
,
00000100
00000100
00001000
00001000
,
00000001
00000001
00000100
00000100
,
00001000
00000000
00010000
00000000
00001000
00000000
00000000
00000000
01000000
00010000
01000000
00010000
10000000
01000000
10000000
01000000
,
00200000
00000000
00000000
00000000
,
00302000
00000000
00000000
00000000
,
00023000
00000000
00000000
00000000
,
00030020
00000000
00000000
00000000
,
00002030
00000000
00000000
00000000
,
00003200
00000010
00000010
00000310
,
00000001
00001000
00000100
00010000
00001000
01000000
00010000
10000000
,
10010000
00000000
00000000
00000000
10000000
00000000
00100000
00000000
01000000
00010000
01000000
00001000
00010000
00000100
00001000
00000100
,
00000010
00000000
00000001
00000000
00001000
00000010
00000000
00000000
00001000
00000100
00000000
00010000
00001000
00000000
01000000
00000000
,
00010000
00000000
00100000
00000000
01000000
10000000
00000000
00000000
01000000
00100000
00000000
00010000
01000000
00000000
00001000
00000000
,
00010000
00000000
00000100
00000000
00001000
00000010
00000000
00000000
00000100
00000001
00000000
00000010
00000100
00000000
00000010
00000000
,
00000001
00000000
00000100
00000000
00001000
00010000
00000000
00010000
00000100
00000000
00000100
00001000
00000000
00000010
00010000
00000000
,
00001000
00000000
00100000
00000000
00010000
01000000
00000000
00000000
00100000
10000000
00000000
01000000
00100000
00000000
00010000
00000000
,
01000000
00000000
00001000
00000000
00010000
00000100
00000000
00000000
00001000
00000010
00000000
00000100
00000010
00000000
00001000
00000000
,
00000001
00000000
00000010
00000000
00000100
00000010
00000000
00000000
00000001
00000100
00000000
00000001
00001000
00000000
00000100
00000000
,
00010000
00000000
00001000
00000000
01000000
00010000
00000000
00010000
00100000
00000000
00100000
01000000
00000000
10000000
00100000
00000000
,
01000000
00000000
00001000
00000000
00010000
00000010
00000000
00000000
00001000
00000100
00000000
00000010
00000100
00000000
00001000
00000000
,
00000001
00000000
00000100
00000000
00000010
00010000
00000000
00000000
00001000
00100000
00000000
01000000
00100000
00000000
00010000
00000000
,
10000000
00000000
00100000
00000000
01000000
00010000
00000000
00000000
00100000
00001000
00000000
00010000
00001000
00000000
00000100
00000000
,
00000010
00000000
00001000
00000000
00000001
00000010
00000000
00000010
00000100
00000000
00000100
00010000
00000000
00001000
00100000
00000000
,
01000000
00000000
00100000
00000000
00010000
01000000
00000000
00000000
00100000
10000000
00000000
00010000
01000000
00000000
00100000
00000000
,
01000000
00000000
00001000
00000000
00010000
00000010
00000000
00000000
00001000
00000100
00000000
00000010
00000100
00000000
00001000
00000000
,
00000001
00000000
00000100
00000000
00000010
00010000
00000000
00000000
00001000
01000000
00000000
00100000
01000000
00000000
00010000
00000000
,
10000000
00000000
10000000
00000000
01000000
00000000
01000000
00000000
00100000
00010000
00100000
00010000
01000000
00001000
01000000
00001000
,
00020000
00000000
00000000
00000000
,
00030200
00000000
00002300
00000000
,
00003002
00000000
00000203
00000000
,
00000320
00000000
00000000
00000030
,
00020200
00000000
00000000
00030300
,
01002000
00000000
00200000
00303000
,
00020200
00000300
00000020
00030030
,
00022000
00000000
00000000
00033000
,
01000000
00000000
00000000
00000000
00000000
00000000
00010000
00000000
10000000
00000000
00010000
00000000
00100000
00000000
00000000
01000000
00000000
00000000
00100000
00000000
00000000
00000000
00000000
00000000
,
00001000
00000000
00000000
00000000
00000000
00000000
00010000
00000000
00000010
00000000
00001000
00000000
00000010
00000000
00000000
00000100
00000000
00000000
00000001
00000000
00000000
00000000
00000000
00000000
,
00000010
00000000
00000000
00000000
00000000
00000000
00000100
00000000
00010000
00000000
00001000
00000000
00010000
00000000
00000000
01000000
00000000
00000000
00100000
00000000
00000000
00000000
00000000
00000000
,
00001000
00000000
00000000
00000000
00000000
00000000
00010000
00000000
00100000
00000000
01000000
00000000
00100000
00000000
00000000
10000000
00000000
00000000
00010000
00000000
00000000
00000000
00000000
00000000
,
00100000
00000000
00000000
00000000
00000000
00000000
01000000
00000000
00100000
00000000
00001000
00000000
00010000
00000000
00000000
00000100
00000000
00000000
00000010
00000000
00000000
00000000
00000000
00000000
,
00000001
00000000
00000000
00000000
00000000
00000000
00000100
00000000
00001000
00000000
00000100
00000000
00000010
00000000
00000000
00010000
00000000
00000000
00001000
00000000
00000000
00000000
00000000
00000000
,
00100000
01000000
10000000
00100000
01000000
00001000
00010000
00000100
,
00000020
00001000
00000100
00000031
,
00000010
00000000
00000000
00000010
00000100
00000000
00010000
00000000
00001000
01000000
00001000
00000000
01000000
00010000
01000000
00000000
,
00100000
00000000
00000000
00100000
10000000
00000000
00010000
00000000
00100000
01000000
00100000
00000000
00010000
00100000
00010000
00000000
,
01000000
00000000
00000000
01000000
00001000
00000000
00010000
00000000
00000100
00001000
00000100
00000000
00000010
00000100
00000010
00000000
,
00000001
00000000
00000000
00000001
00000100
00000000
00000010
00000000
00010000
00001000
00010000
00000000
00001000
01000000
00001000
00000000
,
00100000
00000000
00000000
00100000
00010000
00000000
10000000
00000000
00100000
01000000
00100000
00000000
01000000
00010000
01000000
00000000
,
00001000
00000000
00000000
00001000
00010000
00000000
00000100
00000000
00001000
00000001
00001000
00000000
00000001
00000100
00000001
00000000
,
00000010
00000000
00000000
00000010
00000100
00000000
00010000
00000000
00001000
00100000
00001000
00000000
00100000
00010000
00100000
00000000
,
01000000
00000000
00000000
01000000
10000000
00000000
00010000
00000000
01000000
00000000
01000000
00000000
00001000
00010000
00001000
00010000
,
00000100
00001000
00000010
00000100
00001000
00010000
01000000
00100000
,
00001000
00010000
00100000
10000000
01000000
00100000
00001000
01000000
,
00100000
00010000
00001000
00000010
00000100
00010000
00000010
00001000
,
00000100
00000010
00000001
00000100
00001000
00010000
01000000
10000000
,
00100000
01000000
10000000
01000000
00010000
00100000
01000000
00010000
,
00001000
00000100
00000010
00010000
00001000
00000010
00000001
00000100
,
00000010
00001000
00010000
01000000
00010000
00100000
01000000
10000000
,
10100000
00000000
00000000
00000000
11000000
00000000
00000000
00000000
00010000
00100000
00001000
00010000
00000010
00001000
00000010
00000100
,
00000001
00000000
00000010
00000000
00000100
00000010
00000000
00000001
00000100
00000000
00000010
00001000
00000000
00000010
00010000
00000000
,
00001000
00000000
00100000
00000000
01000000
00100000
00000000
00010000
01000000
00010000
01000000
00010000
00000000
10000000
00100000
00000000
,
10000000
00000000
01000000
00000000
00100000
00010000
00000000
01000000
00001000
00000000
00010000
00000100
00000000
00001000
00000010
00000000
,
00000100
00000000
00001000
00000000
00000100
00000001
00000000
00000001
00000010
00000000
00000010
00000100
00000000
00000100
00010000
00000000
,
00001000
00000000
01000000
00000000
00100000
10000000
00000000
01000000
00100000
00000000
00010000
01000000
00000000
00001000
00010000
00000000
,
00000100
00000000
00000010
00000000
00001000
00000010
00000000
00000001
00000010
00000001
00000010
00000001
00000000
00001000
00000010
00000000
,
00010000
00000000
00001000
00000000
00100000
01000000
00000000
10000000
00100000
00000000
01000000
00001000
00000000
00010000
00000010
00000000
,
00000110
00000000
00000000
00000000
00001001
00000000
00000000
00000000
00001000
00000100
00010000
00001000
00100000
00010000
10000000
00010000
,
02000000
00000000
00000000
00000000
,
00002000
00000000
03000000
00000000
,
00020000
00000000
00003000
00000000
,
00000200
00000000
00030000
00000000
,
00002000
00000000
00000300
00000000
,
00000002
00000000
00003000
00000000
,
00000200
00000000
00000003
00000000
,
00002000
00000000
00003300
00000000
,
00011000
00000000
00000000
00000000
;

//--------------- dance-double - forcednature ----------------
#NOTEDATA:;
#STEPSTYPE:dance-double;
#DESCRIPTION:forcednature;
#DIFFICULTY:Challenge;
#METER:17;
#RADARVALUES:0,0,0,0,0;
#CREDIT:forcednature;
#NOTES:
00000000
00000000
00000000
00000000
,
00000000
00000000
00000000
00000000
,
00000000
00000000
00000000
00000000
,
00000000
00000000
00000000
00000000
,
00000000
00000000
00000000
00000000
,
00000000
00000000
00000000
00000000
,
00000000
00000000
00000000
00000000
,
00000000
00000000
00000000
00000000
,
00000000
00000000
00000000
00000000
,
00000000
00000000
00000000
00000000
,
00001000
00010000
00001000
00010000
00100000
00010000
00100000
10000000
,
00100000
10000000
01000000
10000000
01000000
00010000
00001000
00000010
,
00000001
00000010
00000001
00000100
00000001
00000100
00001000
00000100
,
00001000
00010000
00001000
00010000
00100000
10000000
00010000
01000000
,
00001000
00010000
00001000
00010000
00100000
00010000
00100000
10000000
,
00100000
10000000
01000000
10000000
01000000
00010000
00001000
00000100
,
00000010
00001000
00000010
00001000
00000100
00001000
00000100
00010000
,
00000100
00010000
00001000
00010000
00001000
00100000
00010000
10000000
,
00100000
01000000
00010000
01000000
00100000
10000000
01000000
00010000
,
00001000
00100000
00001000
00010000
00001000
00000010
00000001
00000100
,
00000001
00000010
00000100
00010000
00000100
00000010
00000001
00000100
,
00000010
00010000
00000010
00000100
00001000
00010000
00100000
01000000
,
00010000
10000000
00100000
10000000
00010000
00100000
01000000
00010000
,
00001000
00100000
00001000
00010000
00000010
00000100
00001000
00010000
,
00100000
01000000
00010000
00100000
00001000
00010000
00000010
00000000
,
00000110
00000000
00000100
00000000
00001001
00000000
00000000
00000000
00001000
00000100
00001000
00000100
00010000
00001000
00010000
00001000
,
00200000
00000000
00000000
00000000
,
02300000
00000000
00000000
00000000
,
23000000
00000000
00000000
00000000
,
30200000
00000000
00000000
00000000
,
00320000
00000000
00000000
00000000
,
00032000
00000000
00000000
00000000
,
00013000
00001000
00010000
00000100
00001000
00000100
00010000
00001000
00010000
00000010
00001000
00000001
00000100
00000001
00001000
00000010
,
00010000
00000000
00000000
00000000
00011000
00000000
00000000
00000000
00001000
00100000
00010000
00100000
01000000
10000000
00010000
10000000
,
00100000
00000000
01000000
00000000
00010000
00100000
00000000
01000000
00100000
00000000
00010000
00100000
00000000
00001000
00010000
00000000
,
00000010
00000000
00001000
00000000
00000001
00000010
00000000
00000100
00000010
00000000
00000100
00010000
00000000
00001000
00010000
00000000
,
00001000
00000000
01000000
00000000
00010000
00100000
00000000
01000000
00100000
01000000
10000000
00010000
00000000
01000000
00010000
00000000
,
00100000
00000000
00001000
00000000
00010000
00100000
00000000
00010000
00001000
00000000
00010000
00000010
00000000
00001000
00000100
00000000
,
00000010
00000000
00000001
00000000
00000100
00000001
00000000
00001000
00000010
00000000
00001000
00000100
00000000
00010000
00001000
00000000
,
01000000
00000000
00010000
00000000
00100000
01000000
00000000
10000000
00100000
00000000
10000000
01000000
00000000
00100000
00010000
00000000
,
00100000
00000000
00001000
00000000
00010000
00000010
00000000
00001000
00000010
00000100
00000001
00000100
00000000
00000001
00000010
00000000
,
00000001
00000000
00000100
00000000
00001000
00010000
00000000
00001000
00100000
00000000
00010000
01000000
00000000
10000000
01000000
00000000
,
00100000
00000000
10000000
00000000
00010000
00100000
00000000
01000000
00100000
00000000
00010000
00100000
00000000
00001000
00010000
00000000
,
00000010
00000000
00001000
00000000
00000001
00000010
00000000
00000100
00000010
00000000
00000100
00010000
00000000
00001000
00010000
00000000
,
01000000
00000000
00100000
00000000
00010000
10000000
00000000
01000000
10000000
00010000
00100000
00010000
00000000
00100000
00001000
00000000
,
00010000
00000000
00000010
00000000
00000100
00001000
00000000
00000100
00000001
00000000
00000010
00000001
00000000
00001000
00000010
00000000
,
00001000
00000000
00000100
00000000
00010000
00001000
00000000
01000000
00010000
00000000
00100000
00010000
00000000
10000000
00100000
00000000
,
10000000
00000000
01000000
00000000
00100000
01000000
00000000
00100000
00001000
00000000
00010000
00000100
00000000
00000010
00000100
00000000
,
00001000
00000000
00000001
00000000
00000100
00000010
00000000
00001000
00000010
00000000
00010000
00001000
00000000
01000000
00010000
00000000
,
00100000
00010000
00100000
00000000
01000000
10000000
01000000
00000000
00100000
00001000
00010000
00001000
01000000
00010000
01000000
00001000
,
00020000
00000000
00000000
00000000
,
00030020
00000000
00002000
00000030
,
00000002
00003000
00000020
00000003
,
00002000
00000000
00000000
00000030
,
00020000
00000000
00000000
00003000
,
02000000
00030000
20000000
03000000
,
00200000
30000000
00020000
00300000
,
00002000
00000000
00000000
00000000
,
00033000
00000000
00000000
00000000
00000000
00000000
01000000
00000000
00010000
00000000
00100000
00000000
01000000
00000000
00000000
00010000
00000000
00000000
00001000
00000000
00000000
00000000
00000000
00000000
,
00000000
00000000
00000000
00000000
00000000
00000000
00010000
00000000
00000010
00000000
00001000
00000000
00000001
00000000
00000000
00000100
00000000
00000000
00001000
00000000
00000000
00000000
00000000
00000000
,
00000000
00000000
00000000
00000000
00000000
00000000
00010000
00000000
00100000
00000000
01000000
00000000
00100000
00000000
00000000
10000000
00000000
00000000
00010000
00000000
00000000
00000000
00000000
00000000
,
00000000
00000000
00000000
00000000
00000000
00000000
10000000
00000000
01000000
00000000
00010000
00000000
00001000
00000000
00000000
00010000
00000000
00000000
00010000
00000000
00000000
00000000
00000000
00000000
,
00000000
00000000
00000000
00000000
00000000
00000000
00000100
00000000
00001000
00000000
00000010
00000000
00000100
00000000
00000000
00001000
00000000
00000000
00010000
00000000
00000000
00000000
00000000
00000000
,
00000000
00000000
00000000
00000000
00000000
00000000
00001000
00000000
00100000
00000000
00010000
00000000
10000000
00000000
00000000
01000000
00000000
00000000
00010000
00000000
00000000
00000000
00000000
00000000
,
00001000
00010000
00000100
00010000
00001000
00010000
00000010
00010000
,
00001000
01000000
00010000
01000000
00100000
01000000
00010000
01000000
00001000
00010000
00001000
00010000
00001000
00000000
00000000
00000000
,
00010000
00000100
00001000
00000100
00010000
00001000
00010000
00000000
00001000
00100000
00010000
00000000
00100000
01000000
10000000
00000000
,
00010000
01000000
00001000
00010000
00001000
00100000
00010000
00000000
00100000
00001000
00010000
00000000
00001000
00010000
00000100
00000000
,
00001000
00000001
00000100
00000010
00000100
00000001
00001000
00000000
00000010
00010000
00001000
00000000
00010000
00001000
01000000
00000000
,
00010000
00100000
01000000
10000000
01000000
00100000
00010000
00000000
00100000
00000000
00001000
00010000
00000010
00000000
00000000
00000000
,
00001000
00000001
00000010
00000100
00000010
00000001
00001000
00000000
00000100
00010000
00001000
00000000
00010000
00000010
00001000
00000000
,
00000001
00000010
00000001
00001000
00000100
00001000
00000010
00000000
00010000
00001000
01000000
00000000
00010000
00100000
00001000
00000000
,
00010000
00001000
01000000
00010000
01000000
00100000
10000000
00000000
00010000
00100000
01000000
00000000
00100000
00001000
00010000
00000000
,
00000010
00001000
00000001
00000100
00000001
00001000
00000010
00000000
00010000
00000000
00001000
00010000
00001000
00010000
00001000
00000000
,
00010000
00001000
01000000
00010000
01000000
00001000
00010000
00000000
00000100
00001000
00000100
00000000
00000110
00000000
00000000
00000000
,
00000010
00000001
00001000
00000100
00001000
00000001
00000100
00000000
00001000
00010000
00001000
00000000
00011000
00000000
00000000
00000000
,
01000000
00010000
10000000
01000000
10000000
00010000
00100000
00000000
00001000
00010000
00000100
00000000
00001100
00000000
00000000
00000000
,
00001000
00000010
00010000
00001000
00010000
00000100
00001000
00000000
00000001
00000100
00000010
00000000
00000110
00000000
00000000
00000000
,
00001000
00000010
00010000
00001000
01000000
00010000
01000000
00000000
00100000
10000000
00010000
00000000
00110000
00000000
00000000
00000000
,
00100000
01000000
10000000
01000000
00100000
00001000
00010000
00000000
00000100
00001000
00000010
00000000
00001010
00000000
00000000
00000000
,
00000001
00000100
00000001
00001000
00000010
00000100
00000010
00000000
00000100
00001000
00010000
00000000
00011000
00000000
00000000
00000000
,
01010000
00000000
00000000
00000000
00110000
00000000
00000000
00000000
00100000
01000000
10000000
01000000
00100000
00010000
10000000
00010000
,
01000000
00000000
00001000
00000000
00010000
00000010
00001000
00000010
00010000
00001000
00010000
00000100
00001000
00000100
00000010
00000000
,
00000001
00000000
00000100
00000000
00000010
00001000
00000010
00010000
00001000
00010000
00000100
00001000
00000100
00010000
00001000
00000000
,
00100000
00000000
00010000
00000000
10000000
00100000
01000000
00010000
01000000
00001000
00010000
00001000
00100000
00010000
00100000
00000000
,
02000000
00000000
03020000
00000000
00031000
00200000
00000000
00301000
00020000
00000000
00030010
00002000
00000000
00003100
00000020
00000000
,
00000031
00000000
00000100
00000000
00001000
00010000
00000010
00001000
00000010
00010000
00001000
01000000
00010000
00100000
01000000
00000000
,
00100000
00000000
00001000
00000000
00010000
00000100
00001000
00000001
00001000
00000010
00000100
00000001
00000100
00001000
00010000
00000000
,
00001000
00000000
01000000
00000000
00010000
00100000
01000000
00100000
00010000
01000000
00001000
00010000
00001000
00100000
00010000
00000000
,
01000000
00010000
01000000
00001000
00010000
00001000
00100000
00010000
00100000
00001000
00010000
00000100
00001000
00000100
00000010
00000001
,
00000200
00000000
00000000
00000000
,
00002300
00000000
00000000
00000000
,
00023000
00000000
00000000
00000000
,
00230000
00000000
00000000
00000000
,
20300000
00000000
00000000
00000000
,
32000000
00000000
00000000
00000000
,
03020000
00000000
00000000
00000000
,
00032000
00000000
00003000
00000000
,
00011000
00000000
00000000
00000000
;
