#VERSION:0.83;
#TITLE:The Sealer ~ア・ミリアとミリアの民~;
#SUBTITLE:;
#ARTIST:Zektbach;
#TITLETRANSLIT:The Sealer ~A Milia to Milia no tami~;
#SUBTITLETRANSLIT:;
#ARTISTTRANSLIT:;
#GENRE:ELEMENTAL JIG;
#CREDIT:;
#MUSIC:The Sealer ~A Milia to Milia no tami~.ogg;
#BANNER:The Sealer ~A Milia to Milia no tami~.png;
#BACKGROUND:The Sealer ~A Milia to Milia no tami~-bg.png;
#CDTITLE:./CDTitles/pnm 20 fantasia.png;
#SAMPLESTART:76.429;
#SAMPLELENGTH:15.000;
#SELECTABLE:YES;
#OFFSET:1.647;
#BPMS:0.000=137.000
,32.000=205.000
;
#STOPS:;
#BGCHANGES:0.000=../BGAs/14tr.mp4=1.000=0=0=0=StretchNoLoop====,
99999.000=-nosongbg-=1.000=0=0=0=StretchNoLoop====
;
#FGCHANGES:;

//--------------- dance-single - forcednature ----------------
#NOTEDATA:;
#STEPSTYPE:dance-single;
#DESCRIPTION:forcednature;
#DIFFICULTY:Beginner;
#METER:1;
#RADARVALUES:0,0,0,0,0;
#CREDIT:forcednature;
#NOTES:
0000
0000
0000
0000
,
0000
0000
0000
0000
,
0000
0000
0000
0000
,
0000
0000
0000
0000
,
0000
0000
0000
0000
,
0010
0000
0000
0000
,
0000
0000
0100
0000
,
0000
0000
0000
0000
,
1001
0000
0000
0000
,
0000
0000
0000
0000
,
0000
1000
0000
0000
,
0000
0000
0000
0001
,
0000
0000
0000
0000
,
0000
0000
0000
0000
,
0000
0000
0000
0100
,
0000
0000
0000
0000
,
0000
0000
0000
0000
,
0000
0000
0000
0010
,
0000
0000
0000
0000
,
0000
0010
0000
0000
,
0000
0000
0000
1000
,
0000
0000
0000
0000
,
0000
0000
0000
0000
,
0000
0000
0000
0001
,
0000
0000
0000
0000
,
0000
1000
0000
0000
,
0000
0000
0000
0100
,
0000
0000
0000
0000
,
0000
0000
0000
0000
,
0000
0000
0000
0010
,
0000
0000
0000
0000
,
0000
0000
0000
0000
,
0000
0000
0000
0001
,
0000
0000
0000
0000
,
0000
0000
0000
0000
,
0000
0000
0000
1000
,
0000
0000
0000
0000
,
0000
0000
0000
0000
,
0000
0000
0000
0010
,
0000
0000
0000
0000
,
0000
0000
0000
0000
,
0000
0000
0000
0100
,
0000
0000
0000
0000
,
0000
0001
0000
0000
,
0000
0000
0000
1000
,
0000
0000
0000
0000
,
0000
0000
0000
0000
,
0000
0000
0000
0001
,
0000
0000
0000
0000
,
0000
0010
0000
0000
,
0000
0000
0000
0100
,
0000
0000
0000
0000
,
0000
0000
0000
0000
,
0000
0000
0000
1000
,
0000
0000
0000
0000
,
0000
0001
0000
0000
,
0000
0000
0000
0100
,
0000
0000
0000
0000
,
0000
0000
0000
0000
,
0000
0000
0000
0010
,
0000
0000
0000
0000
,
0000
1000
0000
0000
,
0000
0000
0000
0001
,
0000
0000
0000
0000
,
0000
0010
0000
0000
,
0000
0000
0000
0001
,
0000
0000
0000
0000
,
0000
0100
0000
0000
,
0000
0000
0000
0010
,
0000
0000
0000
0000
,
0000
1000
0000
0000
,
0000
0000
0000
0100
,
0000
0000
0000
0000
,
0000
1000
0000
0000
,
0000
0000
0000
0001
,
0000
0000
0000
0000
,
0000
0100
0000
0000
,
0000
0000
0000
0010
,
0000
0000
0000
0000
,
0000
1000
0000
0000
,
0000
0000
0000
0001
,
0000
0000
0000
0000
,
0000
0010
0000
0000
,
0000
0000
0000
0100
,
0000
0000
0000
0000
,
0000
1000
0000
0000
,
0000
0000
0000
0001
,
0000
0000
0000
0000
,
0000
0000
0000
0000
,
0000
0000
0000
0100
,
0000
0000
0000
0000
,
0000
0000
0000
0000
,
0000
0000
0000
0010
,
0000
0000
0000
0000
,
0000
1000
0000
0000
,
0000
0000
0000
0001
,
0000
0000
0000
0000
,
0000
1000
0000
0000
,
0000
0000
0000
0100
,
0000
0000
0000
0000
,
0000
0010
0000
0000
,
0000
0000
0000
0000
,
0000
0000
0000
0000
,
0000
1001
0000
0000
;

//--------------- dance-single - forcednature ----------------
#NOTEDATA:;
#STEPSTYPE:dance-single;
#DESCRIPTION:forcednature;
#DIFFICULTY:Easy;
#METER:5;
#RADARVALUES:0,0,0,0,0;
#CREDIT:forcednature;
#NOTES:
0000
0000
0000
0000
,
0000
0000
0000
0000
,
0000
0000
0000
0000
,
0000
0000
0000
0000
,
0000
0000
0000
0000
,
0001
0000
0000
1000
,
0000
0000
0010
0000
,
0000
0000
0000
0000
,
1001
0000
0000
0000
,
0000
0000
0000
0000
,
0000
1000
0000
0000
,
1000
0000
0000
0001
,
0000
0000
0200
0000
,
0000
0000
0000
0300
,
0000
0000
0000
0010
,
0000
0000
1000
0000
,
0000
0001
0000
0000
,
1000
0000
0000
0100
,
0000
0000
0010
0000
,
0000
2002
0000
0000
,
0000
3003
0000
0001
,
0000
0000
0100
0000
,
0000
0001
0000
0000
,
1000
0000
0000
0001
,
0000
0000
0010
0000
,
0000
2002
0000
0000
,
0000
3003
0000
1000
,
0000
1000
0000
1000
,
0000
0001
0000
0000
,
0100
0000
0000
0001
,
0000
0001
0000
0001
,
0000
1000
0000
0000
,
0100
0000
0000
0010
,
0000
0010
0000
0010
,
0000
0001
0000
0000
,
0100
0000
0000
0010
,
0000
0010
0000
0010
,
0000
1000
0000
0000
,
0100
0000
0000
1000
,
0000
1000
0000
0000
,
0000
0001
0000
0001
,
0000
0000
0000
0100
,
0000
0010
0000
0000
,
0000
0010
0000
0100
,
0000
0000
0000
0001
,
0000
0001
0000
0000
,
0000
1000
0000
1000
,
0000
0000
0000
0100
,
0000
0010
0000
0000
,
0000
0010
0000
0100
,
0000
0000
0000
1001
,
0000
0000
0000
0001
,
0000
0100
0000
0010
,
0000
1000
0000
1001
,
0000
0000
0000
1000
,
0000
0100
0000
0010
,
0000
0001
0000
1001
,
0000
0000
0000
1000
,
0000
0010
0000
1000
,
0000
0100
0000
1001
,
0000
0000
0000
0001
,
0000
0010
0000
0000
,
0100
0000
0000
1000
,
0000
0001
0000
1000
,
0000
0010
0000
0000
,
0100
0100
0000
0001
,
0000
1000
0000
0001
,
0000
0010
0000
0000
,
0100
0100
0000
1000
,
0000
0010
0000
1000
,
0000
0001
0000
0000
,
0010
0010
0000
0100
,
0000
1000
0000
0001
,
0000
0100
0000
0000
,
0001
0001
0000
1000
,
0000
0000
1000
0000
,
0000
0100
0000
0010
,
0010
0010
0000
0001
,
0000
0000
0001
0000
,
0000
0100
0000
0010
,
0010
0010
0000
1000
,
0000
0000
0001
0000
,
0000
1000
0000
0100
,
0100
0100
0000
1000
,
0000
0000
0001
0000
,
0000
1000
0000
0010
,
0010
0010
0000
0100
,
0000
0000
0000
0000
,
0000
0001
0000
0000
,
0000
0000
0000
1000
,
0000
0000
0000
0000
,
0000
0100
0000
0000
,
0000
0000
0000
0110
,
0000
0000
0010
0000
,
0000
0001
0000
0000
,
1000
0000
0000
0110
,
0000
0000
0010
0000
,
0000
1000
0000
0000
,
0001
0000
0000
1001
,
0000
0000
0110
0000
,
0000
0100
0000
0000
,
1001
0000
0000
0000
,
0000
0000
0000
0000
,
0000
0220
0000
0000
,
0000
0000
0000
0000
,
0000
0000
0000
0000
,
0330
0000
0000
0000
;

//--------------- dance-single - forcednature ----------------
#NOTEDATA:;
#STEPSTYPE:dance-single;
#DESCRIPTION:forcednature;
#DIFFICULTY:Medium;
#METER:8;
#RADARVALUES:0,0,0,0,0;
#CREDIT:forcednature;
#NOTES:
0000
0000
0000
0000
,
0000
0000
0000
0000
,
0000
0000
0000
0000
,
0000
0000
0000
0000
,
0000
0000
0000
0000
,
0001
0000
0000
0001
0000
0000
1000
0000
,
0000
0000
0001
0000
0020
0000
0000
0200
,
0000
0000
0000
0330
,
1001
0000
0000
0000
,
0000
0000
0000
0000
,
0000
0000
1000
0000
0000
0001
0000
0000
,
0100
0000
0010
1000
,
0000
1000
0000
0000
2002
0000
0000
0000
,
0000
0000
0000
3003
,
0000
0000
0000
0001
,
0000
0001
0000
0000
0010
0000
0100
0000
,
0000
0000
1000
0000
0000
1000
0000
0000
,
0010
0100
0000
0001
,
0000
1000
0000
0000
0001
0000
0010
0000
,
0000
0000
0100
0000
0000
0220
0000
0000
,
0000
0330
0000
1000
,
0000
0001
0000
0000
1000
0000
0010
0000
,
0000
0000
0100
0000
0000
0001
0000
0000
,
0100
0010
0000
1000
,
0000
0100
0000
0000
0010
0000
0100
0000
,
0000
0000
0010
0000
0000
2002
0000
0000
,
0000
3003
0000
0001
,
0100
0000
0100
0001
,
0000
0000
0001
0000
0000
0001
0000
0000
,
1000
0010
0000
1000
,
0100
0000
0100
1000
,
0000
0000
1000
0000
0000
1000
0000
0000
,
0001
0010
0000
0001
,
0100
0000
0100
0001
,
0000
0000
1000
0000
0000
1000
0000
0000
,
0100
1000
0000
0010
,
0100
0000
0100
0010
,
0000
0000
1000
0000
0000
0001
0000
0000
,
0010
0000
0000
0100
0000
0000
0010
0000
,
0000
0010
0001
0000
,
0100
0001
0000
0010
,
0001
0000
0100
0001
,
0000
1000
0100
0000
,
1000
0010
0000
1000
,
0100
0000
1000
0010
,
0000
0010
0100
0000
,
0001
1000
0000
0100
,
0010
0000
0001
1000
,
0000
0010
1000
0000
,
0001
0010
0000
0100
,
1000
0000
1000
0001
,
0000
0001
0000
0000
0001
0000
0000
0000
,
0100
0010
0000
1000
,
0001
0000
0010
0100
,
0000
0100
0000
0000
0100
0000
0000
0000
,
1000
0001
0000
0100
,
0100
0000
0010
1000
,
0000
1000
0000
0000
0000
0000
0100
0000
,
0000
0010
0000
0000
0100
0000
0000
0010
,
0000
0001
0001
1000
,
0000
1000
0000
0000
0010
0000
0000
0000
,
0000
0200
0000
0000
,
0302
0000
2003
0000
0000
3000
0001
0000
,
0010
0100
1000
0100
,
0000
0000
0010
0000
0000
0010
0000
0000
,
0002
2003
3000
0001
,
0100
0010
1000
0010
,
0000
0000
0100
0000
0000
0100
0000
0000
,
0002
2003
3000
0100
,
0010
0001
1000
0001
,
0000
0000
0100
0000
0000
0100
0000
0000
,
0020
2030
3000
0001
,
0010
0100
1000
0001
,
0000
0000
0100
0000
0000
0100
0000
0000
,
0002
0023
0030
0001
,
0000
0001
0100
0000
,
0100
0010
0000
0010
,
1000
0001
0000
1000
,
0000
1000
0100
0000
,
0100
0010
0000
0010
,
0001
1000
0000
0001
,
0010
0001
0010
0100
,
0000
0100
1000
0100
,
1000
1000
0000
1000
,
0010
1000
0010
0100
,
0000
0100
0001
0100
,
0001
0001
0000
0020
,
0000
0030
0200
0000
,
0300
2000
0000
3000
,
0002
0000
0003
0200
,
0000
0300
0020
0000
,
0030
2000
0000
3000
,
0002
0000
0003
0010
,
0000
0100
2000
0000
,
3000
0001
0000
1000
,
0020
0000
0030
0100
,
0000
0001
2000
0000
,
3000
0100
0000
0010
,
0002
0000
0003
1001
,
0000
0000
0110
0000
,
0000
0000
1000
0000
0000
0001
0000
0000
,
2002
0000
0000
0000
,
0000
3003
0000
0000
,
0000
0220
0000
0000
,
0000
0000
0000
0000
,
0000
0000
0000
0000
,
0330
0000
0000
0000
;

//--------------- dance-single - forcednature ----------------
#NOTEDATA:;
#STEPSTYPE:dance-single;
#DESCRIPTION:forcednature;
#DIFFICULTY:Hard;
#METER:11;
#RADARVALUES:0,0,0,0,0;
#CREDIT:forcednature;
#NOTES:
0000
0000
0000
0000
,
0000
0000
0000
0000
,
0000
0000
0000
0000
,
0000
0000
0000
0000
,
0000
0000
0000
0000
,
1000
0000
0000
0001
0000
0000
0100
0000
,
0010
0000
1000
0000
0200
0000
0000
0020
,
0000
0000
0000
0330
,
1001
0000
0000
0000
,
0000
0000
0000
0000
,
0000
0000
1002
0000
0000
0203
0000
0000
,
0310
1000
0001
0011
,
0000
0110
0000
0000
2002
0000
0000
0000
,
0000
0000
0000
3003
,
0000
0000
0000
1000
,
0000
2010
0000
0000
3001
0000
1000
0000
,
0100
0000
0010
0000
0000
0012
0000
0000
,
1003
0010
0100
0001
,
0000
0102
0000
0000
1003
0000
0100
0000
,
0010
0000
0110
0000
0000
2002
0000
0000
,
0000
3003
0000
0001
,
0000
0012
0000
0000
0103
0000
0010
0000
,
1000
0000
0100
0000
0000
0120
0000
0000
,
0031
0100
0010
1000
,
0000
0021
0000
0000
0130
0000
1000
0000
,
0001
0000
0100
0000
0000
2002
0000
0000
,
0000
3003
0000
1000
,
0100
0000
0010
0000
0001
0010
0001
0000
,
0000
0000
2000
0000
0000
3002
0000
0000
,
0103
0010
1000
0001
,
0100
0000
0010
0000
1000
0001
1000
0000
,
0100
0000
0020
0000
0000
0032
0000
0000
,
1003
0010
0100
0001
,
0010
0000
0100
0000
1000
0001
1000
0000
,
0010
0000
0200
0000
0000
0302
0000
0000
,
1003
0100
0010
0100
,
1000
0000
0001
0000
0100
0010
0100
0000
,
0001
0000
2000
0000
0000
3200
0000
0000
,
0310
0000
0000
1001
0000
0000
0001
0000
,
0100
1000
0100
0001
,
0010
0001
0100
1000
,
0100
0010
0000
1000
,
0100
0001
0100
1000
,
0010
1000
0100
0001
,
0100
0010
0000
0001
,
0010
1000
0010
0001
,
0100
0001
0010
1000
,
0010
0001
0000
1000
,
0010
0001
0010
1000
,
0100
1000
0010
0001
,
0010
1000
0000
1001
,
0000
0110
0000
0000
0001
0000
1000
0000
,
0100
0010
0100
1000
,
0001
1000
0100
1001
,
0000
0110
0000
0000
1000
0000
0001
0000
,
0100
0010
0100
0001
,
1000
0001
0010
0110
,
0000
1001
0000
0000
0001
0000
0010
0000
,
0100
1000
0100
0010
,
0001
0010
0100
1001
,
0000
0110
0000
0000
1000
0000
0010
0000
,
0100
0010
0001
0010
,
0200
0000
0002
0000
0303
0000
1000
0010
,
1000
0001
0010
0100
,
1000
0000
0001
0000
0001
0100
0000
0100
,
0010
0000
0110
0000
0000
0000
0100
0001
,
0100
0010
1000
0001
,
1000
0000
0100
0000
0100
0010
0000
0010
,
0001
0000
1001
0000
0000
0000
1000
0010
,
1000
0001
0010
0100
,
1000
0000
0001
0000
0001
0100
0000
0100
,
0010
0000
1001
0000
0000
0000
1000
0100
,
1000
0001
0100
0010
,
1000
0000
0001
0000
0001
0010
0000
0010
,
0100
0110
0000
0010
,
0001
0000
1000
0001
1000
0000
0001
0000
,
0100
0001
0100
0000
0001
0000
1000
0001
,
1000
1010
0000
1000
,
0001
0000
1000
0100
1000
0000
0100
0000
,
0010
0100
0010
0000
0001
0000
0010
0001
,
0010
0011
0000
1000
,
0010
0000
0100
0010
0100
0000
0010
0000
,
0100
0001
0100
0000
0001
0000
1000
0001
,
1000
1100
0000
1000
,
0100
0000
0010
0001
0010
0000
0001
0000
,
1000
0010
1000
0000
0010
0000
0100
0001
,
0100
1001
0000
2000
,
0000
3100
0020
0000
,
0031
2000
0000
3010
,
0200
0000
0301
0020
,
0000
0130
2000
0000
,
3001
0200
0000
0310
,
2000
0000
3001
0010
,
0100
0000
1000
0000
2020
0000
0000
3030
,
0000
0001
0100
0010
,
0220
0000
0000
0330
0000
0000
1000
0000
,
0001
0000
0010
0000
0022
0000
0000
0033
,
0000
0001
1000
0100
,
0220
0000
0000
0330
0000
0000
2001
0000
,
0000
3002
0000
0000
0103
0000
0010
0000
,
1000
0000
1100
0000
0000
0101
0000
0000
,
2002
0000
0000
0000
,
0000
3003
0000
0010
,
0100
0220
0000
0000
,
0000
0000
0000
0000
,
0000
0000
0000
0000
,
0330
0000
0000
0000
;

//--------------- dance-single - forcednature ----------------
#NOTEDATA:;
#STEPSTYPE:dance-single;
#DESCRIPTION:forcednature;
#DIFFICULTY:Challenge;
#METER:14;
#RADARVALUES:0,0,0,0,0;
#CREDIT:forcednature;
#NOTES:
0000
0000
0000
0000
,
0000
0000
0000
0000
,
0000
0000
0000
0000
,
0000
0000
0000
0000
,
0000
0000
0000
0000
,
1002
0000
0000
0203
0000
0000
0320
0000
,
2030
0000
3001
0000
0021
0000
0000
0200
,
0000
0000
0000
0330
,
1001
0000
0000
0000
,
0000
0000
0000
0000
,
0000
0000
1010
0000
0010
0100
0000
0001
,
0010
0100
1000
1010
,
0000
0011
0000
0000
2002
0000
0000
0000
,
0000
0000
0000
3003
,
0000
0000
0000
1000
,
0100
0010
0000
0010
0001
0000
1000
0100
,
0010
0000
0001
0000
0100
0010
0000
0010
,
1000
0000
0001
0100
0010
0000
1000
0000
,
0001
0010
0000
0010
0100
0000
1000
0001
,
0010
0000
0110
0000
0000
1002
0000
0000
,
0100
1000
0013
0001
,
0100
0010
1000
0010
0100
0000
0001
1000
,
0010
0000
1000
0000
0100
0010
0001
0010
,
0100
0000
1000
0001
0010
0000
0100
0000
,
1000
0010
0100
0001
0010
0000
0100
1000
,
0001
0000
0100
0000
0000
2001
0000
0000
,
0100
0001
3010
1000
,
0100
0010
0001
0010
0100
0000
1000
0010
,
0100
0010
1000
0000
0001
0010
0100
1000
,
0020
0230
0302
1003
,
0100
0010
0100
1000
0010
0000
0100
0001
,
0010
0001
0100
0000
0010
1000
0001
0010
,
0200
2300
3020
0130
,
0001
0010
0001
1000
0010
0000
0100
0001
,
0010
0100
1000
0000
0010
0100
0001
1000
,
0200
0320
0032
1003
,
0010
0100
1000
0100
0001
0000
1000
0001
,
0010
0100
1000
0000
0010
0100
0001
0010
,
0200
0000
0000
2300
0000
3001
0100
0000
,
0010
0100
1000
0100
0010
0000
0010
0100
,
0001
0100
0010
0000
0010
0100
1000
0100
,
0010
0200
0302
0013
,
0100
0010
1000
0010
0100
0000
0100
0010
,
0001
0010
0100
0000
0100
0010
1000
0010
,
0200
2300
3001
1001
,
0001
0100
0010
0100
1000
0000
0001
0010
,
0100
0010
1000
0000
0001
0100
0010
0100
,
1000
0200
0302
1003
,
0001
0010
0100
0010
1000
0000
0001
0100
,
0010
0100
1000
0000
0001
0010
0100
0010
,
2000
3020
0031
1001
,
0001
0100
0000
1000
0100
0000
0010
1000
,
0001
1000
0100
0000
0010
0001
1000
0001
,
0100
0010
1000
1100
,
0000
0101
0000
0000
0011
0000
1000
0010
,
0100
0001
1000
0000
0100
0001
0000
0100
,
2000
3020
0130
0101
,
0000
0011
0000
0000
0010
0000
0100
1000
,
0010
1000
0001
0000
0100
0001
0010
0001
,
1000
0010
0100
0101
,
0000
1100
0000
0000
1010
0000
0001
0010
,
0001
0100
0020
0000
0001
0000
0100
0000
,
1030
0010
0100
0001
1000
0000
1000
0100
,
0010
0001
0100
0010
0001
1000
0100
0010
,
0001
1000
0100
0010
1000
0100
0010
0001
,
1001
0000
0110
0000
0000
0000
0001
0100
,
0010
1000
0100
0010
1000
0001
0100
0010
,
1000
0001
0100
0010
0001
0100
0010
1000
,
1001
0000
0110
0000
0000
0000
1000
0001
,
0010
0100
0001
1000
0010
0100
1000
0001
,
0010
0100
0001
1000
0001
0100
0010
0001
,
1001
0000
0110
0000
0000
0000
0001
1000
,
0010
0100
1000
0001
0010
0100
0001
1000
,
0010
0100
1000
0001
1000
0100
0010
1000
,
1001
0000
0110
0000
0000
0000
1000
0100
,
0001
1000
0010
0001
1000
0001
0100
1000
,
0001
0010
1000
0001
1000
0100
0001
0100
,
0110
0000
1001
0000
0000
0000
0001
0100
,
1000
0001
0010
1000
0001
1000
0100
0001
,
1000
0010
0001
1000
0001
0100
1000
0100
,
0110
0000
1001
0000
0000
0000
1000
0010
,
0001
1000
0100
0001
0010
1000
0001
0100
,
1000
0001
1000
0010
0100
1000
0001
0010
,
0110
0000
1001
0000
0000
0000
0001
0010
,
1000
0001
0100
1000
0010
0001
1000
0100
,
0001
1000
0001
0010
0100
0001
1000
0010
,
0110
1001
0000
2000
,
0000
0000
3100
0010
,
0001
2000
0000
0000
,
3010
0100
0001
0020
,
0000
0000
0130
1000
,
0001
0200
0000
0000
,
0310
0000
1000
0001
0010
0100
1000
0000
,
1100
0110
0022
0000
,
0033
0001
0101
0110
,
2010
0002
3003
1100
,
0101
0011
2020
0000
,
3030
0101
1100
1010
,
0012
2000
3003
0110
,
1000
0001
0010
0100
2000
0000
0010
0000
,
3001
0000
1001
0000
0010
0110
0000
0100
,
1002
0000
0000
0000
0010
0000
1000
1000
,
0000
0010
0013
0000
0001
0010
0001
0100
,
1000
2002
0000
0000
,
0000
0000
0000
0000
,
0000
0000
0000
0000
,
3003
0000
0000
0000
;

//--------------- dance-double - forcednature ----------------
#NOTEDATA:;
#STEPSTYPE:dance-double;
#DESCRIPTION:forcednature;
#DIFFICULTY:Easy;
#METER:4;
#RADARVALUES:0,0,0,0,0;
#CREDIT:forcednature;
#NOTES:
00000000
00000000
00000000
00000000
,
00000000
00000000
00000000
00000000
,
00000000
00000000
00000000
00000000
,
00000000
00000000
00000000
00000000
,
00000000
00000000
00000000
00000000
,
00001000
00000000
00000000
00000000
,
00000000
00000000
00010000
00000000
,
00000000
00000000
00000000
00000000
,
00011000
00000000
00000000
00000000
,
00000000
00000000
00000000
00000000
,
00000000
01000000
00000000
00000000
,
00000000
00000000
00000000
00010000
,
00000000
00000000
00000000
00000000
,
00000000
00000000
00000000
00000000
,
00000000
00000000
00000000
00100000
,
00000000
00000000
00000000
00000000
,
00000000
00001000
00000000
00000000
,
00000000
00000000
00000000
00010000
,
00000000
00000000
00000000
00000000
,
00000000
00000100
00000000
00000000
,
00000000
00000000
00000000
00001000
,
00000000
00000000
00000000
00000000
,
00000000
00000001
00000000
00000000
,
00000000
00000000
00000000
00001000
,
00000000
00000000
00000000
00000000
,
00000000
00000010
00000000
00000000
,
00000000
00000000
00000000
00010000
,
00000000
00000000
00000000
00000000
,
00000000
00001000
00000000
00000000
,
00000000
00000000
00000000
00100000
,
00000000
00000000
00000000
00000000
,
00000000
00010000
00000000
00000000
,
00000000
00000000
00000000
00100000
,
00000000
00000000
00000000
00000000
,
00000000
00001000
00000000
00000000
,
00000000
00000000
00000000
00010000
,
00000000
00000000
00000000
00000000
,
00000000
00001000
00000000
00000000
,
00000000
00000000
00000000
01000000
,
00000000
00000000
00000000
00000000
,
00000000
00010000
00000000
00000000
,
00010000
00000000
00000000
00100000
,
00000000
00000000
00000000
00000000
,
00000000
00001000
00000000
00000000
,
00001000
00000000
00000000
00010000
,
00000000
00000000
00000000
00000000
,
00000000
00000010
00000000
00000000
,
00000010
00000000
00000000
00001000
,
00000000
00000000
00000000
00000000
,
00000000
00000001
00000000
00000000
,
00000001
00000000
00000000
00001001
,
00000000
00000000
00000000
00000000
,
00000000
00001000
00000000
00000000
,
00001000
00000000
00000000
00000100
,
00000000
00000000
00000100
00000000
,
00000000
00010000
00000000
00000000
,
00010000
00000000
00000000
00001000
,
00000000
00000000
00000000
00000000
,
00000000
01000000
00000000
00000000
,
01000000
00000000
00000000
00010000
,
00000000
00000000
00010000
00000000
,
00000000
10000000
00000000
00000000
,
00000000
00000000
00000000
10010000
,
00000000
00000000
00010000
00000000
,
00000000
01000000
00000000
00010000
,
00000000
01000000
00000000
00001000
,
00000000
00000000
00010000
00000000
,
00000000
00001000
00000000
00010000
,
00000000
00001000
00000000
00010000
,
00000000
00000000
00000100
00000000
,
00000000
00001000
00000000
00000001
,
00000000
00001000
00000000
00000001
,
00000000
00000000
00000100
00000000
,
00000000
00000010
00000000
00001000
,
00000000
00000010
00000000
00010000
,
00000000
00000000
00001000
00000000
,
00000000
00010000
00000000
00001000
,
00000000
00100000
00000000
00010000
,
00000000
00000000
00100000
00000000
,
00000000
01000000
00000000
00100000
,
00000000
01000000
00000000
10000000
,
00000000
00000000
00010000
00000000
,
00000000
10000000
00000000
00010000
,
00000000
10000000
00000000
00100000
,
00000000
00000000
01000000
00000000
,
00000000
00100000
00000000
01000000
,
00000000
00100000
00000000
10000000
,
00000000
00000000
00000000
00000000
,
00000000
01000000
00000000
00000000
,
00000000
00000000
00000000
00100000
,
00000000
00000000
00000000
00000000
,
00000000
00010000
00000000
00000000
,
00000000
00000000
00000000
01000000
,
00000000
00000000
00001000
00000000
,
00000000
00010000
00000000
00010000
,
00000000
00010000
00000000
00000100
,
00000000
00000000
00010000
00000000
,
00000000
00001000
00000000
00001000
,
00000000
00001000
00000000
00000010
,
00000000
00000000
00000001
00000000
,
00000000
00000100
00000000
00000000
,
00002002
00000000
00000000
00000000
,
00000000
00003003
00000000
00000000
,
00000000
00000220
00000000
00000000
,
00000000
00000000
00000000
00000000
,
00000000
00000000
00000000
00000000
,
00000330
00000000
00000000
00000000
;

//--------------- dance-double - forcednature ----------------
#NOTEDATA:;
#STEPSTYPE:dance-double;
#DESCRIPTION:forcednature;
#DIFFICULTY:Medium;
#METER:9;
#RADARVALUES:0,0,0,0,0;
#CREDIT:forcednature;
#NOTES:
00000000
00000000
00000000
00000000
,
00000000
00000000
00000000
00000000
,
00000000
00000000
00000000
00000000
,
00000000
00000000
00000000
00000000
,
00000000
00000000
00000000
00000000
,
00001000
00000000
00000000
00010000
,
00000000
00000000
00000200
00000000
,
00000000
00000000
00000000
00000300
,
00001001
00000000
00000000
00000000
,
00000000
00000000
00000000
00000000
,
00000000
00000000
00001000
00000000
00000000
00000100
00000000
00000000
,
00010000
00001000
00010000
00001000
,
00000000
01000000
00000000
00000000
02200000
00000000
00000000
00000000
,
00000000
00000000
00000000
03300000
,
00000000
00000000
00000000
00100000
,
10000000
01000000
10000000
00010000
,
00000000
01000000
00010000
00100000
,
00010000
00100000
00000000
00001000
,
00010000
00000010
00001000
00000010
,
00000000
00000000
00000100
00000000
00000000
00002002
00000000
00000000
,
00000000
00003003
00000000
00000001
,
00000010
00000100
00000010
00000001
,
00000000
00001000
00000010
00010000
,
00001000
00010000
00000000
00001000
,
00100000
00010000
00100000
01000000
,
00000000
00000000
00100000
00000000
00000000
20020000
00000000
00000000
,
00000000
30030000
00000000
10000000
,
00010000
01000000
00010000
00100000
,
00000000
00000000
00001000
00000000
00010000
00001000
00000000
00010000
,
00001000
00010000
00000000
00000010
,
00001000
00000001
00001000
00000100
,
00000000
00000000
00000010
00000000
00000100
00000010
00000000
00000100
,
00000010
00000001
00000000
00001000
,
00000010
00010000
00001000
00010000
,
00000000
00000000
00001000
00000000
00010000
00001000
00000000
00010000
,
00001000
01000000
00000000
00010000
,
10000000
00010000
00100000
01000000
,
00000000
00000000
00100000
00000000
00010000
10000000
00000000
00010000
,
10000000
00100000
01000000
00010000
,
00100000
01000000
00100000
00010000
,
00100000
00001000
00010000
00000100
,
00010000
00001000
00010000
00000010
,
00001000
00000010
00000100
00000001
,
00000100
00000001
00000010
00000001
,
00001000
00000100
00001000
00001001
,
00000000
00000001
00000100
00000001
,
00001000
00000100
00001000
00000010
,
00010000
00001000
00100000
00010000
,
00100000
00001000
00010000
00001000
,
01000000
00010000
01000000
00100000
,
10000000
00010000
00000000
10010000
,
00000000
01100000
00000000
00000000
10000000
00000000
01000000
00000000
,
10000000
00010000
01000000
00010000
,
00100000
00001000
00000000
00011000
,
00000000
00011000
00000000
00000000
00011000
00000000
00000000
00000000
,
00010000
00000100
00001000
00000001
,
00000100
00000001
00000010
00000110
,
00000000
00001001
00000000
00000000
00001000
00000000
00000100
00000000
,
00010000
00001000
01000000
00010000
,
10000000
00010000
00100000
01100000
,
00000000
10010000
00000000
00000000
01100000
00000000
00000000
00000000
,
10000000
00010000
01000000
00001000
,
00020000
00000000
00030000
00001000
,
00010000
00000100
00001000
00000001
,
00000100
00000010
00001000
00000001
,
00001001
00000110
00000000
00001000
,
00000100
00010000
00001000
01000000
,
00010000
00100000
01000000
10000000
,
10010000
01100000
00000000
00010000
,
01000000
00001000
00010000
00000100
,
00001000
00000001
00000100
00000010
,
00000110
00001001
00000000
00001000
,
00000100
00010000
00001000
01000000
,
00010000
00100000
01000000
00100000
,
01100000
10010000
00000000
00010000
,
01000000
00001000
00010000
00001000
,
00100000
00010000
01000000
00001000
,
00011000
00011000
00000000
00010000
,
00000100
00001000
00000010
00010000
,
00001000
00010000
00000100
00001000
,
00001001
00000110
00000000
00000001
,
00000100
00000001
00001000
00000100
,
00001000
00000010
00010000
00001000
,
00011000
00011000
00000000
00010000
,
00001000
00100000
00010000
00100000
,
01000000
10000000
01000000
00100000
,
01100000
10010000
00000000
00010000
,
01000000
00001000
00010000
00002000
,
00000000
00003000
00100000
00000000
00010000
00000000
00100000
00000000
,
00001000
00000000
00020000
00000000
00000000
00030000
00000010
00000000
,
00001000
00000010
00010000
00002000
,
00000000
00003000
00010000
00000000
00000100
00000000
00001000
00000000
,
00000100
00000000
00020000
00000000
00000000
00030000
00001000
00000000
,
01000000
00010000
20000000
00000000
,
30000000
01000000
00010000
00001000
,
00011000
00011000
00000000
00010000
,
00000100
00001000
00000002
00000000
,
00000003
00000100
00001000
00010000
,
00011000
00011000
00000000
00011000
,
00000000
00001000
00000000
00000000
00100000
00000000
00010000
00000000
,
10000000
00000000
10010000
00000000
00000000
01100000
00000000
00000000
,
20020000
00000000
00000000
00000000
,
00000000
30030000
00000000
00000000
,
00000000
00022000
00000000
00000000
,
00000000
00000000
00000000
00000000
,
00000000
00000000
00000000
00000000
,
00033000
00000000
00000000
00000000
;

//--------------- dance-double - forcednature ----------------
#NOTEDATA:;
#STEPSTYPE:dance-double;
#DESCRIPTION:forcednature;
#DIFFICULTY:Hard;
#METER:11;
#RADARVALUES:0,0,0,0,0;
#CREDIT:forcednature;
#NOTES:
00000000
00000000
00000000
00000000
,
00000000
00000000
00000000
00000000
,
00000000
00000000
00000000
00000000
,
00000000
00000000
00000000
00000000
,
00000000
00000000
00000000
00000000
,
00002000
00000000
00000000
02003000
00000000
00000000
03010000
00000000
,
10000000
00000000
01000000
00000000
00200000
00000000
00000000
00302000
,
00000000
00000000
00000000
00003000
,
00011000
00000000
00000000
00000000
,
00000000
00000000
00000000
00000000
,
00000000
00000000
00010000
00000000
00000000
00000100
00000000
00000000
,
00001000
00000001
00000100
00001000
,
00000000
00010000
00000000
00000000
00022000
00000000
00000000
00000000
,
00000000
00000000
00000000
00033000
,
00000000
00000000
00000000
01000000
,
00010000
01000000
00000000
00010000
10000000
00000000
00010000
00000000
,
00100000
00000000
01000000
00000000
10000000
01000000
00000000
00100000
,
01000000
00100000
00001000
00010000
,
00000100
00001000
00000000
00000100
00000010
00000000
00000001
00000000
,
00001000
00000000
00000010
00000000
00000000
00002002
00000000
00000000
,
00000000
00003003
00000000
00000001
,
00000100
00000010
00000000
00000100
00000001
00000000
00000010
00000000
,
00000100
00000000
00010000
00000000
00001000
00010000
00000000
00000100
,
00001000
00000010
00010000
00001000
,
00100000
00010000
00000000
00100000
01000000
00000000
10000000
00000000
,
00010000
00000000
01000000
00000000
00000000
20020000
00000000
00000000
,
00000000
30030000
00000000
10000000
,
01000000
00100000
01000000
00000000
10000000
00000000
00010000
00000000
,
00100000
00000000
00001000
00000000
00001000
00010000
00000000
00010000
,
00000010
00001000
00000000
00000001
,
00000100
00000010
00000100
00000000
00000001
00000000
00001000
00000000
,
00000010
00000000
00010000
00000000
00010000
00001000
00000000
00001000
,
00100000
00010000
10000000
00000000
,
00100000
01000000
00100000
10000000
,
01000000
00000000
00100000
00000000
01000000
00100000
00000000
00010000
,
00100000
00001000
00010000
00000000
,
00000010
00001000
00000010
00000000
00000100
00000000
00000001
00000000
,
00000010
00000000
00000100
00000000
00001000
00000100
00000000
00010000
,
00001000
00000000
01000000
00010000
00000000
00100000
02000000
00000000
,
00000000
10000000
00000000
00000000
13000000
00000000
01000000
00000000
,
00010000
00000000
00001000
00000000
00100000
00010000
00100000
00000000
,
00001000
00010000
00000010
00002000
,
00000000
00000100
00000000
00000000
00003100
00000000
00001000
00000000
,
00000001
00000000
00000100
00000000
00001000
00010000
00001000
00000000
,
01000000
00010000
00100000
02100000
,
00000000
10000000
00000000
00000000
13000000
00000000
01000000
00000000
,
00100000
00000000
00001000
00000000
00010000
00000100
00010000
00000000
,
00001000
00000010
00000001
00002001
,
00000000
00000010
00000000
00000000
00003010
00000000
00001000
00000000
,
00000100
00000000
00010000
00001000
00010000
00000000
00001000
00000000
,
01000000
00010000
10000000
11000000
,
00000000
00110000
00000000
00000000
00010000
00000000
01000000
00000000
,
00001000
00000000
00010000
00000000
00000100
00001000
00000100
00000000
,
00000010
00000001
00000010
00000000
00000100
00000000
00000110
00000000
,
00000000
00001001
00000000
00000000
00000110
00000000
00000000
00000001
,
00000000
00000001
00001000
00000000
00000010
00001000
00000010
00000000
,
00010000
00001000
00100000
01100000
,
00000000
10010000
00000000
00000000
00010000
00000000
01000000
00000000
,
00001000
00010000
00001000
00000000
00010000
00001000
00010000
00000000
,
00000100
00001000
00000001
00001001
,
00000000
00000110
00000000
00000000
00001001
00000000
00000000
00000001
,
00000000
00000001
00001000
00000000
00000100
00000000
00010000
00000000
,
00001000
00010000
00001000
00010000
00001000
00000000
01000000
00010000
,
01000000
00000000
00001000
00010000
00001000
00000000
00100000
00010000
,
00100000
00000000
00001000
00000000
00001000
00010000
00000000
00010000
,
00000010
00000000
00000110
00000000
00000000
00000000
00000100
00000001
,
00000100
00000000
00000001
00000010
00000001
00000000
00000100
00000001
,
00000100
00000000
00000010
00000000
00000010
00010000
00000000
00010000
,
00001000
00000000
00011000
00000000
00000000
00000000
00100000
00010000
,
00100000
00000000
01000000
00100000
01000000
00000000
00100000
00010000
,
00100000
00000000
00001000
00000000
00001000
00010000
00000000
00010000
,
00000010
00000000
00000110
00000000
00000000
00000000
00000100
00000001
,
00000100
00000000
00000001
00000010
00000001
00000000
00000100
00000001
,
00000100
00000000
00000010
00000000
00000010
00010000
00000000
00010000
,
00001000
00000000
00011000
00000000
00000000
00000000
00100000
00010000
,
00100000
00000000
00001000
00000000
00010000
00000100
00010000
00000000
,
00001000
00000000
01000000
00010000
01000000
00000000
00100000
00000000
,
01100000
00000000
10010000
00000000
00000000
00000000
00010000
01000000
,
00010000
00000000
00100000
00000000
00001000
00010000
00001000
00000000
,
01000000
00000000
00010000
10000000
00010000
00000000
00100000
00000000
,
00001000
00000000
00011000
00000000
00000000
00000000
00000100
00001000
,
00000100
00000000
00000010
00000000
00000001
00000100
00000001
00000000
,
00001000
00000000
00000100
00000010
00000100
00000000
00001000
00000000
,
00000010
00000000
00001001
00000000
00000000
00000000
00000001
00000100
,
00000001
00000000
00000010
00000000
00000100
00000010
00000100
00000000
,
00010000
00000000
00000100
00001000
00000100
00000000
00010000
00000000
,
00001000
00011000
00000000
02000000
,
03020000
20030000
30020000
00230000
,
00000000
00300000
00002000
00000000
00023000
00000000
00030200
00000000
,
00002300
00000000
00003002
00000000
00000000
00000003
00000200
00000000
,
00000320
00002030
00003020
00020030
,
00000000
00030000
00002000
00000000
00203000
00000000
00320000
00000000
,
00230000
00000000
02300000
00000000
00000000
03000000
10000000
00010000
,
10000000
00100000
01000000
00010000
,
00100000
00000000
01000000
10000000
01000000
00000000
00010000
00000000
,
00001000
00000000
00101000
00000000
00000000
00000000
00001000
00010000
,
00001000
00010000
00000010
00001000
,
00000010
00000000
00000100
00000001
00000100
00000000
00000010
00000000
,
00001000
00001001
00000000
00000001
,
00000001
00000010
00000000
00000010
00000100
00000000
00010000
00000000
,
00001000
00000000
00101000
00000000
00000000
00110000
00000000
00000000
,
20020000
00000000
00000000
00000000
,
00000000
30030000
10000000
01000000
,
00010000
00022000
00000000
00000000
,
00000000
00000000
00000000
00000000
,
00000000
00000000
00000000
00000000
,
00033000
00000000
00000000
00000000
;

//--------------- dance-double - forcednature ----------------
#NOTEDATA:;
#STEPSTYPE:dance-double;
#DESCRIPTION:forcednature;
#DIFFICULTY:Challenge;
#METER:15;
#RADARVALUES:0,0,0,0,0;
#CREDIT:forcednature;
#NOTES:
00000000
00000000
00000000
00000000
,
00000000
00000000
00000000
00000000
,
00000000
00000000
00000000
00000000
,
00000000
00000000
00000000
00000000
,
00000000
00000000
00000000
00000000
,
00012000
00000000
00000000
02003000
00000000
00000000
03020000
00000000
,
00230000
00000000
01300000
00000000
01100000
00000000
00000000
20020000
,
00000000
00000000
00000000
30030000
,
00011000
00000000
00000000
00000000
,
00000000
00000000
00000000
00000000
,
00000000
00000000
00000100
00010000
00001000
00100000
00000000
00001000
,
00010000
00000010
00010000
00000000
00001000
00000000
01001000
00000000
,
00000000
01010000
00000000
00000000
00220000
00000000
00000000
00000000
,
00000000
00000000
00000000
00330000
,
00000000
00000000
00000000
01100000
,
01000000
10000000
00000000
00100000
10000000
00000000
01000000
00000000
,
00010000
00000000
00001000
00000000
00100000
00010000
00000000
00100000
,
00001000
00010000
00000010
00001000
,
00000100
00000010
00000000
00000001
00000010
00000000
00000100
00000000
,
00010000
00000000
00101000
00000000
00000000
00020100
00000000
00000000
,
00001000
00000000
00001000
00000000
00030010
00000000
00001000
00010000
,
00001000
01000000
00010000
01000000
00100000
10000000
00010000
00100000
,
01000000
00000000
00100000
00001000
00010000
00000100
00010000
00001000
,
01000000
00010000
00100000
01000000
00100000
00000000
00001000
00010000
,
00000010
00001000
00000010
00010000
00001000
00000010
00000100
00001000
,
00000001
00000000
00000100
00000000
00000000
00002001
00000000
00000000
,
00000100
00000000
00000001
00000000
00003010
00000000
00001000
00000100
,
00010000
00001000
00100000
00010000
00100000
00000000
01100000
00000000
,
01000000
10000000
00010000
00000000
00010000
01000000
00000000
01000000
,
00001000
00000000
00010000
00000000
00000100
00000000
00001000
00000010
,
00010000
00001000
00010000
00000100
00001000
00000100
00000010
00000000
,
00000001
00000000
00000101
00000000
00000100
00000010
00000000
00000010
,
00010000
00000000
00001000
01000000
00000000
01000000
00010000
00000000
,
00100000
01000000
00100000
00001000
00010000
00001000
01000000
00010000
,
01000000
00000000
00100000
00000000
00100000
10000000
00000000
10000000
,
01000000
00000000
01100000
00000000
00100000
00000000
00001000
00010000
,
00001000
01000000
00010000
01000000
00001000
00010000
00000100
00000000
,
00001000
00000000
00000010
00000000
00000010
00000100
00000000
00000100
,
00000001
00000000
00000001
00000010
00000000
00000010
00000100
00000000
,
00010000
00001000
00010000
00000010
00001000
00000010
00010000
00001000
,
00010000
00000100
00001000
00000100
00010000
00001000
01000000
00010000
,
00100000
01000000
00100000
00001000
00010000
00000000
00011000
00000000
,
00001000
01000000
00010000
01000000
00001000
00010000
00001000
00100000
,
00010000
00100000
00001000
00010000
00000100
00001000
00000010
00000100
,
00000010
00010000
00001000
00000010
00000001
00000000
00001001
00000000
,
00001000
00000010
00010000
00001000
00010000
00000100
00001000
00000100
,
00010000
00001000
01000000
00010000
01000000
00001000
00010000
00001000
,
00100000
00010000
00100000
01000000
10000000
00000000
10010000
00000000
,
00010000
01000000
00010000
00100000
01000000
00100000
00001000
00010000
,
00000100
00001000
00000100
00000010
00000001
00001000
00000010
00010000
,
00001000
00101000
00110000
01100000
,
00000000
10010000
00000000
00000000
00010000
01000000
00001000
00010000
,
00001000
00100000
00010000
00100000
00001000
00010000
00000010
00001000
,
00000010
00001000
00000100
00000000
00000110
00000000
00000011
00000000
,
00000000
00000101
00000000
00000000
00001100
00000000
00000000
00011000
,
00000000
00010000
00100000
01000000
00100000
10000000
00010000
10000000
,
02000000
03020000
00031000
00011000
,
00000000
00101000
00000000
00000000
00001000
00010000
00000100
00001000
,
00000100
00010000
00001000
01000000
00010000
01000000
00001000
00010000
,
00001000
00100000
00010000
00000000
10010000
00000000
01100000
00000000
,
00000000
01001000
00000000
00000000
00011000
00000000
00000000
00010100
,
00000000
00000100
00000020
00000000
00000100
00000000
00000031
00000010
,
00001000
00010000
01000000
10000000
00100000
00000000
10000000
01000000
,
00010000
00001000
01000000
00100000
00010000
00001000
00000100
00000010
,
00010000
00001000
00000010
00000001
00000100
00001000
00010000
00000100
,
00000110
00000000
00001001
00000000
00000000
00000000
00000001
00000100
,
00001000
00010000
00000100
00000010
00001000
00010000
01000000
00100000
,
00001000
00010000
00100000
10000000
01000000
00010000
00001000
01000000
,
01100000
00000000
10010000
00000000
00000000
00000000
10000000
00100000
,
00010000
00001000
00100000
01000000
00010000
00001000
00000010
00000100
,
00010000
00001000
00000100
00000001
00000010
00001000
00010000
00000010
,
00000110
00000000
00001001
00000000
00000000
00000000
00000001
00000010
,
00001000
00010000
00000010
00000100
00001000
00010000
00100000
01000000
,
00001000
00010000
01000000
10000000
00100000
00010000
00001000
00100000
,
01100000
00000000
10010000
00000000
00000000
00000000
10000000
01000000
,
00010000
01000000
00100000
00001000
00010000
00100000
00010000
00000010
,
00010000
00001000
00000010
00000100
00001000
00000010
00000001
00001000
,
00000100
00000000
00001001
00000000
00000000
00000000
00000001
00000100
,
00001000
00000100
00000010
00010000
00001000
00000010
00001000
00100000
,
00001000
00010000
00100000
01000000
00010000
00100000
10000000
00010000
,
01000000
00000000
10010000
00000000
00000000
00000000
10000000
00100000
,
00010000
00001000
00100000
01000000
00010000
01000000
00100000
00001000
,
00000010
00001000
00010000
00000010
00001000
00010000
01000000
00001000
,
00011000
00000000
00010100
00000000
00000000
00000000
00000001
00000010
,
00001000
00010000
00000010
00000100
00001000
00000100
00000010
00010000
,
00100000
00010000
00001000
00100000
00010000
00001000
00000100
00010000
,
00011000
01001000
00000000
02000000
,
03020000
00230000
02300000
03020000
,
00000000
00030000
00002000
00000000
00003020
00000000
00000230
00000000
,
00020300
00000000
00030020
00000000
00000000
00000030
00002000
00000000
,
00003002
00000203
00002300
00023000
,
00000000
00030000
00200000
00000000
20300000
00000000
32000000
00000000
,
03020000
00000000
00032000
00000000
00000000
00003000
00100000
00010000
,
01000000
00001000
00010000
00000100
00001000
00000010
00010000
00001000
,
00000010
00000000
00000100
00001000
00000001
00000100
00001000
00000000
,
00011000
00000000
01001000
00000000
00000000
00000000
01000000
00010000
,
00100000
01000000
00010000
01000000
00100000
00001000
00010000
00100000
,
10000000
00000000
01000000
00100000
01000000
00010000
00001000
00010000
,
00000010
00001010
00000000
00001100
,
00000100
00000010
00000001
00000100
00000020
00000000
00002030
00000000
,
00103000
00000000
01100000
00000000
00000000
01001000
00000000
00000000
,
00010200
00000000
00000000
00000000
00001000
00000000
00000010
00000010
,
00000000
00000001
00000301
00000000
00000100
00000010
00000001
00000100
,
00001000
00022000
00000000
00000000
,
00000000
00000000
00000000
00000000
,
00000000
00000000
00000000
00000000
,
00033000
00000000
00000000
00000000
;
