#VERSION:0.83;
#TITLE:天庭 おとこのこ編;
#SUBTITLE:;
#ARTIST:あさき;
#TITLETRANSLIT:Tentei otoko no ko hen;
#SUBTITLETRANSLIT:;
#ARTISTTRANSLIT:Asaki;
#GENRE:;
#CREDIT:;
#MUSIC:Tentei otoko no ko hen.ogg;
#BANNER:Tentei otoko no ko hen.png;
#BACKGROUND:Tentei otoko no ko hen-bg.png;
#CDTITLE:./CDTitles/GuitarFreaksXG & DrumManiaXG.png;
#SAMPLESTART:71.027;
#SAMPLELENGTH:15.000;
#SELECTABLE:YES;
#OFFSET:1.168;
#BPMS:0.000=209.000;
#STOPS:61.000=1.005;
#TIMESIGNATURES:0.000=4=4,
20.000=6=4,
62.000=4=4,
102.000=6=4,
108.000=4=4,
148.000=6=4,
154.000=4=4,
194.000=6=4,
200.000=4=4,
372.000=5=4,
377.000=4=4,
449.000=5=4,
454.000=4=4
;
#BGCHANGES:-0.500=Tentei otoko no ko hen.mp4=1.000=0=0=0=StretchNoLoop====,
99999.000=-nosongbg-=1.000=0=0=0=StretchNoLoop====
;
#FGCHANGES:;

//--------------- dance-single - forcednature ----------------
#NOTEDATA:;
#STEPSTYPE:dance-single;
#DESCRIPTION:forcednature;
#DIFFICULTY:Beginner;
#METER:5;
#RADARVALUES:0,0,0,0,0;
#CREDIT:forcednature;
#NOTES:
0000
0000
0000
0000
,
0000
0000
0000
0000
,
0000
0000
0000
0000
,
0000
0000
0000
0000
,
0000
0000
0000
0000
,
0000
0001
0000
0000
0000
0000
0000
0000
,
0000
0000
0000
0000
0000
1000
0000
0000
,
0000
0000
0000
0000
,
0000
0010
0000
0000
0000
0000
0000
0000
,
0000
0000
0000
0000
0000
0100
0000
0000
,
0000
0001
0000
0000
0000
0000
0000
1000
,
0000
0000
0000
0000
0000
0000
0000
1000
,
0000
0000
0000
0100
0000
0000
0000
0010
,
0000
0000
0000
0010
0000
0000
0000
0001
,
0000
0000
0000
0001
0000
0000
0000
0100
,
0000
0000
1001
0000
,
0000
0000
1000
0000
,
0100
0000
1000
0000
,
0000
0000
0001
0000
,
0100
0000
0001
0000
,
0010
0000
0100
0000
,
0000
0000
1000
0000
,
0001
0000
1000
0000
,
0000
0000
0001
0000
,
0100
0000
0001
0000
,
0000
0000
0010
0000
,
0100
0000
1000
0000
,
0001
0000
0000
0000
,
0001
0000
0100
0000
,
0010
0000
0000
0000
,
1000
0000
0001
0000
,
1000
0000
0000
0000
,
0100
0000
0000
0000
,
0010
0000
0001
0000
,
0010
0000
0000
0000
,
0100
0000
1000
0000
,
0001
0000
0000
0000
,
0100
0000
0000
0000
,
0010
0000
1000
0000
,
0000
0000
0001
0000
,
0000
0000
0100
0000
,
0001
0000
0100
0000
,
0000
0000
0010
0000
,
1000
0000
0010
0000
,
0000
0000
1000
0000
,
0001
0000
1000
0000
,
1000
0000
0100
0000
,
0100
0000
0010
0000
,
0000
0001
0000
0001
,
0000
0000
0100
0000
,
0010
0000
0000
0000
,
1000
0000
0001
0000
,
1000
0000
0000
0000
,
0100
0000
0010
0000
,
0100
0000
0000
0000
,
0010
0000
0001
0000
,
0010
0000
0001
0000
,
0010
0000
0000
0000
,
0001
0000
0000
0000
,
0100
0000
0001
0000
,
0100
0000
0000
0000
,
0010
0000
0010
0000
,
1001
0000
0000
0000
,
1000
0000
1000
0000
,
1000
0000
0000
0000
,
0001
0000
0001
0000
,
0001
0000
0000
0000
,
0100
0000
0100
0000
,
0100
0000
0000
0000
,
0010
0000
0010
0000
,
1001
0000
0000
0000
,
1000
0000
0100
0000
,
1000
0000
0000
0000
,
0001
0000
0100
0000
,
0001
0000
0000
0000
,
0010
0000
0100
0000
,
0010
0000
0000
0000
,
0100
0000
0100
0000
,
0000
1001
0000
0000
,
1000
0000
0010
0000
,
1000
0000
0000
0000
,
0001
0000
0010
0000
,
0001
0000
0000
0000
,
1000
0000
0100
0000
,
1000
0000
0000
0000
,
0001
0000
0100
0000
,
0001
0000
0000
0000
,
0010
0000
0001
0000
,
0010
0000
0000
0000
,
0100
0000
1000
0000
,
0100
0000
0100
0000
,
0010
0000
0010
0000
,
0001
0000
1000
0000
,
0001
0000
0100
0000
,
0000
0010
0000
0000
,
1000
0000
1000
0000
,
0000
0001
0000
0010
,
0000
0001
0000
1000
,
0000
0001
0000
0000
,
0000
0100
0000
0100
,
0000
0010
0000
0000
,
0000
1000
0000
0001
,
0000
1000
0000
0100
,
0000
0010
0000
0000
,
0000
0001
0000
1000
,
0000
0010
0000
1000
,
0000
0100
0000
0010
,
0000
0001
0000
0100
,
0000
0000
0000
0010
,
0000
0010
0000
1000
,
0000
0001
0000
0010
,
0000
0100
0000
1000
,
0000
0001
0000
0001
,
0000
0001
0100
0000
;

//--------------- dance-single - forcednature ----------------
#NOTEDATA:;
#STEPSTYPE:dance-single;
#DESCRIPTION:forcednature;
#DIFFICULTY:Easy;
#METER:10;
#RADARVALUES:0,0,0,0,0;
#CREDIT:forcednature;
#NOTES:
0000
0000
0000
0000
,
0000
0000
0000
0000
,
0000
0000
0000
0000
,
0000
0000
0000
0000
,
0000
0000
0000
0000
,
0000
1000
0000
0000
1000
0000
0000
1000
,
0000
0100
0000
0010
0000
0001
0000
0000
,
0001
0000
0000
0001
0000
0100
0000
0010
,
0000
1000
0000
0000
1000
0000
0000
1000
,
0000
0001
0000
0010
0000
0001
0000
0000
,
0000
1001
0000
1000
0000
1000
0000
0010
,
0000
0100
0000
0001
0000
0100
0000
0010
,
0000
0100
0000
0001
1000
0001
0000
0010
,
0000
0100
0000
1000
0000
0100
0000
0010
,
0100
0000
1000
0000
1000
0001
0000
0100
,
0000
0000
0000
0000
2002
3003
0000
0000
0110
0000
0000
0000
0000
0000
0000
0000
,
0001
1000
0010
0100
,
0001
0010
0100
0000
,
1000
0001
0100
0010
,
1000
0000
0000
0000
0001
1000
0001
0000
,
0010
0010
0100
1000
,
0100
0010
0001
1000
,
0001
0100
0010
1000
,
0100
1000
0001
0100
,
0001
0000
0010
0000
0100
0010
0100
0000
,
1000
0001
0200
0000
,
0310
0000
0010
0000
1000
0001
1000
0000
,
0100
0000
0010
0001
,
1000
0000
0010
1000
,
0001
0100
0010
1000
,
0001
1000
0100
0010
,
0000
0110
0000
0100
,
0100
1000
0001
0100
,
0001
0010
0001
0000
,
1000
1000
0000
1001
,
0000
0110
0000
0001
,
0001
1000
0001
0010
,
0000
0100
1000
0001
,
1000
0001
1000
0001
1000
0000
0000
0000
,
1000
0010
0100
0000
,
0100
0001
0010
0000
,
0100
1000
0001
1000
,
0010
0100
0000
1001
,
1000
1000
0001
0010
,
0001
0100
0000
0010
,
1000
0001
0010
0100
,
0000
0100
1000
0010
,
1000
0010
0100
0010
,
0000
1001
0000
0001
,
0010
0100
1000
1000
,
0020
0000
0100
0000
,
0000
0000
0130
0000
,
0002
0000
1000
0000
,
0000
0000
1003
0000
,
0001
0100
0001
0000
,
0100
0010
0100
0000
,
0010
1000
0010
0000
,
1000
0001
1000
0000
,
0020
0000
0100
0000
,
0000
0000
0130
0000
,
2001
0000
0100
0000
,
3001
1000
0001
0000
,
0010
0001
0010
0001
,
1000
0100
1000
0000
,
0010
1000
0010
1000
,
0001
0100
0001
0000
,
0010
0100
0010
0100
,
1000
0001
1000
0000
,
0010
0100
0010
0100
,
0001
1000
0001
0000
,
0110
0000
1000
0100
,
0010
0001
1000
0000
,
0110
0000
0001
0100
,
0010
1000
0001
0000
,
1001
0000
1000
0100
,
1000
0010
1000
0000
,
0001
0100
0001
0010
,
0100
0100
1000
0010
,
0000
1001
0000
0001
,
0100
0010
1000
0000
,
1001
0000
1000
0100
,
0010
0001
0100
0000
,
0110
0000
0010
1000
,
0001
0010
0100
0000
,
0010
0010
0001
0001
,
1000
0001
0100
0000
,
0110
0000
0010
1000
,
0100
1000
0001
0000
,
1001
0000
1000
0010
,
0100
0001
0010
0000
,
0100
1000
0100
1000
,
0001
0100
0001
0100
,
0010
1000
0001
1000
,
0100
0010
0002
0000
,
0000
0103
0100
0001
,
0100
0010
1000
0001
,
0000
1000
0100
0010
,
0001
1000
0010
0100
,
0000
0000
0001
0000
0010
0000
0001
1000
,
0001
1000
0001
0000
0100
0000
0010
0000
,
0100
0001
1000
0100
,
0000
0010
0100
1000
,
0001
1000
0010
1000
,
0001
0010
0001
0100
,
0010
0000
1000
0000
0001
0000
0010
0100
,
0010
0100
1000
0000
1000
0000
0001
0100
,
0000
0000
0010
0000
1000
0010
0000
0000
,
1000
0000
0100
0000
0010
0001
0000
0000
,
1000
0000
0001
0000
0100
0001
0000
0000
,
1000
0000
0000
0100
0000
0000
0010
0000
,
0001
0100
0100
0110
,
0000
1001
0000
0000
0010
0000
0010
0000
,
2000
0001
0000
0001
,
0000
0000
3001
0000
1000
0001
0000
0000
;

//--------------- dance-single - forcednature ----------------
#NOTEDATA:;
#STEPSTYPE:dance-single;
#DESCRIPTION:forcednature;
#DIFFICULTY:Medium;
#METER:15;
#RADARVALUES:0,0,0,0,0;
#CREDIT:forcednature;
#NOTES:
0000
0000
0000
0000
,
0000
0000
0000
0000
,
0000
0000
0000
0000
,
0000
0000
0000
0000
,
0000
0000
0000
0000
,
0000
1000
0001
0000
0101
0000
0001
1000
,
0000
0100
0000
0010
0000
0001
1000
0000
,
1100
0000
1000
0001
0000
0100
0000
0010
,
0000
1000
0001
0000
0110
0000
0001
1000
,
0000
0010
0000
0100
0000
0001
1000
0000
,
0100
0010
0000
0001
1000
0001
1000
0010
,
0000
0100
0001
0100
0000
0010
1000
0000
,
1000
0001
0000
0010
0100
0010
0000
0110
,
0000
1100
0000
1000
0001
1000
0000
1010
,
0000
0010
0100
1000
0100
0001
0000
0010
,
0100
0000
0010
0000
0200
0300
0000
0000
1001
0000
0000
0000
1000
0000
0010
0000
,
0100
0001
0100
0010
0000
1000
0001
0010
,
0100
1000
0001
0000
0110
0000
0001
0100
,
0010
1000
0001
0010
0100
1000
0100
0010
,
0000
0001
1000
0000
0010
0010
0100
0000
,
0001
1000
0001
1000
1100
0000
0001
0010
,
0100
0010
0001
1000
0000
0010
0100
0002
,
0100
0000
1003
0000
0001
0010
0100
1000
,
0010
0100
1001
0000
1000
0100
0010
0001
,
0100
0100
0010
0000
1000
0001
0010
0100
,
0000
0100
1000
0010
2000
0000
0100
3000
,
1001
0000
0110
0000
0001
0001
1000
1000
,
0010
0000
1000
0000
0010
1000
0010
0000
,
0100
0000
0001
0000
0100
0001
0100
0000
,
0010
0000
1000
0000
0001
0010
0001
0000
,
1000
0100
1000
0000
0010
1000
0001
0000
,
0010
0100
0110
0000
0010
0001
0010
0001
,
1000
0000
0010
0100
0001
0100
0010
1000
,
0000
0001
0010
0100
1000
0010
1000
0000
,
0011
0000
0011
0000
0001
0100
1000
0000
,
0100
0001
0100
0000
0010
1000
0001
1000
,
0100
1000
0000
0010
0100
0001
0100
0000
,
0010
1000
0001
0000
0010
0001
1000
0000
,
0100
0001
0100
1000
0100
0000
0010
0000
,
0001
0100
0010
1000
0010
0000
0100
0001
,
0010
0100
1000
0000
0010
0100
0000
1001
,
0000
0100
0010
0000
1000
0001
0010
0000
,
0100
0001
0100
0000
0100
1000
0100
0000
,
0010
0010
0001
0001
1000
0000
0010
0100
,
0001
0100
0010
0100
0001
0010
0100
0000
,
1010
0001
0110
1001
,
1000
0100
0010
0000
0100
1000
0001
1000
,
0010
1000
0001
1000
0100
0000
0110
0000
,
0010
0001
0100
0000
0010
1000
1010
0000
,
0100
0000
0001
0000
0101
0000
0000
0000
1000
0000
0100
0000
0010
0000
0001
0010
,
0002
1000
0000
1000
,
0100
0000
1003
0000
0001
0010
0100
0000
,
2000
0001
0000
0001
,
0100
0000
3001
0000
1000
0010
0100
0001
,
0010
0100
1000
0000
0010
0100
1000
0100
,
0001
0010
0001
1000
0010
1000
0001
0000
,
0011
0000
0100
1000
0001
0100
0010
1000
,
0000
0100
0010
0000
0001
1000
0001
1000
,
0020
0100
1000
0100
,
1000
0000
0130
0000
0010
1000
0001
0000
,
0021
0100
0001
0130
,
0010
0000
0100
0000
1000
0000
0100
1000
0200
0000
0000
0000
0300
0000
0000
0000
,
1001
0000
0001
0100
0010
0100
1000
0100
,
0010
0100
0001
0100
0010
1000
0010
0100
,
0001
0000
1000
0100
0010
0100
0001
0100
,
0010
0100
1000
0100
0010
0001
0010
0100
,
1000
0000
0001
0010
0100
0010
1000
0010
,
0100
0010
0001
0010
0100
1000
0010
0100
,
0001
0000
1000
0010
0100
0010
0001
0010
,
0100
0010
1000
0010
0100
0001
0010
0100
,
1000
0000
0010
0001
0010
1000
0100
1000
,
0001
0000
0010
1000
0010
0001
0100
0001
,
1000
0000
0100
0010
1000
0010
0001
1000
,
0010
0000
0100
0010
0001
0010
1000
0001
,
0010
0000
0100
1000
0100
1000
0100
0001
,
0010
0000
0100
0001
0100
0001
0100
1000
,
0010
0000
0100
0001
0010
0001
1000
0000
,
0010
1000
0100
1000
0002
0000
0203
0000
,
0310
0000
1001
0000
1000
0100
0010
0001
,
0000
0100
1000
0100
0001
0000
0010
0000
,
1001
0000
0110
0000
0001
0100
0010
1000
,
0000
0001
0100
1000
0100
0100
0010
0000
,
1001
0000
1000
0100
1000
0001
0100
0001
,
0000
0010
0100
0000
1000
1000
0001
0000
,
0200
0000
0010
0000
0301
0100
0010
0000
,
1000
0001
0010
0100
1000
0010
0100
0000
,
1001
0000
0001
0010
0100
0010
0001
1000
,
0000
1000
0010
0100
0010
1000
0001
0000
,
1001
0000
1000
0100
0010
0100
1000
0001
,
0000
0100
1000
0000
0100
0001
0100
0001
,
0010
0000
0100
1000
0100
1000
0010
1000
,
0001
0010
0001
0100
0010
1000
0001
0000
,
0010
0000
0100
1000
0000
0001
0100
1000
,
0000
0000
0000
0100
0000
0000
0001
0000
0000
0000
0000
0000
0010
0000
0100
0000
0010
0000
0100
0000
0010
0000
0100
0000
,
1000
0000
1001
0000
0001
0100
0001
1000
,
0010
0000
1000
0100
0010
0001
0100
0010
,
0100
0000
0001
1000
0010
1000
0100
1000
,
0001
0100
1010
0100
,
0001
0000
1000
0001
1000
0000
0010
0100
,
0010
0100
1001
0000
1000
0100
0010
0001
,
0100
0010
1000
0100
1000
0010
0001
0010
,
0100
0001
0010
0100
1000
0001
0010
1000
,
0010
0001
0100
0010
1000
0001
0010
0100
,
1000
0010
0100
1000
0001
0010
0100
0001
,
1000
0100
0010
1000
0010
0001
0100
0000
,
0110
0000
1000
0001
1000
0001
0100
0010
,
0010
0000
1000
0100
0010
1001
0000
0001
,
0100
0000
0000
0010
0000
0000
1000
0000
0100
0000
1000
0000
0100
0000
0000
0010
0000
0000
0000
0000
0000
0001
0000
0000
,
0100
0000
0010
0001
0010
1000
0000
0100
,
0110
0000
0010
1001
0000
1000
0002
0000
,
0203
0000
0320
0000
2030
0000
3001
0010
,
0000
0100
1000
0000
1001
0000
0100
0010
,
1000
0002
0010
0000
0000
0000
0010
0000
,
0000
0000
0010
0000
0103
1001
0000
0000
;

//--------------- dance-single - forcednature ----------------
#NOTEDATA:;
#STEPSTYPE:dance-single;
#DESCRIPTION:forcednature;
#DIFFICULTY:Hard;
#METER:17;
#RADARVALUES:0,0,0,0,0;
#CREDIT:forcednature;
#NOTES:
0000
0000
0000
0000
,
0000
0000
0000
0000
,
0000
0000
0000
0000
,
0000
0000
0000
0000
,
0000
0000
0000
0000
,
0000
0001
0010
0000
1100
0000
0001
0010
,
0000
1000
0010
0001
0000
1000
0010
0000
,
0101
0000
1000
0010
0000
0001
0010
1000
,
0000
0100
0010
0000
1001
0000
0100
0010
,
0000
0001
0010
1000
0000
0010
0100
0000
,
1001
0000
0110
0000
0000
0000
0001
0100
0001
0100
0010
1000
0010
1000
0001
0000
,
0010
0100
0001
0100
1000
1000
0010
1000
,
0100
0001
0001
0100
0010
0001
0100
1001
,
0000
0110
1000
1000
0001
0100
1000
0001
,
0010
0000
1000
0000
1001
0000
0000
0000
0110
0000
0000
0000
1000
0100
1000
0100
,
0010
0000
0001
0000
2002
3003
0000
0000
1000
0000
0010
0000
0100
0000
0001
0000
,
0010
0100
0010
0001
0000
0100
0010
1000
,
0010
1000
0010
1000
0001
0000
0000
0000
0010
0000
0100
0000
1000
0000
0100
0000
,
0010
0001
0100
1000
0000
1000
0100
0100
,
0001
0000
0000
0000
0010
0000
0100
0000
1000
0100
1000
0100
0010
0000
0000
0000
,
0001
0100
0001
0100
0001
1000
0001
1000
0010
0000
0100
0000
1000
0000
1000
0000
,
0100
0001
1000
0010
0000
1000
0100
0001
,
0100
0100
0010
0000
0001
1000
0010
0010
,
0001
0010
0110
0000
1001
0000
0001
0010
,
0100
1000
0100
1000
0001
0000
0000
0000
0100
0000
0010
0000
1000
0000
0010
0000
,
0000
0100
1000
0100
0002
0000
0010
0003
,
1001
0000
0000
0000
0110
0000
1000
0000
0001
0010
0001
0010
0100
0010
0100
0010
,
0100
0000
0000
0000
1000
0000
0000
0000
0001
0010
0001
0010
0001
0000
0000
0000
,
0100
0000
0000
0000
0001
0000
0000
0000
1000
0010
1000
0010
1000
0000
0000
0000
,
0100
0000
0010
0000
0001
0000
0010
0000
0100
1000
0100
1000
0001
0000
0000
0000
,
0100
0010
0110
0000
0100
0000
1001
0000
,
1000
0010
1000
0010
0100
0000
0000
0000
0001
1000
0001
1000
0100
1000
0100
0000
,
0010
0001
0100
1000
0100
0001
0010
1000
,
0000
0000
1000
0000
0010
0000
0001
0000
0010
0100
0010
0100
1000
0000
0000
0000
,
1010
0100
0011
0000
0100
0010
1001
0000
,
0001
0100
0001
0100
0010
0000
0000
0000
1000
0000
0100
0000
0110
0000
0010
0000
,
0001
0000
0100
0000
0010
0000
0100
0000
0010
1000
0010
1000
0001
0000
0000
0000
,
0010
0100
1010
0000
0100
0010
0101
0000
,
0001
0110
1000
0110
0001
1000
0100
1000
,
0010
1000
0001
0100
0001
0010
1000
0010
,
0100
1000
0100
0000
0010
0001
0010
0000
0100
0000
0010
0000
0000
0000
1001
0000
,
0000
0100
0010
0100
1001
0000
0110
0000
,
0001
0100
0010
0000
1001
0000
0000
0000
1000
0100
0010
0000
1001
0000
0000
0000
,
1000
0100
1000
0100
1000
0001
1000
0001
0100
0000
0010
0000
1000
0000
0010
0000
,
0100
1000
0100
0001
0010
0001
1000
0010
,
1000
0100
0001
0000
1010
0000
0011
0000
,
1000
0010
1000
0001
0200
2300
3002
0023
,
0230
0000
2300
0000
3002
0000
0023
0000
1030
0000
0100
1000
0100
0000
0010
0100
,
0000
0010
0001
0000
1001
0000
0000
0000
0001
0100
0001
0100
0001
0000
0000
0000
,
1000
0100
1000
0100
1000
0000
0000
0000
0010
0100
0010
0100
0001
0100
0001
0100
,
0020
0000
1000
0000
0100
0100
0000
1000
,
0000
0000
0100
0000
0130
0000
0000
0000
0010
1000
0010
1000
0001
0000
0000
0000
,
0020
0000
0001
0000
0100
0100
0000
0001
,
0000
0000
0100
0000
0130
0000
0000
0000
0010
0001
0010
0000
0001
1000
0001
0000
,
0100
0100
1000
0001
0010
0010
1000
0001
,
0010
0100
0001
1000
0010
0100
1001
0000
,
0110
0000
1000
0100
1000
0010
0100
0001
,
0000
0000
0010
0000
0100
0000
0000
0000
1000
0001
1000
0001
0100
0010
0100
0010
,
2000
0000
0100
0000
0001
0001
0000
0100
,
0000
0001
0001
0000
3010
0000
1001
0000
,
0102
0000
1000
1000
0100
0100
1000
1003
,
0001
0010
0001
0010
0100
1000
0100
1000
0020
0000
0000
0000
0030
0000
0000
0000
,
1001
0000
1000
0100
0010
0001
0100
0010
,
0001
0000
0010
0000
0100
0000
0001
0000
1000
0010
1000
0010
0100
0000
0001
0000
,
1000
0000
0100
0010
1000
0010
0100
1000
,
0001
0000
0100
0000
1000
0000
0100
0000
0010
0000
1000
0001
0010
0000
0100
0000
,
1001
0000
0001
0010
0100
0001
0100
1000
,
0001
0000
0100
0000
1000
0000
0100
0000
0010
1000
0010
1000
0001
0000
0010
0000
,
1001
0000
1000
0010
0001
0010
0100
0001
,
0010
0100
0010
0100
1000
0000
0001
0000
0100
0010
0100
0010
1000
0000
0001
0000
,
0110
0000
1000
0001
0100
1000
0001
0010
,
1000
0000
0000
0000
1000
0000
0100
0000
0010
0001
0010
0001
1000
0000
0010
0000
,
1001
0000
0001
1000
0100
0001
1000
0010
,
0001
0000
0000
0000
0001
0000
0100
0000
0010
1000
0010
1000
0001
0000
0010
0000
,
1001
0000
1000
0100
0010
0100
0002
0000
,
2003
0000
0000
0000
3010
0000
0001
0000
0010
0100
0010
0100
1000
0000
0000
0000
,
1001
0000
0001
0100
1000
0100
0010
0010
,
1000
0100
1000
0000
0001
0000
0100
0000
0010
1000
0010
1000
0001
1000
0001
1000
,
0100
0010
1001
0000
0001
0010
1000
0010
,
0100
0000
1000
0000
1100
0000
0000
0000
0001
0010
0001
0010
0100
0000
0000
0000
,
1001
0000
0001
1000
0010
0001
0010
0100
,
0001
0010
0101
0000
1000
0001
0110
0000
,
1100
0100
0001
1000
0010
0001
1000
0001
,
0100
0000
1000
0000
0001
0000
0010
0000
0100
0010
0100
0010
1000
0000
0000
0000
,
1002
0000
0010
0000
0100
0103
0001
0010
,
0100
0010
1000
0000
0010
0001
0100
0010
,
1001
0000
1000
0010
0001
0010
0100
0101
,
0000
0000
0001
0000
0010
0000
0100
0000
1000
0100
1000
0100
0010
0000
0000
0000
,
1001
0000
0001
0010
1000
0010
0100
1100
,
0000
0000
0010
0000
1001
0000
0000
0000
1000
0010
1000
0010
0100
0001
0100
0001
,
1000
0000
0000
0000
1000
0000
0100
0000
0010
0100
0010
0100
0010
0000
0011
0000
,
0000
0000
0001
0000
0100
0000
1000
0000
0100
0010
0100
0010
1000
0000
0000
0000
,
0001
0010
1000
0001
0100
1000
0010
0110
,
0000
0000
0100
0000
1001
0000
0000
0000
0001
0010
0001
0010
0100
1000
0100
1000
,
0010
0100
0010
0100
0001
0000
0100
0000
0010
0000
0100
0000
1000
0000
0001
0000
,
0010
0000
0100
0000
0010
0000
1000
0000
0001
0000
0010
0000
0100
0010
0100
0010
,
0001
1000
0001
0100
0010
0010
1000
0001
,
0011
0010
0000
0100
1000
0001
0100
0010
,
1001
0000
0000
0000
1000
0100
1000
0100
0010
0000
0000
0000
0001
0100
0001
0100
,
0001
1000
0001
1000
0010
0000
0100
0000
1000
0000
0100
0000
0001
0000
0010
0000
,
0001
0000
0101
0000
0000
0000
0100
0000
0010
0000
1000
0000
0100
0010
0100
0010
,
0001
0000
0000
0000
0100
0010
0100
0010
1000
0000
0001
0000
0010
0000
0001
0000
,
1010
0000
0000
0000
0001
0000
0010
0000
0100
1000
0001
0000
1000
0000
0010
0000
,
0100
0001
1000
0000
0010
0100
0010
0100
0001
0100
0001
0100
0010
0000
1000
0000
,
0001
0000
0010
0000
0100
0000
1000
0000
0100
0010
0001
0000
0001
0100
0010
0000
,
1001
0000
0000
0000
0010
1000
0010
1000
0001
1000
0001
1000
0100
0000
0010
0000
,
1001
0000
0000
0000
1000
0000
0100
0010
0001
0000
0101
0000
0000
0000
1000
0000
,
0010
0000
0000
0100
0000
0000
0001
0000
0010
0000
0100
0000
1000
0000
0000
0110
0000
0000
0000
0000
0000
0010
0000
0000
,
1001
0000
1000
1000
0100
0011
0000
0001
,
1010
0000
0100
1001
0000
0001
0100
0100
,
0010
0000
0000
0000
1000
0000
0000
0000
0010
0000
0000
0000
1000
0000
0000
0000
0100
0000
0000
0000
0001
0000
0000
0000
1000
0000
0000
0000
0010
0000
0000
0000
0001
0000
0000
0000
0010
0000
0000
0001
0000
0000
0010
0000
0000
0100
0000
0000
,
1000
0000
0010
1000
0010
0100
0001
0000
0010
0100
0010
0000
0001
1000
0010
0000
,
1000
0001
0020
0000
0100
0000
0000
0000
0000
0000
0000
0000
0100
0000
0000
0000
,
0000
0000
0100
0030
0110
1001
0000
0000
;

//--------------- dance-double - forcednature ----------------
#NOTEDATA:;
#STEPSTYPE:dance-double;
#DESCRIPTION:forcednature;
#DIFFICULTY:Easy;
#METER:10;
#RADARVALUES:0,0,0,0,0;
#CREDIT:forcednature;
#NOTES:
00000000
00000000
00000000
00000000
,
00000000
00000000
00000000
00000000
,
00000000
00000000
00000000
00000000
,
00000000
00000000
00000000
00000000
,
00000000
00000000
00000000
00000000
,
00000000
00001000
00000000
00000000
00001000
00000000
00000000
00001000
,
00000000
01000000
00000000
00010000
00000000
00100000
00000000
00000000
,
00100000
00000000
00000000
00100000
00000000
00001000
00000000
00010000
,
00000000
00000010
00000000
00000000
00000010
00000000
00000000
00000010
,
00000000
00001000
00000000
00000100
00000000
00010000
00000000
00000000
,
00000000
00011000
00000000
00000000
00000000
00001000
00000000
00001000
,
00000000
01000000
00000000
00010000
00000000
01000000
00000000
00001000
,
00000000
00010000
00000000
00001000
00010000
00001000
00000000
00010000
,
00000000
00000100
00000000
00001000
00000000
00000100
00000000
00010000
,
00001000
00000000
00001000
00000000
00001000
00010000
00000000
00001000
,
00000000
00000000
00000000
00000000
00022000
00033000
00000000
00000000
00011000
00000000
00000000
00000000
00000000
00000000
00000000
00000000
,
01000000
00010000
10000000
00100000
,
10000000
00010000
00100000
00000000
,
00001000
00010000
00000010
00001000
,
00000010
00000000
00000000
00000000
00000100
00000001
00000100
00000000
,
00000001
00001000
00000001
00000010
,
00000100
00010000
00001000
00010000
,
00000010
00001000
00000010
00000100
,
00000001
00001000
00000100
00010000
,
00001000
00000000
00100000
00000000
00001000
00010000
00001000
00000000
,
01000000
00010000
20000000
00000000
,
30100000
00000000
00100000
00000000
10000000
00010000
10000000
00000000
,
01000000
00000000
00100000
00010000
,
00100000
00000000
00001000
00010000
,
00001000
00010000
00000100
00001000
,
00000100
00000010
00000001
00000010
,
00000000
00000110
00000000
00000100
,
00000100
00010000
00001000
00100000
,
00001000
00010000
00001000
00000000
,
01000000
01000000
00000000
01100000
,
00000000
10010000
00000000
10000000
,
10000000
01000000
10000000
00010000
,
00000000
00100000
00001000
00010000
,
00001000
00010000
00001000
00010000
00001000
00000000
00000000
00000000
,
00010000
00000100
00001000
00000000
,
00000100
00010000
00001000
00000000
,
01000000
00010000
10000000
00100000
,
10000000
00010000
00000000
10010000
,
10000000
10000000
01000000
00010000
,
00001000
00010000
00000000
00001000
,
00000010
00000001
00000000
00000010
,
00000001
00000100
00000010
00000010
,
00001000
00001000
00000000
00000010
,
00000000
00011000
00000000
00100000
,
00010000
00100000
01000000
01000000
,
20000000
00000000
01000000
00000000
,
00000000
00000000
31000000
00000000
,
00020000
00000000
00100000
00000000
,
00000000
00000000
00130000
00000000
,
00001000
00010000
00001000
00000000
,
00010000
00000100
00001000
00000000
,
00000100
00010000
00001000
00000000
,
00010000
00000010
00001000
00000000
,
00000002
00000000
00000100
00000000
,
00000000
00000000
00000103
00000000
,
00002000
00000000
00000010
00000000
,
00003010
00010000
00001000
00000000
,
00100000
00010000
00100000
00010000
,
10000000
01000000
10000000
00000000
,
00010000
01000000
00010000
01000000
,
00001000
00010000
00001000
00000000
,
00010000
00000100
00010000
00000100
,
00001000
00000001
00000010
00000000
,
00000100
00001000
00000100
00010000
,
00001000
00100000
00010000
00000000
,
10010000
00000000
10000000
01000000
,
00100000
00001000
00010000
00000000
,
00011000
00000000
00000010
00001000
,
00000001
00000100
00000010
00000000
,
00000110
00000000
00000100
00000001
,
00001000
00000001
00000010
00000000
,
00000100
00001000
00000100
00010000
,
00001000
00001000
01000000
00010000
,
00000000
10010000
00000000
10000000
,
00100000
10000000
01000000
00000000
,
01100000
00000000
00100000
00001000
,
00010000
00000100
00001000
00000000
,
00001001
00000000
00000001
00000100
,
00000001
00001000
00000010
00000000
,
00010000
00010000
00001000
00001000
,
00010000
00001000
01000000
00000000
,
01100000
00000000
00100000
10000000
,
01000000
10000000
00010000
00000000
,
10010000
00000000
10000000
00010000
,
01000000
00001000
00010000
00000000
,
00000100
00001000
00000100
00010000
,
00001000
00100000
00010000
00100000
,
00001000
00010000
00000010
00001000
,
00000010
00010000
00002000
00000000
,
00000000
01003000
01000000
00010000
,
01000000
00100000
10000000
00010000
,
00000000
10000000
01000000
00100000
,
00010000
00100000
00001000
00010000
,
00000000
00000000
00000010
00000000
00001000
00000000
00000001
00001000
,
00000001
00001000
00000100
00010000
,
00001000
00100000
00010000
00100000
,
00000000
00001000
00010000
00000010
,
00001000
00000010
00010000
00001000
,
01000000
00010000
00100000
01000000
,
10000000
00000000
00100000
00000000
01000000
00000000
00010000
01000000
,
00010000
00000000
00100000
00000000
00001000
00000000
00010000
00001000
,
00000000
00000000
00010000
00000000
00001000
00010000
00000000
00000000
,
00001000
00000000
00010000
00000000
00000100
00001000
00000000
00000000
,
00000100
00000000
00010000
00000000
00001000
01000000
00000000
00000000
,
01100000
00000000
00000000
00100000
00000000
00000000
10000000
00000000
,
00010000
00100000
00100000
00001000
,
00000000
00011000
00000000
00000000
00010000
00000000
00000010
00000000
,
00002000
00000001
00000000
00000001
,
00000000
00000000
00003001
00000000
00001000
00000001
00000000
00000000
;

//--------------- dance-double - forcednature ----------------
#NOTEDATA:;
#STEPSTYPE:dance-double;
#DESCRIPTION:forcednature;
#DIFFICULTY:Medium;
#METER:15;
#RADARVALUES:0,0,0,0,0;
#CREDIT:forcednature;
#NOTES:
00000000
00000000
00000000
00000000
,
00000000
00000000
00000000
00000000
,
00000000
00000000
00000000
00000000
,
00000000
00000000
00000000
00000000
,
00000000
00000000
00000000
00000000
,
00000000
00000100
00010000
00000000
00011000
00000000
00001000
00100000
,
00000000
00001000
00000000
00010000
00000000
00000010
00010000
00000000
,
00011000
00000000
00001000
01000000
00000000
00010000
00000000
00100000
,
00000000
01000000
10000000
00000000
00110000
00000000
10000000
01000000
,
00000000
00010000
00000000
00001000
00000000
00100000
00001000
00000000
,
00010000
00000100
00000000
00010000
00001000
00010000
00001000
00010000
,
00000000
00000010
00001000
00000010
00000000
00010000
00001000
00000000
,
00001000
00100000
00000000
00010000
00100000
00010000
00000000
00110000
,
00000000
01100000
00000000
01000000
10000000
01000000
00000000
10100000
,
00000000
00100000
01000000
00010000
01000000
00001000
00000000
00010000
,
00001000
00000000
00010000
00000000
00002000
00003000
00000000
00000000
00011000
00000000
00000000
00000000
00010000
00000000
00000100
00000000
,
00001000
00000100
00010000
00001000
00000000
00010000
00000010
00001000
,
00000001
00001000
00000010
00000000
00000110
00000000
00000100
00000001
,
00001000
00000001
00000010
00000100
00001000
00000100
00010000
00001000
,
00000000
00100000
00010000
00000000
10000000
10000000
00100000
00000000
,
10000000
01000000
10000000
01000000
00100000
00000000
00010000
00100000
,
00001000
00010000
00000100
00001000
00000000
00000001
00000100
00002000
,
00000000
00000000
00013000
00000000
00001000
00100000
00010000
00100000
,
00001000
00010000
00011000
00000000
01000000
00010000
10000000
00010000
,
00100000
00100000
01000000
00000000
00100000
00010000
00100000
00001000
,
00000000
00010000
00000010
00001000
00000020
00000000
00000000
00000030
,
00000110
00000000
00001001
00000000
00001000
00000100
00010000
00001000
,
01000000
00000000
00010000
00000000
00100000
00001000
00010000
00000000
,
00000100
00000000
00001000
00000000
00000010
00010000
00001000
00000000
,
00100000
00000000
00010000
00000000
01000000
00001000
00010000
00000000
,
00000100
00010000
00001000
00000000
00100000
00001000
00010000
00000000
,
00000010
00001000
00001010
00000000
00000001
00000100
00000001
00000100
,
00001000
00000000
00010000
00001000
01000000
00010000
01000000
00001000
,
00000000
00010000
00100000
01000000
00100000
10000000
00010000
00000000
,
00110000
00000000
00110000
00000000
00100000
01000000
10000000
00000000
,
01000000
00010000
00001000
00000000
00100000
00010000
00100000
01000000
,
00100000
00001000
00000000
00010000
00000010
00001000
00000010
00000000
,
00000100
00001000
00010000
00000000
00001000
00000100
00000001
00000000
,
00001000
00000010
00010000
00001000
01000000
00000000
00010000
00000000
,
00100000
01000000
10000000
00000000
01000000
00000000
00010000
00001000
,
00010000
00000100
00001000
00000000
00000001
00000100
00000000
00000110
,
00000000
00000010
00001000
00000000
00000100
00010000
00001000
00000000
,
00100000
00100000
00010000
00000000
01000000
00001000
00010000
00000000
,
00000010
00000010
00000100
00000010
00001000
00000000
00000001
00000010
,
00000100
00000010
00000001
00001000
00000100
00010000
00001000
00000000
,
00011000
00100000
01100000
01000000
,
10000000
00010000
00100000
00000000
00001000
00010000
00000010
00010000
,
00001000
00010000
00000100
00010000
00001000
00000000
00011000
00000000
,
00010000
00100000
10000000
00000000
00100000
10000000
01000000
00000000
,
10000000
00000000
01000000
00000000
00010000
00000000
00000000
00000000
01000000
00000000
00010000
00000000
00001000
00000000
00010000
00001000
,
00020000
00001000
00000000
00001000
,
00000100
00000000
00031000
00000000
00010000
00000010
00001000
00000000
,
00000002
00000010
00000000
00000010
,
00001000
00000000
00000013
00000000
00000001
00001000
00000100
00001000
,
00000010
00000000
00000110
00000000
00000100
00000001
00001000
00000010
,
00010000
00001000
00100000
00010000
00100000
00001000
00010000
00000000
,
00011000
00000000
00001000
01000000
00010000
01000000
00001000
00010000
,
00000000
00000100
00001000
00000000
00000001
00000100
00000001
00000100
,
00000020
00001000
00000100
00001000
,
00010000
00000000
00001030
00000000
00000010
00010000
00001000
00000000
,
00200000
00010000
00001000
00310000
,
00100000
01000000
10000000
01000000
00020000
00000000
00030000
00000000
,
00011000
00000000
00001000
00010000
00000010
00001000
00000010
00010000
,
00001000
00100000
00010000
00100000
00001000
00010000
01000000
10000000
,
00100000
00000000
10000000
00010000
01000000
00010000
00100000
01000000
,
00100000
00001000
00010000
00000100
00010000
00001000
00000010
00000001
,
00001000
00000000
00000010
00001000
00000010
00010000
00001000
00010000
,
00000100
00001000
00000100
00010000
00001000
00010000
00100000
10000000
,
00010000
00000000
00100000
01000000
10000000
01000000
00100000
00001000
,
00010000
00000010
00010000
00001000
00000010
00000100
00001000
00000001
,
00000100
00000000
00001000
00010000
00001000
01000000
00010000
01000000
,
00100000
00000000
10000000
01000000
00010000
01000000
00100000
00001000
,
00010000
00000000
00000010
00001000
00000100
00000001
00000100
00001000
,
00000020
00000230
00002300
00023000
,
00130000
00000000
01000000
00010000
01000000
00010000
10000000
00100000
,
00010000
00000000
00001000
00010000
00001000
00010000
00000100
00001000
,
00000010
00000000
00010000
00001000
00000010
00000100
00000010
00000000
,
00000100
00010000
00001000
00010000
00000020
00000000
00002030
00000000
,
00003001
00000000
00000110
00000000
00001000
00000100
00010000
00001000
,
00000000
01000000
00010000
00100000
01000000
00000000
10000000
00000000
,
10010000
00000000
01100000
00000000
00010000
01000000
00001000
00010000
,
00000000
00000100
00001000
00000001
00000100
00000100
00000010
00000000
,
00001001
00000000
00001000
00000100
00010000
00001000
00010000
00000010
,
00000000
00000100
00001000
00000000
00010000
00010000
00001000
00000000
,
02000000
00000000
00010000
00000000
03100000
10000000
00010000
00000000
,
10000000
01000000
00010000
00001000
00100000
00010000
00100000
00000000
,
00011000
00000000
00000010
00001000
00000010
00010000
00001000
01000000
,
00000000
00001000
00010000
00000100
00010000
00001000
00100000
00000000
,
10010000
00000000
10000000
00100000
10000000
00010000
01000000
00010000
,
00000000
00100000
01000000
00000000
00010000
00001000
00100000
00001000
,
00010000
00000000
00000010
00001000
00000100
00001000
00000001
00000100
,
00000001
00000010
00000100
00010000
00001000
00100000
00010000
00000000
,
01000000
00000000
10000000
01000000
00000000
00100000
10000000
00010000
,
00000000
00000000
00000000
10000000
00000000
00000000
01000000
00000000
00000000
00000000
00000000
00000000
00010000
00000000
00001000
00000000
00010000
00000000
00001000
00000000
00010000
00000000
00001000
00000000
,
00000000
00000000
00011000
00000000
00001000
00000010
00000100
00000010
,
00000001
00000000
00001000
00000010
00010000
00001000
00010000
00000100
,
00001000
00000000
00000001
00000100
00001000
00000000
00010000
00100000
,
10000000
01000000
00110000
10000000
,
00010000
00000000
01000000
00001000
00010000
00000000
00000010
00001000
,
00000010
00001000
00000001
00000000
00000100
00001000
00010000
00001000
,
01000000
00010000
01000000
00001000
00010000
00100000
01000000
00100000
,
00010000
00001000
00100000
00010000
00100000
00001000
00010000
00000010
,
00001000
00000010
00010000
00001000
00000010
00000001
00000100
00000001
,
00000010
00001000
00010000
00001000
01000000
00010000
00100000
10000000
,
00100000
00010000
10000000
00100000
00010000
00001000
00010000
00000000
,
00011000
00000000
00001000
00000010
00000100
00000010
00000001
00001000
,
00001000
00000000
00000001
00000100
00001000
00020000
00000000
00031000
,
00010000
00000000
00000000
00100000
00000000
00000000
10000000
00000000
00100000
00000000
01000000
00000000
00010000
00000000
00000000
20000000
00000000
00000000
00000000
00000000
00000000
31000000
00000000
00000000
,
00020000
00000000
00031000
00010000
00000100
00001000
00000000
00000001
,
00000011
00000000
00001000
00001100
00000000
00001000
00000002
00000000
,
00000203
00000000
00002300
00000000
00023000
00000000
00130000
01000000
,
00000000
00010000
01000000
00000000
10100000
00000000
10000000
01000000
,
00100000
00020000
01000000
00000000
00000000
00000000
01000000
00000000
,
00000000
00000000
01000000
00000000
00130000
10010000
00000000
00000000
;

//--------------- dance-double - forcednature ----------------
#NOTEDATA:;
#STEPSTYPE:dance-double;
#DESCRIPTION:forcednature;
#DIFFICULTY:Hard;
#METER:18;
#RADARVALUES:0,0,0,0,0;
#CREDIT:forcednature;
#NOTES:
00000000
00000000
00000000
00000000
,
00000000
00000000
00000000
00000000
,
00000000
00000000
00000000
00000000
,
00000000
00000000
00000000
00000000
,
00000000
00000000
00000000
00000000
,
00000000
00001000
00010000
00000000
00001010
00000000
00010000
00001000
,
00000000
01000000
00010000
01000000
00001000
00010000
00001000
00000000
,
00110000
00000000
00001000
00010000
00000000
00000100
00001000
00000100
,
00010000
00001000
00100000
00000000
01010000
00000000
00001000
00100000
,
00000000
00001000
00010000
00000010
00001000
00000100
00001000
00000000
,
00000010
00000000
00001001
00000000
00000000
00000000
00001000
00000100
00001000
00000100
00010000
00001000
00010000
00001000
00100000
00000000
,
00010000
00100000
01000000
00010000
01000000
10000000
00100000
10000000
,
01000000
00010000
00001000
00010000
00001000
00000010
00000100
00000110
,
00000000
00000010
00000001
00001000
00000001
00000100
00001000
00011000
,
00000000
00000000
00010000
00000000
00100000
00000000
00000000
00000000
01100000
00000000
00000000
00000000
01000000
00100000
01000000
00100000
,
01000000
00000000
00100000
00000000
20020000
30030000
00000000
00000000
10000000
00000000
01000000
00000000
00010000
00000000
00001000
00000000
,
00100000
00010000
00100000
00001000
00000000
00010000
00000010
00001000
,
00000010
00000100
00000010
00000100
00000001
00000000
00000000
00000000
00001000
00000000
00000100
00000000
00010000
00000000
00001000
00000000
,
00100000
01000000
00010000
01000000
00000000
10000000
00100000
10000000
,
01000000
00000000
00000000
00000000
00010000
00000000
00001000
00000000
00100000
00010000
00100000
00010000
00100000
00000000
00000000
00000000
,
00001000
00010000
00001000
00010000
00000100
00010000
00000100
00010000
00001000
00000000
00010000
00000000
00000100
00000000
00000010
00000000
,
00001000
00010000
00000010
00001000
00000000
00000001
00000100
00001000
,
00010000
00001000
00100000
00000000
00010000
10000000
01000000
00010000
,
00001000
00000000
00110000
00000000
00011000
00000000
00000010
00001000
,
00000001
00000100
00000001
00000100
00000010
00000000
00000000
00000000
00010000
00000000
00001000
00000000
00100000
00000000
00001000
00000000
,
00000000
00010000
00100000
10000000
00200000
00000000
01000000
00300000
,
01100000
00000000
00000000
00000000
10010000
00000000
00000000
00000000
00010000
01000000
00010000
01000000
00001000
01000000
00001000
01000000
,
00001000
00000000
00000000
00000000
00010000
00000000
00000000
00000000
00000100
00001000
00000100
00001000
00000100
00000000
00000000
00000000
,
00010000
00000000
00000000
00000000
00001000
00000000
00000000
00000000
01000000
00010000
01000000
00010000
01000000
00000000
00000000
00000000
,
00001000
00000000
00010000
00000000
00000100
00000000
00010000
00000000
00000010
00001000
00000010
00001000
00000010
00000000
00000000
00000000
,
00000100
00000001
00000011
00000000
00000100
00000000
00001001
00000000
,
00001000
00000100
00001000
00000100
00010000
00000000
00000000
00000000
00001000
00010000
00001000
00010000
00001000
01000000
00001000
01000000
,
00010000
10000000
00100000
10000000
01000000
00010000
00001000
00010000
,
00000000
00000000
00001000
00000000
00000010
00000000
00000001
00000000
00001000
00000100
00001000
00000100
00000010
00000000
00000000
00000000
,
00000001
00000100
00001000
00000000
00010000
00001000
00011000
00000000
,
01000000
00010000
01000000
00010000
10000000
00000000
00000000
00000000
01000000
00000000
00010000
00000000
00001000
00000000
00010000
00000000
,
00000000
00000000
00000100
00000000
00001000
00000000
00000100
00000000
00000010
00000001
00000010
00000001
00001000
00000000
00000000
00000000
,
00000010
00000100
00001000
00000000
00010000
00100000
01100000
00000000
,
01000000
00000000
10000000
00000000
01000000
00000000
00010000
00000000
10000000
00100000
10000000
00000000
00010000
00000000
01000000
00000000
,
00001000
00010000
00001000
00000010
00000100
00010000
00001000
00000010
,
00000001
00000010
00000001
00000000
00001000
00000100
00001000
00000000
00000001
00000000
00000100
00000000
00000000
00000000
00000110
00000000
,
00000000
00000010
00010000
00001000
00100000
00000000
01100000
00000000
,
01000000
10000000
01000000
00000000
00100000
00000000
00000000
00000000
00001000
00010000
00001000
00000000
00100000
00000000
00000000
00000000
,
00001000
00010000
00001000
00010000
00000100
00010000
00000100
00010000
00001000
00000000
00000010
00000000
00000001
00000000
00000010
00000000
,
00000100
00010000
00001000
00100000
00001000
00010000
00100000
10000000
,
01000000
10000000
00100000
00000000
01100000
00000000
00011000
00000000
,
00010000
00000100
00001000
00000100
00020000
00032000
00003020
00000032
,
00000203
00000000
00000302
00000000
00000023
00000000
00002030
00000000
00013000
00001000
00010000
00001000
00010000
00000000
00000000
00000000
,
00001000
00000000
00010000
00000000
00100000
00000000
00000000
00000000
10000000
00100000
10000000
00100000
10000000
00000000
00000000
00000000
,
00010000
01000000
00010000
01000000
00010000
00000000
00000000
00000000
00100000
00001000
00100000
00001000
00010000
00001000
00010000
00001000
,
02000000
00000000
00010000
00000000
00100000
00100000
00000000
10000000
,
00000000
00000000
00100000
00000000
03100000
00000000
00000000
00000000
00001000
00010000
00001000
00010000
00001000
00000000
00000000
00000000
,
00000020
00000000
00001000
00000000
00000100
00000100
00000000
00000001
,
00000000
00000000
00000100
00000000
00000130
00000000
00000000
00000000
00000010
00000001
00000010
00000000
00000001
00001000
00000001
00000000
,
00000100
00001000
00010000
00001000
00100000
00001000
00010000
00100000
,
10000000
00010000
01000000
00001000
00100000
01000000
01100000
00000000
,
00011000
00000000
00000100
00010000
00001000
00000010
00001000
00010000
,
00000000
00000000
00000100
00000000
00001000
00000000
00000000
00000000
00000001
00000100
00000001
00000100
00000010
00001000
00000010
00001000
,
00000002
00000000
00000100
00000000
00001000
00001000
00000000
00000010
,
00000000
00001000
00001003
00000000
00000001
00000100
00001000
00000000
,
00021000
00000000
00000010
00000010
00001000
00001000
00000100
00030100
,
00010000
00001000
00100000
00010000
00100000
00001000
00010000
00001000
02000000
00000000
00000000
00000000
03000000
00000000
00000000
00000000
,
10010000
00000000
10000000
01000000
00100000
00010000
01000000
00100000
,
00010000
00000000
00001000
00000000
00100000
00000000
00010000
00000000
00100000
00010000
00100000
00001000
00010000
00000000
00000100
00000000
,
00001000
00000000
00000001
00000100
00001000
00000100
00000001
00001000
,
00000010
00000000
00010000
00000000
00001000
00000000
01000000
00000000
00010000
00000000
01000000
00001000
00010000
00000000
00000010
00000000
,
00001010
00000000
00001000
00000001
00000100
00001000
00010000
00000010
,
00010000
00000000
00100000
00000000
01000000
00000000
00010000
00000000
10000000
00100000
10000000
00100000
01000000
00000000
00010000
00000000
,
00100000
00000000
01000000
00010000
00001000
00010000
00000100
00001000
,
00000010
00000100
00000010
00000100
00000001
00000000
00001000
00000000
00000100
00000010
00000100
00000010
00000001
00000000
00001000
00000000
,
00001001
00000000
00000001
00000100
00001000
00010000
00100000
01000000
,
00100000
00000000
00000000
00000000
10000000
00000000
01000000
00000000
00100000
00010000
00100000
00010000
00100000
00000000
00001000
00000000
,
00011000
00000000
00010000
00001000
00000010
00000100
00000010
00000001
,
00001000
00000000
00000000
00000000
00001000
00000000
00000010
00000000
00010000
00001000
00010000
00001000
00010000
00000000
00000100
00000000
,
00001100
00000000
00001000
00000001
00000010
00000001
00000200
00000000
,
00002300
00000000
00000000
00000000
00013000
00000000
00001000
00000000
01000000
00010000
01000000
00010000
01000000
00000000
00000000
00000000
,
10100000
00000000
10000000
00100000
10000000
01000000
00010000
01000000
,
00100000
00010000
00100000
00000000
00001000
00000000
00010000
00000000
00000010
00001000
00000010
00001000
00000010
00000100
00000010
00000100
,
00000001
00000000
00001100
00000000
00001000
00000001
00000100
00001000
,
00000000
00000000
00010000
00000000
00100000
00000000
10000000
00000000
00010000
00100000
00010000
00100000
01000000
00000000
00000000
00000000
,
10010000
00000000
10000000
01000000
00010000
00001000
00100000
00001000
,
00000000
00000010
00000100
00020000
00000000
00030010
00001010
00000000
,
00000001
00000100
00001000
00010000
01000000
10000000
01000000
00010000
,
00001000
00000000
00100000
00000000
00001000
00000000
00010000
00000000
00000100
00001000
00000100
00001000
00000100
00000000
00000000
00000000
,
00000012
00000000
00001000
00000000
00000100
00000103
00000001
00001000
,
00000100
00000010
00001000
00000000
00010000
01000000
00100000
00000000
,
10010000
00000000
10000000
00100000
01000000
00100000
00010000
00011000
,
00000000
00000000
00001000
00000000
00000010
00000000
00000100
00000000
00000010
00000001
00000010
00000001
00001000
00000000
00000000
00000000
,
00001001
00000000
00000001
00000100
00000010
00000100
00001000
00011000
,
00000000
00000000
00010000
00000000
01000000
00000000
00000000
00000000
10000000
00100000
10000000
00100000
01000000
00010000
01000000
00010000
,
10000000
00000000
00000000
00000000
01000000
00000000
00010000
00000000
00001000
00010000
00001000
00010000
00001000
00000000
00011000
00000000
,
00000000
00000000
00010000
00000000
00001000
00000000
00000010
00000000
00000100
00000010
00000100
00000010
00000001
00000000
00000000
00000000
,
00000100
00001000
00010000
00100000
01000000
00010000
10000000
10100000
,
00000000
00000000
00010000
00000000
01010000
00000000
00000000
00000000
00001000
00010000
00001000
00010000
00000100
00001000
00000100
00010000
,
00001000
00100000
00010000
00100000
00001000
00000000
00010000
00000000
00001000
00000000
01000000
00000000
00010000
00000000
10000000
00000000
,
00100000
00000000
00010000
00000000
00100000
00000000
10000000
00000000
00010000
00000000
00100000
00000000
00001000
00010000
00001000
00010000
,
00000100
00001000
00000001
00000010
00001000
00000010
00000001
00000100
,
00000110
00000000
00000010
00010000
00001000
01000000
00010000
00100000
,
01100000
00000000
00000000
00000000
01000000
10000000
01000000
10000000
00010000
00000000
00000000
00000000
01000000
00010000
01000000
00010000
,
01000000
00001000
01000000
00001000
00010000
00000000
00000010
00000000
00001000
00000000
00000010
00000000
00010000
00000000
00001000
00000000
,
00000010
00000000
00000110
00000000
00000000
00000000
00000100
00000000
00010000
00000000
00001000
00000000
00100000
00010000
00100000
00010000
,
10000000
00000000
00000000
00000000
00100000
01000000
00100000
01000000
00010000
00000000
10000000
00000000
01000000
00000000
00010000
00000000
,
00011000
00000000
00000000
00000000
00001000
00000000
00000010
00000000
00000100
00000010
00000001
00000000
00001000
00000000
00000100
00000000
,
00010000
00001000
00100000
00000000
00001000
00010000
00001000
00010000
00000010
00010000
00000010
00010000
00000010
00000000
00001000
00000000
,
00000010
00000000
00000100
00000000
00001000
00000000
00000100
00000000
00000001
00001000
00000010
00000000
00001000
00000010
00010000
00000000
,
00011000
00000000
00000000
00000000
00100000
00010000
00100000
00010000
00100000
00001000
00100000
00001000
00010000
00000000
00011000
00000000
,
00010010
00000000
00000000
00000000
00000010
00000000
00001000
00000001
00000100
00000000
00000110
00000000
00000000
00000000
00000010
00000000
,
00010000
00000000
00000000
00001000
00000000
00000000
00100000
00000000
00010000
00000000
00100000
00000000
01000000
00000000
00000000
01100000
00000000
00000000
00000000
00000000
00000000
01000000
00000000
00000000
,
10010000
00000000
10000000
01000000
00010000
00011000
00000000
00000010
,
00001001
00000000
00000100
00011000
00000000
01000000
00010000
00010000
,
00100000
00000000
00000000
00000000
01000000
00000000
00000000
00000000
10000000
00000000
00000000
00000000
01000000
00000000
00000000
00000000
00010000
00000000
00000000
00000000
00001000
00000000
00000000
00000000
00100000
00000000
00000000
00000000
00010000
00000000
00000000
00000000
00100000
00000000
00000000
00000000
00001000
00000000
00000000
00010000
00000000
00000000
00000010
00000000
00000000
00001000
00000000
00000000
,
00000010
00000000
00000100
00000001
00000100
00000010
00001000
00000000
00000100
00001000
00000100
00000000
00010000
00001000
00010000
00000000
,
00001000
00100000
00020000
00000000
10000000
00000000
00000000
00000000
00000000
00000000
00000000
00000000
10000000
00000000
00000000
00000000
,
00000000
00000000
10000000
00030000
10010000
01100000
00000000
00000000
;
