#VERSION:0.83;
#TITLE:たたえよ!絶対覇権アリーシャ帝国;
#SUBTITLE:;
#ARTIST:Blanc Bunny Bandit;
#TITLETRANSLIT:Tataeyo! Zettai haken Alisha teikoku;
#SUBTITLETRANSLIT:;
#ARTISTTRANSLIT:;
#GENRE:;
#CREDIT:;
#MUSIC:Tataeyo! Zettai haken Alisha teikoku.ogg;
#BANNER:Tataeyo! Zettai haken Alisha teikoku.png;
#BACKGROUND:Tataeyo! Zettai haken Alisha teikoku-bg.png;
#CDTITLE:./CDTitles/GITADORA EXCHAIN.png;
#SAMPLESTART:79.032;
#SAMPLELENGTH:15.000;
#SELECTABLE:YES;
#OFFSET:0.002;
#BPMS:0.000=99.900
,16.000=145.000
;
#STOPS:;
#TIMESIGNATURES:0.000=4=4;
#DISPLAYBPM:145.000;
#BGCHANGES:0.000=../BGAs/19po.mp4=1.000=0=0=0=StretchNoLoop====,
99999.000=-nosongbg-=1.000=0=0=0=StretchNoLoop====
;
#FGCHANGES:;

//--------------- dance-single - forcednature ----------------
#NOTEDATA:;
#STEPSTYPE:dance-single;
#DESCRIPTION:forcednature;
#CREDIT:forcednature;
#DIFFICULTY:Beginner;
#METER:1;
#RADARVALUES:0,0,0,0,0;
#NOTES:
0000
0000
0000
0000
,
0000
0000
0000
0000
,
0000
0000
0000
0000
,
0000
0000
0000
0000
,
1000
0000
0000
0000
,
0000
0000
0000
0000
,
1001
0000
0000
0000
,
0000
0000
0000
0000
,
0000
0000
0000
0000
,
0001
0000
0000
0000
,
0000
0000
0000
0000
,
0100
0000
0000
0000
,
0000
0000
0000
0000
,
0010
0000
0000
0000
,
0000
0000
0000
0000
,
1000
0000
0000
0000
,
0000
0000
0000
0000
,
0001
0000
0000
0000
,
0000
0000
0000
0000
,
1000
0000
0000
0000
,
0000
0000
0000
0000
,
0100
0000
0000
0000
,
0000
0000
0000
0000
,
0010
0000
0000
0000
,
0000
0000
0000
0000
,
0001
0000
0000
0000
,
0000
0000
0000
0000
,
1000
0000
0000
0000
,
0000
0000
0010
0000
,
0000
0000
0010
0000
,
0000
0000
0000
0000
,
0100
0000
0000
0000
,
0001
0000
0000
0000
,
1000
0000
0000
0000
,
0100
0000
0000
0000
,
0010
0000
0000
0000
,
1001
0000
0000
0000
,
0000
0000
0000
0000
,
1000
0000
0000
0000
,
0000
0000
0000
0000
,
0001
0000
0000
0000
,
0000
0000
0000
0000
,
0100
0000
0000
0000
,
0000
0000
0000
0000
,
0010
0000
0000
0000
,
0000
0000
0000
0000
,
1000
0000
0000
0000
,
0100
0000
0000
0000
,
1000
0000
0000
0000
,
0000
0000
0000
0000
,
0001
0000
0000
0000
,
0100
0000
0000
0000
,
0001
0000
0000
0000
,
0000
0000
0000
0000
,
0010
0000
0000
0000
,
0100
0000
0000
0000
,
0000
0000
0000
0000
,
1000
0000
0000
0000
,
0000
0000
0000
0000
,
0001
0000
0000
0000
,
0000
0000
0000
0000
,
0100
0000
0000
0000
,
0000
0000
0000
0000
,
0010
0000
0000
0000
,
0000
0000
0000
0000
,
1000
0000
0000
0000
,
0000
0000
0000
0000
,
0001
0000
0000
0000
,
0001
0000
0000
0000
,
1000
0000
0000
0000
,
0100
0000
0000
0000
;

//--------------- dance-single - forcednature ----------------
#NOTEDATA:;
#STEPSTYPE:dance-single;
#DESCRIPTION:forcednature;
#CREDIT:forcednature;
#DIFFICULTY:Easy;
#METER:4;
#RADARVALUES:0,0,0,0,0;
#NOTES:
0000
0000
0000
0000
,
0000
0000
0000
0000
,
0000
0000
0000
0000
,
1000
0000
0001
0000
,
0100
0100
0010
1000
,
0001
0000
0000
0000
,
2002
0000
0000
0000
,
3003
0000
0000
0000
,
0010
0000
0000
0000
,
0110
0000
0001
0000
,
1000
0000
0000
0000
,
0100
0000
1000
0000
,
0100
0000
0000
0000
,
0010
0000
0001
0000
,
1000
0000
0000
0000
,
0001
0000
0100
0000
,
0010
0000
1000
0000
,
0001
0000
1000
0000
,
0100
0000
0000
0000
,
0010
0000
0010
0000
,
0001
0000
0001
0000
,
0100
0000
0010
0000
,
1000
0000
0000
0000
,
0100
0000
0010
0000
,
0001
0000
0000
0000
,
1000
0000
0010
0000
,
0100
0000
0001
0000
,
1000
0000
0000
0000
,
0100
0000
0100
0000
,
0010
0000
0010
0000
,
0001
0000
0100
0000
,
0010
0000
0000
0000
,
1000
0000
1000
0000
,
0001
0000
0001
0000
,
0010
0000
0100
0000
,
0220
0000
0330
0000
,
2002
0000
0000
0000
,
3003
0000
0000
0000
,
1000
0000
0100
0000
,
1000
0000
0000
0000
,
0001
0000
0100
0000
,
0001
0000
0000
0000
,
1001
0000
1000
0000
,
0010
0000
0000
0000
,
0100
0000
0001
0000
,
0010
0000
0000
0000
,
0001
1000
0001
0000
,
1000
0001
1000
0000
,
0010
0000
0100
0000
,
0001
0000
0000
0000
,
0010
0100
0010
0000
,
0100
0010
0100
0000
,
1000
0000
0001
0000
,
0200
0000
0300
0000
,
1001
0000
0000
0000
,
1000
0000
0100
0000
,
0010
0000
0001
0000
,
1000
0000
0010
0000
,
0100
0000
0001
0000
,
2000
0000
3000
0000
,
0200
0000
0300
0000
,
0020
0000
0030
0000
,
0002
0000
0003
0000
,
1000
0000
1000
0000
,
0010
0000
0100
0000
,
0001
0000
0001
0000
,
0010
0000
0000
0000
,
0100
0000
0000
0000
,
1000
0000
0000
0000
,
0001
0000
0000
2002
,
0000
0000
3003
0000
;

//--------------- dance-single - forcednature ----------------
#NOTEDATA:;
#STEPSTYPE:dance-single;
#DESCRIPTION:forcednature;
#CREDIT:forcednature;
#DIFFICULTY:Medium;
#METER:10;
#RADARVALUES:0,0,0,0,0;
#NOTES:
0000
0000
0000
0000
,
0000
0000
0000
0000
,
0000
0000
0000
0000
,
0001
0100
0010
1000
,
0002
0010
1000
0103
,
1001
0000
0000
0000
,
0220
0000
0000
0330
,
2002
3003
0000
0000
,
0001
0000
0000
1000
0000
0000
0010
0000
,
0100
0000
1001
0000
1000
0100
1000
0010
,
0000
0100
0001
0000
0010
0000
0010
0000
,
0110
0000
1000
0000
0001
0100
0001
0000
,
1000
0000
0010
1000
0100
0000
0100
0000
,
0110
0000
0000
0000
0010
0000
0000
0000
0001
0000
0000
0001
0000
0000
1000
0000
,
0010
0100
0010
0000
0100
0000
0001
0010
,
0100
1001
1000
0001
,
0010
0000
0100
0000
0010
0000
0002
0000
0000
0000
0100
0000
0000
0103
0000
0000
,
1001
0000
0001
0100
0010
0000
1000
0000
,
0001
0000
1000
0100
0010
0000
0110
0000
,
0011
1100
1010
0101
,
0011
1010
1100
0101
,
0001
0100
0010
0000
1000
0000
0001
0000
,
1000
0000
0100
0000
0010
0000
0000
0010
0000
0000
0001
0000
0000
0001
0000
0000
,
0100
0001
1000
0000
0010
0000
0100
0000
,
0001
0000
1000
0000
0001
0000
0000
0001
0000
0000
0010
0000
0000
0010
0000
0000
,
0001
0000
0000
0100
0000
0000
0010
0000
2000
0000
0000
0000
3001
0000
0000
0000
,
1000
0000
0000
0100
0000
0000
0010
0000
0002
0000
0000
0000
1003
0000
0000
0000
,
2002
0000
0000
3003
,
0100
1001
0010
1001
,
1000
0110
0001
0110
,
0001
0000
0000
0001
0100
0000
0000
0100
0010
0000
0000
0010
1000
0000
0000
1000
,
0002
0100
1000
0013
,
0001
0000
0001
0000
0100
0010
1000
0000
,
0100
0000
0010
0000
0001
1000
0100
0000
,
2020
3030
0022
0033
,
0220
0000
0000
0330
,
2002
0000
0000
0000
,
3003
0002
0203
0320
,
1030
0000
0100
0010
0001
0000
0100
0100
,
0100
0000
0000
0000
0010
0000
1000
0000
0001
0000
0000
1000
0000
0000
0001
0000
,
0010
0000
0100
1000
0001
0000
0100
0100
,
0100
0000
0000
0000
0010
0000
1000
0000
0001
0000
0000
1000
0000
0000
0100
0000
,
0020
0000
0031
0010
0001
0000
0100
0000
,
0010
0000
0000
0000
0000
0000
1000
0000
0000
0000
0000
0000
0010
0000
0000
0000
0000
0000
0000
0000
0000
0010
0000
0000
0000
0000
0000
0000
0100
0000
0000
0000
0000
0000
0000
0000
0001
0000
0000
0000
0000
0000
0000
0000
0000
0000
0000
0000
,
1000
0000
0000
1000
0100
0000
0000
0100
0010
0000
0000
0010
0001
0000
0000
0000
,
0100
0010
1000
0000
2002
0000
3003
0000
,
0110
0000
0001
0100
0010
1000
0001
0000
,
0110
0000
1000
0100
0010
0001
1000
0000
,
0001
0100
1000
0000
1000
0100
0001
0000
,
0010
0100
1000
0100
0020
0000
0030
0000
,
0110
0000
0001
0010
0100
1000
0010
0000
,
0110
0000
1000
0010
0100
0001
0010
0000
,
0001
0010
1000
0000
1000
0010
0001
0000
,
2000
0010
0001
3100
,
0220
0000
0330
0000
,
1001
0000
0001
0000
0100
0010
1000
0000
,
0001
0010
0100
0010
0001
0000
0100
0000
,
0010
1000
0001
0000
0001
1000
0100
0000
,
0010
0000
0100
1000
0100
1000
0001
0000
,
0200
0000
0000
0300
0002
0000
0000
0003
,
2000
0000
0000
3000
0200
0000
0000
0300
,
0020
0032
2003
3002
,
0203
0320
2030
3000
,
1001
0000
0001
0100
0010
1000
0001
0000
,
0011
1010
2002
3003
,
0110
0000
1000
0100
0010
0001
0100
0000
,
1001
2000
3002
0203
,
0310
0000
0000
0010
0000
0000
1000
0000
0000
0010
0000
0000
0000
0000
0000
0000
,
0100
0000
0000
0100
0000
0000
0001
0000
0000
0100
0000
0000
0000
0000
0000
0000
,
0001
0001
0000
1000
1000
0000
0100
0020
,
0000
0000
0030
0000
;

//--------------- dance-single - forcednature ----------------
#NOTEDATA:;
#STEPSTYPE:dance-single;
#DESCRIPTION:forcednature;
#CREDIT:forcednature;
#DIFFICULTY:Hard;
#METER:14;
#RADARVALUES:0,0,0,0,0;
#NOTES:
0000
0000
0000
0000
,
0000
0000
0000
0000
,
0000
0000
0000
0000
,
0001
0100
1000
0100
0010
1000
0001
0010
,
0110
1100
0101
0110
,
1001
1000
0100
0001
,
0220
0000
0000
0330
,
2002
3003
0000
0000
,
0001
0100
0000
0001
0100
0000
0010
1000
0000
0010
1000
0000
0001
0010
0001
0000
,
0100
0000
0000
0000
0110
0000
0000
0000
0010
1000
0001
0000
1000
0100
0010
0000
,
0100
0000
1000
0000
0001
0000
0100
0001
0020
0000
0030
0000
0020
0000
0030
0000
,
1001
0000
0000
0000
0110
0000
0000
0001
0000
0100
0001
0000
0010
0000
0000
0100
,
1000
0000
0010
0000
0100
0000
0010
0000
1000
0001
0100
0000
0001
1000
0100
0000
,
0110
0000
0010
0000
0001
0000
0100
0000
0010
0000
0000
0100
0000
0000
1000
0000
,
0100
0000
0010
0000
1000
0000
0001
1000
0000
0000
0000
0000
0100
0000
0010
0000
,
0011
0000
0000
0000
1000
0000
0000
0010
0000
0000
0100
0000
0001
0000
0000
0000
,
0010
0000
0100
0000
0010
0000
0001
0000
0000
0000
0101
0000
0000
1010
0000
0000
,
1001
1000
0010
0001
0020
0000
0230
0000
,
0301
1000
0100
0010
0001
0000
1001
0000
,
1000
0100
0001
0100
1000
0010
0001
0010
,
0100
0000
1000
0000
0100
0000
0001
0000
0010
0000
1000
0000
0010
0100
0010
0000
,
0001
1000
0100
0000
0011
0000
1100
0000
,
1000
0000
0010
0000
0100
0001
0000
0100
0000
0000
0010
0000
1000
0001
0000
0000
,
1100
0000
1000
0000
0001
0000
0000
0100
0001
0000
0010
0000
0100
0000
0000
0000
,
0001
0000
0100
0000
0010
0001
0000
1000
0000
0000
0001
0100
0001
0100
0000
0000
,
1010
0000
0000
1000
0001
0000
0010
0000
0200
0000
0000
0000
1300
0000
0000
0000
,
0011
0000
0000
0001
1000
0000
0010
0000
0200
0000
0000
0000
0301
0000
0000
0000
,
0002
0000
0010
0000
0000
1000
0000
0000
0100
0000
0000
1000
0003
0000
0001
0000
,
0100
0000
0010
0000
1000
0001
1000
0000
0100
0000
0010
0000
0001
1000
0001
0000
,
0010
0000
0001
0000
1000
0100
1000
0000
0010
0000
1000
0000
0001
0100
0001
0000
,
1000
0000
0000
0100
0001
0000
0000
0100
1000
0000
0000
0100
0010
0000
0001
0000
,
0100
0001
0100
0000
0010
1000
0010
0000
1000
0100
1000
0000
0001
0010
0001
0000
,
1000
0000
0001
0000
0100
0001
0000
1000
0010
0000
1000
0001
1000
0000
0000
0000
,
0001
0000
1000
0000
0100
0000
0001
0000
0100
0000
1000
0000
0010
0100
0010
0000
,
1000
0001
0110
1000
,
2002
0000
0000
3003
,
0220
0000
0000
0330
,
1001
0200
0320
0130
,
1001
0000
0000
0001
0100
0000
0000
0100
0010
0000
0000
0010
1000
0001
0100
0010
,
1000
0000
0000
1000
0100
0000
0000
0100
1000
0000
0000
1000
0010
0000
0000
0000
,
0101
0000
0000
0001
1000
0000
0000
1000
0100
0000
0000
0100
0010
0001
1000
0100
,
0010
0000
0000
0010
0001
0000
0000
0001
1000
0000
0000
1000
0010
0000
0000
0000
,
0110
0000
0000
0000
0001
0000
1000
0000
0010
0000
1000
0100
0010
0000
0001
0000
,
0100
0000
0000
0000
0000
0000
1000
0000
0000
0000
0000
0000
0100
0000
0000
0010
0000
0000
0000
0000
0000
1000
0000
0000
0000
0000
0000
0000
0001
0000
0000
0000
0001
0000
0000
0000
0001
0000
0000
0000
0000
0000
0010
0000
0000
0000
0000
0000
,
0011
0000
1010
0000
0101
0000
1100
1000
,
0010
0000
0100
0001
0010
0000
0100
0000
2000
0000
0000
0000
3000
0000
0000
0000
,
1010
0000
0000
1000
0001
0000
0010
0000
0100
1000
0100
0000
0010
0001
0010
0000
,
0001
0000
0000
0100
0001
0000
0010
0000
0001
0100
0001
0000
1000
0010
1000
0000
,
1001
0000
0001
0000
0010
0000
0001
0100
0000
0010
0000
0001
0010
0000
0100
0000
,
0001
1000
0001
0000
1000
0000
0100
0010
0100
1000
0000
0010
1000
0000
0001
0000
,
0101
0000
0000
0100
0010
0000
1000
0000
0100
0010
0001
0000
0100
0010
1000
0000
,
0001
0000
0000
0100
0001
0000
1000
0000
0010
1000
0001
0000
0010
0001
1000
0000
,
1001
0001
0100
1000
0100
0010
0001
0010
,
2000
0100
0001
3010
,
2002
0000
3003
0000
,
1001
0000
0000
1000
0000
0001
0010
0000
0100
1000
0000
0010
0000
0100
0001
0000
,
1000
0100
0000
0010
0000
0001
0100
0001
0100
0010
0000
1000
0001
0000
0000
0000
,
1100
0000
1000
0010
0000
0010
0100
0000
0100
0001
0000
0001
0010
0000
0100
0000
,
0001
0000
0100
0000
1000
0001
1000
0001
1000
0100
1000
0100
0010
0000
0001
0000
,
0100
0000
0000
0100
0010
0000
0001
0000
0010
0000
0010
0000
2000
0000
0000
0000
,
3100
0000
0000
0100
0010
0000
1000
0000
0010
0000
0010
0000
0002
0000
0000
0000
,
0103
0000
1000
0000
0100
0000
0001
1000
0000
0100
0000
0001
0100
0000
0010
0000
,
0001
1000
0001
0000
0100
0000
0010
2000
0000
0000
0000
0000
3000
0000
0000
0000
,
1100
0000
1000
0001
0100
0000
0010
1000
0001
0000
0010
0100
1000
0000
0010
0000
,
0100
0000
0001
0010
0100
0000
0010
0001
0100
0000
0010
1000
0001
0000
0010
0000
,
0110
0000
0100
1000
0001
0000
1000
0010
0100
0000
0001
0010
0100
0000
0010
0000
,
2002
0000
0000
3003
0000
0000
0000
0000
,
0001
0100
0000
0100
1000
0000
1000
0100
0000
0100
0001
0000
1000
0001
1000
0001
,
1000
0100
0000
0100
0001
0000
0001
0100
0000
0100
1000
0000
0001
0100
0010
1000
,
0001
0010
0001
0100
0000
0000
0010
1000
0100
1000
0000
0000
0001
0010
0100
2000
,
0000
0000
3000
0000
;

//--------------- dance-double - forcednature ----------------
#NOTEDATA:;
#STEPSTYPE:dance-double;
#DESCRIPTION:forcednature;
#CREDIT:forcednature;
#DIFFICULTY:Easy;
#METER:4;
#RADARVALUES:0,0,0,0,0;
#NOTES:
00000000
00000000
00000000
00000000
,
00000000
00000000
00000000
00000000
,
00000000
00000000
00000000
00000000
,
00001000
00000000
00010000
00000000
,
00001000
00001000
00010000
00010000
,
00001000
00000000
00000000
00000000
,
00022000
00000000
00000000
00000000
,
00033000
00000000
00000000
00000000
,
01000000
00000000
00000000
00000000
,
00010000
00000000
00010000
00000000
,
10000000
00000000
00000000
00000000
,
01000000
00000000
01000000
00000000
,
10000000
00000000
00000000
00000000
,
00010000
00000000
01000000
00000000
,
00010000
00000000
00000000
00000000
,
00100000
00000000
00010000
00000000
,
00100000
00000000
00001000
00000000
,
00010000
00000000
00001000
00000000
,
00010000
00000000
00000000
00000000
,
00001000
00000000
00001000
00000000
,
00010000
00000000
00010000
00000000
,
00000100
00000000
00001000
00000000
,
00000100
00000000
00000000
00000000
,
00000010
00000000
00000001
00000000
,
00000010
00000000
00000000
00000000
,
00000100
00000000
00001000
00000000
,
00000100
00000000
00010000
00000000
,
00001000
00000000
00000000
00000000
,
01000000
00000000
01000000
00000000
,
00010000
00000000
00010000
00000000
,
10000000
00000000
10000000
00000000
,
01000000
00000000
00000000
00000000
,
00100000
00000000
00100000
00000000
,
00010000
00000000
00010000
00000000
,
01000000
00000000
00001000
00000000
,
00020000
00000000
00030000
00000000
,
00022000
00000000
00000000
00000000
,
00033000
00000000
00000000
00000000
,
00001000
00000000
00010000
00000000
,
00001000
00000000
00000000
00000000
,
00010000
00000000
00000100
00000000
,
00010000
00000000
00000000
00000000
,
00001000
00000000
01000000
00000000
,
00001000
00000000
00000000
00000000
,
01000000
00000000
00010000
00000000
,
01000000
00000000
00000000
00000000
,
00100000
00000000
00100000
00000000
,
10000000
00000000
10000000
00000000
,
01000000
00000000
00100000
00000000
,
00010000
00000000
00000000
00000000
,
00100000
00000000
00100000
00000000
,
00001000
00000000
00001000
00000000
,
00010000
00000000
00000010
00000000
,
00002000
00000000
00003000
00000000
,
00001001
00000000
00000000
00000000
,
00000001
00000000
00000100
00000000
,
00000000
00000000
00000100
00000000
,
00000010
00000000
00001000
00000000
,
00000000
00000000
00001000
00000000
,
00000200
00000000
00000300
00000000
,
00020000
00000000
00030000
00000000
,
00002000
00000000
00003000
00000000
,
00020000
00000000
00030000
00000000
,
00001000
00000000
00001000
00000000
,
01000000
00000000
01000000
00000000
,
00010000
00000000
00010000
00000000
,
10000000
00000000
00000000
00000000
,
01000000
00000000
00000000
00000000
,
00100000
00000000
00000000
00000000
,
00010000
00000000
00000000
20020000
,
00000000
00000000
30030000
00000000
;

//--------------- dance-double - forcednature ----------------
#NOTEDATA:;
#STEPSTYPE:dance-double;
#DESCRIPTION:forcednature;
#CREDIT:forcednature;
#DIFFICULTY:Medium;
#METER:10;
#RADARVALUES:0,0,0,0,0;
#NOTES:
00000000
00000000
00000000
00000000
,
00000000
00000000
00000000
00000000
,
00000000
00000000
00000000
00000000
,
00001000
00010000
00000100
00001000
,
00000002
00000100
00001000
00000013
,
00001001
00000000
00000000
00000000
,
00000220
00000000
00000000
00000330
,
00002002
00003003
00000000
00000000
,
00001000
00000000
00000000
00001000
00000000
00000000
00000100
00000000
,
00010000
00000000
00011000
00000000
00001000
01000000
00010000
01000000
,
00000000
01000000
00100000
00000000
10000000
00000000
10000000
00000000
,
10010000
00000000
00010000
00000000
00100000
00010000
00100000
00000000
,
00001000
00000000
00010000
00000010
00001000
00000000
00001000
00000000
,
00001001
00000000
00000000
00000000
00000001
00000000
00000000
00000000
00000010
00000000
00000000
00000010
00000000
00000000
00000000
00000000
,
00000100
00001000
00000100
00000000
00010000
00000000
00001000
01000000
,
00010000
00010000
10000000
10000000
,
01000000
00100000
01000000
00200000
00000000
00000000
00300000
00000000
,
10010000
00000000
00010000
01000000
00001000
00000000
00010000
00000000
,
00000100
00000000
00001000
00000001
00000100
00000000
00000010
00000000
,
00001000
00000100
00010000
00000000
00001000
01000000
00010000
00000000
,
00100000
00001000
00010000
00000000
00000010
00010000
00001000
00000000
,
01000000
00001000
00010000
00000000
00001000
00000000
00100000
00000000
,
00010000
00000000
10000000
00000000
00010000
00000000
00000000
00010000
00000000
00000000
00000000
00000000
00000000
00000000
00000000
00000000
,
01000000
00001000
00010000
00000000
00000100
00000000
00001000
00000000
,
00000001
00000000
00000100
00000000
00000010
00000000
00000000
00000010
00000000
00000000
00000000
00000000
00000000
00000000
00000000
00000000
,
00001000
00000000
00000000
00000100
00000000
00000000
00010000
00000000
00002000
00000000
00000000
00000000
00103000
00000000
00000000
00000000
,
00010000
00000000
00000000
01000000
00000000
00000000
00001000
00000000
00020000
00000000
00000000
00000000
00030010
00000000
00000000
00000000
,
00022000
00000000
00000000
00033000
,
01000000
00011000
00100000
00011000
,
00000100
00011000
00000010
00011000
,
00020000
00230000
20300000
32000000
,
03020000
00001000
00000010
00031000
,
00010000
00000000
00000100
00000000
00001000
00000100
00001000
00000000
,
00000100
00000000
00010000
00000000
00001000
00010000
00001000
00000000
,
02002000
03003000
00020200
00030300
,
00022000
00000000
00000000
00033000
,
00022000
00000000
00000000
00000000
,
00033000
00002000
02003000
03020000
,
10030000
00000000
00010000
00100000
00010000
00000000
10000000
10000000
,
10000000
00000000
00000000
00000000
00100000
00000000
10000000
00000000
00010000
00000000
00000000
01000000
00000000
00000000
00001000
00000000
,
00010000
00000000
00000100
00001000
00000100
00000000
00000010
00000010
,
00000010
00000000
00000000
00000000
00000001
00000000
00001000
00000000
00000001
00000000
00000000
00000100
00000000
00000000
00000010
00000000
,
00002000
00000000
00003010
00010000
00001000
00000000
00100000
00000000
,
00010000
00000000
00000000
00000000
00000000
00000000
10000000
00000000
00000000
00000000
00000000
00000000
00010000
00000000
00000000
00000000
00000000
00000000
00000000
00000000
00000000
00010000
00000000
00000000
00000000
00000000
00000000
00000000
01000000
00000000
00000000
00000000
00000000
00000000
00000000
00000000
01000000
00000000
00000000
00000000
00000000
00000000
00000000
00000000
00000000
00000000
00000000
00000000
,
00020000
00230000
00302000
00023000
,
00030100
00001000
00000001
00000000
00002002
00000000
00003003
00000000
,
00001001
00000000
00001000
00000100
00010000
00001000
00100000
00000000
,
10010000
00000000
00010000
01000000
00001000
00010000
00000010
00000000
,
00001000
00000100
00010000
00000000
00001000
01000000
00010000
00000000
,
00100000
00010000
01000000
00010000
20000000
00000000
30000000
00000000
,
10010000
00000000
00010000
01000000
00001000
00010000
00000010
00000000
,
00001001
00000000
00001000
00000100
00010000
00001000
00100000
00000000
,
00010000
01000000
00001000
00000000
00010000
00000100
00001000
00000000
,
00000002
00000100
00001000
00000013
,
00000220
00000000
00000330
00000000
,
00001001
00000000
00001000
00000000
00000100
00010000
00001000
00000000
,
01000000
00010000
01000000
00100000
10000000
00000000
00010000
00000000
,
10000000
01000000
00100000
00000000
00100000
01000000
10000000
00000000
,
00010000
00000000
01000000
00001000
01000000
00001000
00010000
00000000
,
00000200
00000000
00000000
00000300
00020000
00000000
00000000
00030000
,
00002000
00000000
00000000
00003000
02000000
00000000
00000000
03000000
,
00020000
20030000
30020000
00230000
,
02300000
23000000
30020000
00030000
,
10010000
00000000
10000000
01000000
00100000
00001000
00010000
00000000
,
00010100
00011000
00020020
00030030
,
00000110
00000000
00000100
00000001
00001000
00000001
00000010
00000000
,
00000110
00000200
00020300
00032000
,
01003000
00000000
00000000
01000000
00000000
00000000
00001000
00000000
00000000
00001000
00000000
00000000
00000000
00000000
00000000
00000000
,
00010000
00000000
00000000
00010000
00000000
00000000
00000100
00000000
00000000
00000100
00000000
00000000
00000000
00000000
00000000
00000000
,
00001000
00001000
00000000
00000001
00000001
00000000
00000100
00000020
,
00000000
00000000
00000030
00000000
;

//--------------- dance-double - forcednature ----------------
#NOTEDATA:;
#STEPSTYPE:dance-double;
#DESCRIPTION:forcednature;
#CREDIT:forcednature;
#DIFFICULTY:Hard;
#METER:14;
#RADARVALUES:0,0,0,0,0;
#NOTES:
00000000
00000000
00000000
00000000
,
00000000
00000000
00000000
00000000
,
00000000
00000000
00000000
00000000
,
00001000
00010000
00100000
10000000
01000000
00100000
00001000
00010000
,
00010100
01001000
00101000
00010010
,
00022000
00033000
00000000
00000000
,
02200000
00000000
00000000
03300000
,
00022000
00033000
00000000
00000000
,
00000100
00001000
00000000
00000100
00001000
00000000
00000001
00000010
00000000
00000001
00000010
00000000
00000001
00000100
00000001
00000000
,
00000010
00000000
00000000
00000000
00000110
00000000
00000000
00000000
00000100
00010000
00001000
00000000
00100000
00001000
00010000
00000000
,
00100000
00000000
10000000
00000000
00010000
00000000
00100000
01000000
20000000
00000000
30000000
00000000
20000000
00000000
30000000
00000000
,
10100000
00000000
00000000
00000000
01010000
00000000
00000000
00010000
00000000
01000000
00001000
00000000
00010000
00000000
00000000
00000010
,
00010000
00000000
00001000
00000000
00000010
00000000
00000001
00000000
00001000
00000001
00000100
00000000
00000001
00001000
00000100
00000000
,
00000110
00000000
00000010
00000000
00000001
00000000
00000100
00000000
00000010
00000000
00000000
00010000
00000000
00000000
00001000
00000000
,
01000000
00000000
00100000
00000000
10000000
00000000
01000000
00100000
00000000
00000000
00000000
00000000
00010000
00000000
01000000
00000000
,
01001000
00000000
00000000
00000000
00001000
00000000
00000000
00010000
00000000
00000000
00000100
00000000
00000010
00000000
00000000
00000000
,
00000001
00000000
00000100
00000000
00001000
00000000
00010000
00000000
00000000
00000000
00010100
00000000
00000000
00101000
00000000
00000000
,
00011000
00001000
01000000
00010000
00200000
00000000
02300000
00000000
,
03010000
00001000
00000010
00000100
00001000
00000000
00001001
00000000
,
00000001
00000100
00001000
00010000
00000100
00001000
00010000
00100000
,
00001000
00000000
00010000
00000000
01000000
00000000
10000000
00000000
00100000
00000000
00010000
00000000
00001000
00010000
00001000
00000000
,
00010000
01000000
00100000
00000000
00001000
00000100
00000010
00000000
,
00001000
00000000
00000001
00000000
00000100
00001000
00000000
00010000
00000000
00000000
00100000
00000000
10000000
00010000
00000000
00000000
,
10000000
00000000
01000000
00000000
00010000
00000000
00000000
00001000
00010000
00000000
00001000
00000000
00000010
00000000
00000000
00000000
,
00000001
00000000
00000100
00000000
00000010
00001000
00000000
00020000
00000000
00000000
01030000
00100000
01000000
00100000
00000000
00000000
,
10100000
00000000
00000000
10000000
01000000
00000000
00010000
00000000
00002000
00000000
00000000
00000000
00003010
00000000
00000000
00000000
,
00000011
00000000
00000000
00000001
00000100
00000000
00001000
00000000
00020000
00000000
00000000
00000000
00130000
00000000
00000000
00000000
,
00012000
00000000
00000010
00000000
00010000
00000000
01003000
00001000
,
00010000
00000000
00000100
00000000
00001000
00000001
00001000
00000000
00000010
00000000
00000100
00000000
00001000
00010000
00001000
00000000
,
00100000
00000000
00010000
00000000
10000000
00100000
10000000
00000000
01000000
00000000
00010000
00000000
00001000
00010000
00001000
00000000
,
00000100
00000000
00000000
00000001
00001000
00000000
00000000
00000100
00010000
00000000
00000000
00001000
01000000
00000000
00100000
00000000
,
10000000
01000000
00010000
00001000
01000000
00010000
00001000
00000010
,
00000100
00000000
00001000
00000000
00010000
00100000
00000000
00010000
00001000
00000000
01000000
00010000
01000000
00000000
00000000
00000000
,
00100000
00000000
10000000
00000000
01000000
00000000
00010000
00000000
00001000
00000000
00000100
00000000
00000001
00001000
00000001
00000000
,
00000100
00010000
01000000
00001000
,
00022000
00000000
00000000
00033000
,
00000220
00000000
00000000
00000330
,
00001001
00000002
00000203
00002300
,
00013000
00000000
00000000
00010000
00100000
00000000
00000000
00100000
10000000
00000000
00000000
10000000
01000000
00100000
00010000
01000000
,
00010000
00000000
00000000
00010000
00100000
00000000
00000000
00100000
00001000
00000000
00000000
00001000
00000010
00000000
00000000
00000000
,
00000110
00000000
00000000
00000100
00001000
00000000
00000000
00001000
00000001
00000000
00000000
00000001
00000100
00000010
00001000
00000001
,
00000010
00000000
00000000
00000010
00001000
00000000
00000000
00001000
00010000
00000000
00000000
00010000
01000000
00000000
00000000
00000000
,
01100000
00000000
00000000
00000000
10000000
00000000
01000000
00000000
00010000
00000000
00001000
00100000
00001000
00000000
00010000
00000000
,
00100000
00000000
00000000
00000000
00000000
00000000
00010000
00000000
00000000
00000000
00000000
00000000
00001000
00000000
00000000
00000100
00000000
00000000
00000000
00000000
00000000
00000001
00000000
00000000
00000000
00000000
00000000
00000000
00001000
00000000
00000000
00000000
00000100
00000000
00000000
00000000
00000001
00000000
00000000
00000000
00000000
00000000
00000100
00000000
00000000
00000000
00000000
00000000
,
00010100
00101000
00010010
01001000
,
00001000
00000000
00100000
00010000
00100000
00000000
00001000
00000000
00020000
00000000
00000000
00000000
00030000
00000000
00000000
00000000
,
00100000
00000000
00000000
10000000
00010000
00000000
00100000
00000000
01000000
00000000
00010000
00000000
00000100
00000000
00000000
00000000
,
00001000
00000000
00000000
00000001
00000100
00000000
00000010
00000000
00010000
00000000
01000000
00000000
00100000
00000000
00000000
00000000
,
00001000
00000000
00010000
00000000
00100000
00000000
10000000
00010000
00000000
00100000
00000000
00010000
01000000
00000000
00001000
00000000
,
00010000
00000000
00000100
00000000
00000010
00000000
00000001
00000000
00000100
00001000
00000000
00010000
00100000
00000000
10000000
00000000
,
10010000
00000000
00000000
10000000
01000000
00000000
00010000
00000000
00000010
00000000
00001000
00000000
00000001
00000000
00000000
00000000
,
00000100
00000000
00000000
00001000
00010000
00000000
01000000
00000000
00001000
00000000
01000000
00000000
10000000
00000000
00000000
00000000
,
10010000
10000000
00010000
00100000
00001000
00000100
00000001
00001000
,
00000200
00000001
00000010
00001300
,
00022000
00000000
00033000
00000000
,
01001000
00000000
00000000
00001000
00000000
00100000
00010000
00000000
01000000
00100000
00000000
10000000
00000000
01000000
00010000
00000000
,
00001000
00010000
00000000
00000100
00000000
00001000
00000001
00001000
00000001
00000100
00000000
00000010
00001000
00000000
00000000
00000000
,
00011000
00000000
00010000
00100000
00000000
00100000
01000000
00000000
01000000
00001000
00000000
00001000
00010000
00000000
00000100
00000000
,
00000010
00000000
00000001
00000000
00000100
00000010
00000000
00000010
00010000
00001000
00010000
00001000
00010000
00000000
01000000
00000000
,
10000000
00000000
00000000
10000000
00100000
00000000
00010000
00000000
00000100
00000000
00000010
00000000
00000001
00000000
00000000
00000000
,
00000001
00000000
00000000
00000001
00000010
00000000
00001000
00000000
01000000
00000000
00100000
00000000
10000000
00000000
00000000
00000000
,
01000000
00000000
00010000
00000000
00001000
00000000
00000010
00000001
00000000
00000001
00000000
00000001
00000100
00000000
00000010
00000000
,
00010000
00001000
00010000
00000000
00100000
00000000
10000000
00020000
00000000
00000000
00000000
00000000
00030000
00000000
00000000
00000000
,
00100000
00000000
00001000
00010000
00001000
00000000
00010000
00000100
00010000
00000000
00000100
00001000
00000100
00000000
00000000
00000000
,
00000010
00000000
00000001
00000100
00001000
00000000
00010000
00100000
00010000
00000000
00000000
00000000
00001000
00000000
00010000
00000000
,
00011000
00000000
00001000
01000000
00001000
00000000
01000000
00010000
01000000
00000000
00010000
10000000
00010000
00000000
00000000
00000000
,
00220000
00000000
00000000
00330000
00000000
00000000
00000000
00000000
,
00001000
00010000
00000000
00001000
00000100
00000000
00001000
00010000
00000000
00001000
00000010
00000000
00001000
00010000
00001000
00000000
,
00010000
00001000
00000000
00010000
01000000
00000000
00010000
00001000
00000000
00010000
00100000
00000000
00010000
00001000
00010000
00000000
,
00001000
00010000
00001000
01000000
00000000
00000000
00100000
10000000
00010000
01000000
00000000
00000000
00001000
00010000
00000100
00002000
,
00000000
00000000
00003000
00000000
;
