#VERSION:0.83;
#TITLE:√太陽系◎ドーナツ化計画∞∀∞;
#SUBTITLE:;
#ARTIST:uno feat.ちよこ(IOSYS);
#TITLETRANSLIT:Taiyoukei donuts ka keikaku;
#SUBTITLETRANSLIT:;
#ARTISTTRANSLIT:uno feat.Chiyoko(IOSYS);
#GENRE:;
#CREDIT:;
#MUSIC:Taiyoukei donuts ka keikaku.ogg;
#BANNER:Taiyoukei donuts ka keikaku.png;
#BACKGROUND:Taiyoukei donuts ka keikaku-bg.png;
#CDTITLE:./CDTitles/pnm Lapistoria.png;
#SAMPLESTART:80.584;
#SAMPLELENGTH:15.000;
#SELECTABLE:YES;
#OFFSET:0.245;
#BPMS:0.000=190.000;
#STOPS:234.000=1.579;
#BGCHANGES:0.000=../BGAs/19po.mp4=1.000=0=0=0=StretchNoLoop====,
99999.000=-nosongbg-=1.000=0=0=0=StretchNoLoop====
;
#FGCHANGES:;

//--------------- dance-single - forcednature ----------------
#NOTEDATA:;
#STEPSTYPE:dance-single;
#DESCRIPTION:forcednature;
#DIFFICULTY:Beginner;
#METER:3;
#RADARVALUES:0,0,0,0,0;
#OFFSET:0.245;
#BPMS:0.000=190.000;
#STOPS:234.000=1.579;
#DISPLAYBPM:190.000;
#CREDIT:forcednature;
#NOTES:
0000
0000
0000
0000
,
0000
0000
0000
0000
,
0000
0000
0000
0000
,
0000
0000
0000
0000
,
0000
0000
0000
0000
,
0000
0000
0000
0000
,
0200
0000
0000
0000
,
0000
0000
0300
0000
,
0001
0000
0001
0000
,
0001
0000
0000
0000
,
1000
0000
1000
0000
,
1000
0000
0000
0000
,
0100
0000
0100
0000
,
0100
0000
0000
0000
,
0010
0000
0010
0000
,
0010
0000
0000
0000
,
0000
0001
0000
0000
,
0000
0000
0000
0000
,
0100
0000
0100
0000
,
0000
0000
0000
0000
,
0010
0000
0000
0000
,
0000
0000
0000
0000
,
1000
0000
0000
0000
,
0000
0000
0000
0000
,
0001
0000
0000
0000
,
0000
0000
0000
0000
,
1000
0000
0000
0000
,
0000
0000
0000
0000
,
0100
0000
0000
0000
,
0000
0000
0000
0000
,
0010
0000
0000
0000
,
0000
0000
0000
0000
,
0001
0000
0000
0000
,
0000
0000
0000
0000
,
1000
0000
1000
0000
,
1000
0000
0000
0000
,
0010
0000
0000
0000
,
0000
0000
0000
0000
,
0100
0000
0000
0000
,
0001
0000
0000
0000
,
0100
0000
0000
0000
,
0000
0000
0000
0000
,
0010
0000
0010
0000
,
0010
0000
0000
0000
,
0000
0000
0000
0000
,
0000
0000
0000
0000
,
2002
0000
0000
0000
,
0000
0000
0000
0000
,
3003
0000
0000
0000
,
0000
0000
0000
0000
,
0220
0000
0000
0000
,
0000
0000
0000
0000
,
0330
0000
1001
0000
,
0000
0000
0110
0000
,
0000
0000
1001
0000
,
0000
0010
0000
0010
,
0200
0000
0000
0000
,
0300
0000
0000
0000
,
0000
0000
0000
0000
,
0000
0000
0000
0000
,
0000
0000
0000
0000
,
0000
0000
0000
0000
,
0000
0000
0000
1000
,
0000
0001
0000
1000
,
0000
0000
0000
0010
,
0000
0100
0000
0010
,
0000
0000
0000
0001
,
0000
1000
0000
0001
,
0000
0000
0000
0100
,
0000
0010
0000
0100
,
0000
0000
0000
0001
,
0000
0010
0000
0100
,
0000
0000
0000
1000
,
0000
0010
0000
0100
,
0000
0000
0000
0001
,
0000
0001
0000
1000
,
0000
1000
0000
0100
,
0000
0000
0000
0010
,
0000
0000
0000
0001
,
0000
0000
0000
0100
,
0000
0000
0000
0010
,
0000
0010
0000
1000
,
0000
0000
0000
1000
,
0000
1000
0000
0100
,
0000
0000
0000
0100
,
0000
0100
0000
0001
,
0000
0000
0000
0001
,
0000
0000
0000
0010
,
0000
0000
0000
0100
,
0000
0100
0000
0000
,
0010
0000
2002
0000
,
0000
0000
0000
3003
;

//--------------- dance-single - forcednature ----------------
#NOTEDATA:;
#STEPSTYPE:dance-single;
#DESCRIPTION:forcednature;
#DIFFICULTY:Easy;
#METER:8;
#RADARVALUES:0,0,0,0,0;
#OFFSET:0.245;
#BPMS:0.000=190.000;
#STOPS:234.000=1.579;
#CREDIT:forcednature;
#NOTES:
0000
0000
0000
0000
,
0000
0000
0000
0000
,
0000
0000
0000
0000
,
0000
0000
0000
0000
,
0000
0000
0000
0000
,
0000
0000
0000
0000
,
0200
0000
0000
0000
,
0020
0000
0000
0330
,
1000
1000
0100
1000
,
0001
0010
0100
0000
,
0001
0001
0100
0001
,
1000
0010
0100
0000
,
1000
1000
0001
0010
,
0100
1000
0001
0000
,
0100
0100
0010
0100
,
0001
1000
0100
0000
,
0000
0010
0001
0001
,
0000
0100
0000
0000
0010
0000
1000
0000
,
0100
0100
1000
0010
,
0000
0000
0000
0000
,
0110
0000
0100
0000
,
0001
0000
1000
0000
,
0100
1000
0100
0000
,
0100
0000
1000
0000
,
0001
0000
0100
0000
,
0010
0000
1000
0000
,
0001
0000
0000
0001
0000
0000
0001
0000
,
0000
0001
0000
0000
0010
0000
0000
0000
,
0100
1000
0000
0010
,
0100
0001
0000
0010
,
0100
1000
0001
1000
,
0000
1000
0000
0010
,
0100
0001
0000
1000
,
0100
1000
0000
0001
,
0100
0000
0010
0000
,
0000
1000
1000
0000
,
0001
0000
0010
0000
,
0100
0010
0001
0000
,
1000
0000
0001
0000
,
0100
0100
0010
0100
,
0001
0000
1000
0000
,
0100
0010
0001
0000
,
1000
1000
0010
0010
,
1000
0000
0001
0000
0000
0010
0000
0000
,
0000
0000
0000
0000
0000
0000
0000
0200
0000
0000
0000
0000
0000
0000
0000
0000
,
0300
0000
0000
0000
,
2002
0000
0000
0000
,
0000
0000
0000
0000
,
3003
0000
0000
0000
0000
0000
0000
0020
0000
0000
0000
0000
0000
0000
0000
0000
,
0030
0000
0000
0000
,
2002
0000
0000
0000
,
0000
0000
0000
0000
,
3003
0000
0220
0000
,
0330
0000
2002
0000
,
3003
0000
0220
0000
,
0330
2000
3000
0001
,
2002
0000
0000
0000
,
3003
0000
0000
0000
,
0000
0000
0000
0000
,
0000
0000
0000
0000
,
0000
0000
0000
0000
,
0000
0000
0000
0001
,
0000
1000
0000
0100
,
1000
0100
0010
0001
,
1000
0000
0000
0010
,
0100
0001
1000
0100
,
0010
0000
0000
0100
,
1000
0001
0100
0010
,
1000
0000
0000
0001
,
0010
0001
0100
0010
,
1000
1000
0000
0100
,
1000
0001
0100
0010
,
1000
0000
0000
0001
,
0010
0100
0010
0001
,
1000
0000
0000
0010
,
0000
0010
0000
0000
0100
0000
0000
0100
,
0000
0001
0000
2002
,
0000
0000
0000
0000
0000
3003
0000
0000
,
0000
0000
0000
0100
,
0000
0100
0000
0010
,
0010
0010
0000
1000
,
0100
1000
0100
0010
,
0001
1000
0000
0001
,
0100
0001
0100
0010
,
1000
0001
0000
0010
,
0100
0010
0100
1000
,
0001
0100
0000
0010
,
0000
0000
0000
0200
,
0000
0000
0000
0000
0000
0000
0000
0000
0300
0000
0000
0000
0001
0000
0000
1000
,
0000
0000
0001
0000
0000
1000
0000
0000
0001
0000
0000
0000
0000
0000
0100
0000
,
0000
0010
2002
0000
,
0000
0000
0000
3003
;

//--------------- dance-single - forcednature ----------------
#NOTEDATA:;
#STEPSTYPE:dance-single;
#DESCRIPTION:forcednature;
#DIFFICULTY:Medium;
#METER:11;
#RADARVALUES:0,0,0,0,0;
#OFFSET:0.245;
#BPMS:0.000=190.000;
#STOPS:234.000=1.579;
#CREDIT:forcednature;
#NOTES:
0000
0000
0000
0000
,
0000
0000
0000
0000
,
0000
0000
0000
0000
,
0000
0000
0000
0000
,
0000
0000
0000
0000
,
0000
0000
0000
0000
,
0220
0000
0000
0330
,
2002
0000
0000
3003
,
1000
1100
0001
0101
,
1000
0010
0100
0001
,
1000
1010
0001
0011
,
1000
0100
0010
0001
,
0100
0110
0010
1001
,
1000
0001
0010
0100
,
0010
0110
0100
1001
,
0001
0100
0010
1000
,
0000
0000
0100
0000
0010
0000
0010
0001
,
0000
0100
0100
0010
,
1000
0000
1000
0000
0001
0000
0001
0020
,
0000
0000
0000
0030
,
0100
1000
0100
0010
,
0001
1000
0001
0100
,
0010
1000
0001
1000
,
0100
0010
0001
1000
,
0001
0100
0010
1000
,
0001
0010
0001
0000
,
1000
0001
0000
1000
0001
0000
0001
1000
,
0000
0001
1000
0000
0010
0000
0000
0000
,
1000
0000
0001
0000
0000
0010
0010
0000
,
0001
0000
1000
0000
0000
0010
0010
0000
,
1000
0001
0100
0010
,
1000
0000
0001
0000
0000
0010
0010
0000
,
0001
0000
1000
0000
0000
0100
0100
0000
,
1000
0000
0001
0000
0000
0100
0100
0000
,
0001
1000
0100
0010
,
0000
0001
1000
0001
1000
0000
0000
0000
,
0010
1000
0100
0000
,
1000
0001
0100
0000
,
0010
1000
0001
0000
,
0011
0011
1100
1100
,
0001
1000
0010
0000
,
0100
0001
1000
0000
,
1010
1010
0101
0101
,
1001
0000
1001
0000
0000
0100
0010
0000
,
0000
0000
0000
0000
0000
0000
0000
2002
0000
0000
0000
0000
0000
0000
0000
0000
,
3003
0100
0010
0100
,
2002
0000
0000
0000
,
0000
0000
0000
0000
,
3003
0000
0000
0000
0000
0000
0000
0220
0000
0000
0000
0000
0000
0000
0000
0000
,
0330
0010
0100
0010
,
2002
0000
0000
0000
,
0000
0000
0000
0000
,
3003
0000
2200
0000
,
3300
0000
0202
0000
,
0303
0000
0022
0000
,
0033
2020
3030
1000
,
0001
1000
0001
1000
0001
1000
0001
1000
,
0200
0000
0000
0000
,
0000
0000
0300
0010
,
0000
0000
0000
0000
,
0000
0000
0000
0010
,
0000
0000
0000
0001
,
0001
1001
0110
1000
,
0100
0000
0010
0000
0001
0000
0100
0010
,
0000
0220
0000
0000
0330
0000
0001
0000
,
0100
0000
0010
0000
1000
0000
0100
0010
,
0000
0220
0000
0000
0330
0000
0100
0000
,
1000
0000
0001
0000
0100
0010
0000
1000
,
0010
2000
0000
0000
3000
0000
0001
0000
,
0010
0000
0100
0000
1000
0001
0000
0100
,
0001
0100
0002
0000
0003
0000
1000
0000
,
0100
0000
0010
0000
0100
0000
1000
0001
,
0000
2002
0000
0000
3003
0000
0010
0000
,
0100
0000
0001
0000
0100
0000
0010
1000
,
0000
2020
0000
0000
3030
0000
1000
0001
,
0000
0001
1000
0000
0010
0100
0000
0100
,
0010
0000
1000
0001
0000
0010
0200
0000
,
0000
0000
0000
0000
0000
0310
0000
0000
,
0000
0000
0000
1001
,
0001
0000
0100
0000
0001
0000
1000
0100
,
1000
0200
0000
0000
0310
0000
0011
0000
,
0011
1100
1100
1000
,
0001
0100
0010
1010
,
1010
0101
0101
0001
,
1000
0100
0010
0110
,
0110
1001
1001
1000
,
0010
0001
0010
0200
,
0000
0000
0300
0020
,
0000
0000
0000
0000
0000
0000
0000
0000
0030
0000
0000
0000
1000
0000
0000
0100
,
0000
0000
0010
0000
0000
0001
0000
0000
0100
0000
0010
0000
0000
0000
1000
0000
,
0001
1000
0001
0000
2002
0000
0000
0000
,
0000
0000
0000
3003
;

//--------------- dance-single - forcednature ----------------
#NOTEDATA:;
#STEPSTYPE:dance-single;
#DESCRIPTION:forcednature;
#DIFFICULTY:Hard;
#METER:15;
#RADARVALUES:0,0,0,0,0;
#OFFSET:0.245;
#BPMS:0.000=190.000;
#STOPS:234.000=1.579;
#CREDIT:forcednature;
#NOTES:
0000
0000
0000
0000
,
0000
0000
0000
0000
,
0000
0000
0000
0000
,
0000
0000
0000
0000
,
0000
0000
0000
0000
,
0000
0000
0000
0000
,
1002
0203
0320
2030
,
3001
0010
0100
0010
0002
0000
1003
0000
,
0001
0100
0000
0000
0100
0010
0000
0000
0010
1000
0000
0000
1000
0001
0000
0000
,
0001
0010
0100
1000
0010
0100
0001
0000
,
1000
0100
0000
0000
0100
0010
0000
0000
0010
0001
0000
0000
0001
1000
0000
0000
,
1000
0010
0100
0010
0001
0010
1000
0000
,
0001
1000
0000
0000
1000
0100
0000
0000
0100
0010
0000
0000
0010
0001
0000
0000
,
0001
0100
0010
1000
0001
0010
0100
0000
,
0010
0001
0000
0000
0001
1000
0000
0000
1000
0010
0000
0000
0010
0100
0000
0000
,
0100
0001
0010
0001
1000
0010
1000
0100
,
0000
0000
0110
0000
0010
0001
1000
0010
,
0000
0100
0100
0100
0100
0000
1001
0000
,
1000
0100
1000
0010
0100
0001
0010
1000
,
0000
0020
0000
0000
0200
0000
0330
0000
,
0001
1000
0001
0000
0100
0001
0100
0010
,
0000
1000
0010
0000
1000
0001
1000
0100
,
0010
0000
0011
0000
0101
0000
0100
0010
,
0000
1000
0010
0100
0000
0001
1000
0100
,
0010
0000
0001
0000
0100
0010
1000
0010
,
0000
0100
0001
1000
0000
0100
0010
0000
,
0001
0101
0000
1000
1100
0000
0001
0011
,
0000
1000
1010
0000
1001
0000
0000
0000
,
1000
0100
0001
0100
0000
0010
0011
0000
,
0001
0100
1000
0100
0000
0010
1010
0000
,
1000
0100
1000
0010
0100
0001
0010
0100
,
0000
0010
0001
0000
0100
0010
0110
0000
,
1000
0010
0001
0010
0000
0100
0101
0000
,
0001
0010
1000
0010
0000
0100
1100
0000
,
0001
0001
0010
1000
1000
0010
0100
1000
,
0000
0010
0010
0010
0010
0000
0110
0000
,
1001
0000
0001
0100
0010
1000
0001
0000
,
0010
0100
1000
0000
0100
0010
0001
0000
,
1000
0001
0100
0000
0010
1000
0001
0000
,
0011
0000
1100
0000
1000
0010
0001
0000
,
0010
1000
0100
1000
0001
0100
0010
0000
,
1000
0001
0010
0100
0010
0001
0100
0000
,
0001
1000
1001
0000
1000
0001
1001
0000
,
0010
0010
0100
0010
0000
0100
2002
0000
,
3003
0000
0000
0000
0000
0000
0000
0000
0000
0000
0000
0000
0000
0000
1000
0000
0000
0002
0000
0000
0000
0000
0000
0000
0000
0000
0000
0000
0000
0000
0000
0000
,
0003
0100
0100
0100
,
2002
0000
3000
0000
,
1003
0100
1000
0100
1000
0100
1000
0100
1000
0100
1000
0100
,
0020
0000
0000
0000
0000
0000
0000
0000
0030
0000
0000
0000
0000
0000
0001
0000
0000
2000
0000
0000
0000
0000
0000
0000
0000
0000
0000
0000
0000
0000
0000
0000
,
3000
0100
0100
0100
,
2002
0000
0003
0000
,
3001
0100
1000
0001
0010
1000
0001
0100
1000
0001
0010
1000
,
0200
0300
2002
3003
,
0020
0030
2002
3003
,
0200
0300
0220
0330
,
1000
1010
0001
0011
,
1000
0001
1000
0001
1000
0001
1000
0001
1000
0001
1000
0001
,
0020
0000
0000
0000
,
0000
0000
0030
2100
,
0000
0001
0000
0010
,
0000
3001
0000
0102
,
0000
0000
0003
1100
,
0101
0000
0110
0000
1001
0000
1000
0010
,
0001
0000
0001
0010
1000
0000
0100
0010
,
0000
1001
0000
0010
0110
0000
0001
0010
,
1000
0000
1000
0010
0001
0000
0100
0010
,
0000
0000
1001
0000
0000
0000
0010
0000
0110
0000
0000
0000
1000
0100
0000
0000
,
0100
0010
0000
0000
0010
0001
0000
0000
0001
0000
0100
0000
0000
0000
1000
0000
,
0100
0001
0000
0010
0110
0000
0100
1000
,
0010
1000
0001
0010
0001
0100
0000
0010
,
0010
0000
0010
0000
0100
0000
0001
0000
1000
0000
0000
0000
0100
0010
0000
0000
,
0010
0001
0000
0000
0001
0100
0000
0000
0100
0010
0000
0000
0010
0000
1000
0000
,
0000
0000
0110
0000
0000
0000
0001
0000
0100
0000
0000
0000
0001
0010
0000
0000
,
0010
0100
0000
0000
0100
1000
0000
0000
1000
0001
0000
0000
0001
0000
0010
0000
,
0000
1001
0000
0100
1000
0000
0001
0101
,
0000
1000
1100
0000
0001
0011
0000
1000
,
1010
0000
0100
0110
0000
1000
0002
0000
,
0100
0000
1000
0000
0013
0011
0000
0000
,
0000
0100
0100
1001
,
1000
0100
1000
0001
0100
0001
0010
0100
,
1000
0000
0100
0000
0000
0000
0000
0000
1001
0000
0000
0000
0001
0100
0000
0000
,
0010
1000
0000
0000
0001
0100
0000
0000
0010
1000
0000
0000
0001
0000
0100
0000
,
0010
0000
1000
0000
0100
0000
1000
0000
0010
0000
0000
0000
1000
0100
0000
0000
,
0010
0001
0000
0000
1000
0100
0000
0000
0010
0001
0000
0000
1000
0000
0100
0000
,
1000
0000
0001
0000
0100
0000
0100
0000
0100
0000
0000
0000
0010
1000
0000
0000
,
0001
0010
0000
0000
0100
1000
0000
0000
0001
0100
0000
0000
0010
0000
1000
0000
,
0001
0010
0001
0100
0010
0000
2000
0000
,
0000
0000
0000
0000
0000
0000
3001
0001
,
0000
0000
0001
0000
0001
0000
1000
0000
0000
0000
0000
0000
0001
0100
0000
0001
,
0100
0000
0010
1000
0000
0010
1000
0000
0001
0000
1000
0000
0000
0000
0100
0000
,
0010
0100
0010
0000
2002
0000
0000
0000
,
0000
0000
0000
3003
;

//--------------- dance-single - forcednature ----------------
#NOTEDATA:;
#STEPSTYPE:dance-single;
#DESCRIPTION:forcednature;
#DIFFICULTY:Challenge;
#METER:17;
#RADARVALUES:0,0,0,0,0;
#OFFSET:0.245;
#BPMS:0.000=190.000
,220.000=760.000
,244.000=95.000
,250.000=190.000
;
#STOPS:208.000=0.316
,209.000=0.316
,210.000=0.316
,211.000=0.316
,212.000=0.316
,213.000=0.316
,214.000=0.158
,214.500=0.158
,215.000=0.158
,215.500=0.158
,244.000=1.579
;
#DISPLAYBPM:190.000;
#CREDIT:forcednature;
#NOTES:
0000
0000
0000
0000
,
0000
0000
0000
0000
,
0000
0000
0000
0000
,
0000
0000
0000
0000
,
0000
0000
0000
0000
,
0000
0000
0000
0000
,
1000
0100
0010
0001
0100
0010
1000
0001
0010
0001
1000
0010
,
0100
0000
0100
0000
0010
0000
0100
0000
0001
1000
0001
1000
0020
0000
0030
0000
,
1000
0001
0100
0000
0001
1000
0100
0000
1000
0001
0010
0000
0001
1000
0010
0000
,
0100
0001
0100
0001
1000
0000
0001
0010
0100
0000
0110
0000
1001
0000
0000
0000
,
0001
1000
0100
0000
1000
0001
0100
0000
0001
1000
0010
0000
1000
0001
0010
0000
,
0100
1000
0100
1000
0001
0010
0001
0000
0100
0000
0110
0000
1001
0000
0000
0000
,
0001
0010
0100
0000
1000
0010
0100
0000
0001
0100
0010
0000
1000
0100
0010
0000
,
0001
0100
0001
0100
0010
0000
1000
0001
0010
0000
0110
0000
1001
0000
0000
0000
,
1000
0010
0100
0000
0001
0010
0100
0000
1000
0100
0010
0000
0001
0100
0010
0000
,
1000
0100
1000
0100
0010
0001
0000
0101
0000
0000
0100
0010
0100
0010
1000
0010
,
0000
0000
1001
0000
0101
0100
0110
1001
,
0000
1100
1100
1100
1010
0000
0001
0000
,
0101
0100
0110
0010
1010
1001
1100
0010
,
0000
0002
0203
2300
3002
0023
2030
3000
,
0100
0001
0100
0000
0100
1000
0010
1000
,
0000
0001
0010
0001
0100
0010
0001
0010
,
1000
0000
0000
1000
0100
0000
0000
0100
0001
0000
0000
0000
0100
0000
0101
0000
,
0000
0100
1000
0001
0100
0020
0031
0020
,
0130
0000
0101
0000
0001
1000
0100
0010
,
0000
1000
0010
0011
0000
0002
2003
3000
,
0101
1010
0000
1100
0011
0000
1010
1100
,
0000
0000
0011
0000
0101
0000
0000
0000
1001
0000
0000
0000
1000
0010
1000
0010
,
0100
0000
0001
0000
0010
0000
0200
0000
0000
0000
0002
0003
2300
3000
0000
0000
,
0100
0000
0010
0000
0001
0000
0200
0000
0000
0000
2000
3000
0302
0003
0000
0000
,
0100
0010
0001
0010
1000
0001
0010
0100
,
0000
0000
0001
0000
1000
0000
0000
0000
0020
0000
2000
3000
0032
0003
0000
0000
,
0010
0000
0001
0000
0100
0000
1000
0000
0000
0000
2200
3000
0302
0003
0000
0000
,
0010
0000
1000
0000
0100
0000
0001
0000
0000
0000
0202
0003
2300
3000
0000
0000
,
1100
1000
0010
0101
0001
0010
0110
0100
,
0000
0000
1001
0000
1100
0000
1001
0000
0001
0100
0001
0100
0020
0000
0000
0000
,
1030
0100
0010
0000
0100
0000
1000
0000
0001
0010
0001
0010
0100
0000
1000
0000
,
0001
0100
0010
0000
0100
0000
0001
0000
1000
0010
1000
0010
0200
0000
0000
0000
,
0301
1000
0100
0000
0010
0100
0010
0000
0001
1000
0010
0000
0100
0010
0100
0000
,
0001
0010
0000
0000
0100
1000
0000
0000
1010
0000
0100
0000
0011
0000
0000
0000
,
1000
0001
0100
0000
0010
0000
1000
0000
0001
0010
0100
0010
0000
0000
0000
0000
,
0001
0000
0100
0000
1000
0100
0010
0000
1000
0010
0100
0010
0000
0000
0000
0000
,
0101
0101
1010
0000
1100
1100
0011
0000
,
1000
0100
0010
0001
0100
0010
1000
0001
0000
0000
0110
0000
2002
0000
0000
0000
,
3003
0000
0000
0000
0000
0000
0000
0000
0000
0000
0000
0000
0000
0000
1100
0000
0000
2200
0000
0000
0000
0000
0000
0000
0000
0000
0000
0000
0000
0000
0000
0000
,
3300
0011
0101
0110
,
2000
3200
0320
0032
0023
0230
2300
3200
0320
0032
0023
0230
,
2300
3200
0320
0032
0023
0230
2300
3200
0320
0032
0023
0230
,
2300
0000
0000
0000
0000
0000
0000
0000
3000
0000
0000
0000
0000
0000
0101
0000
0000
0202
0000
0000
0000
0000
0000
0000
0000
0000
0000
0000
0000
0000
0000
0000
,
0303
1010
1100
0110
,
0002
0203
0320
2030
3020
0230
0302
0203
0320
2030
3020
0230
,
0301
0010
0100
0010
1000
0010
0100
0010
0001
0010
0100
0010
1000
0010
0100
0010
,
0002
0003
0000
0000
0220
0330
0000
0000
2000
3000
0000
0000
0220
0330
0000
0000
,
0020
0030
0000
0000
2002
3003
0000
0000
2000
3000
2020
3030
0002
0003
0022
0033
,
0100
0100
0100
0100
0100
0100
0100
0100
0100
0100
0100
0100
,
2002
0000
0000
0000
,
0000
0000
0000
0000
,
0000
0000
0000
0000
,
0000
0000
0000
0000
,
0000
0000
0000
0000
,
0000
0000
0000
0000
,
3003
0000
0000
0000
0000
0000
0000
0000
0000
0000
0000
0000
0000
0000
0000
0000
0000
0000
0000
0000
0000
0000
0000
0000
1000
0000
0000
0000
0000
0000
0000
0000
0000
0100
0000
0000
0000
0000
0000
0000
0000
0000
0000
0000
0010
0000
0000
0000
0000
0000
0000
0000
0001
0000
0000
0000
0000
0000
0000
0000
0000
0000
0010
0000
0000
0000
0000
0000
0000
0000
0000
0100
0000
0000
0000
0000
0000
0000
0000
0000
0000
1000
0000
0000
0000
0000
0000
0000
0000
0000
0000
0000
0000
0001
0000
0000
0000
0000
0000
0000
0000
0000
0000
0100
0000
0000
0000
0000
0000
0000
0000
0000
0000
0000
0010
0000
0000
0000
0000
0000
0000
1000
0000
0000
0000
0000
0000
0000
0000
0000
0000
0000
0000
0000
0000
0000
0002
0000
0000
0000
0000
0000
0000
0000
0000
0000
0000
0000
0000
0010
0000
0000
0000
0000
0000
0000
0000
0000
0000
0000
0000
0000
0000
0000
0003
0100
0000
0000
0000
0000
0000
0000
0000
0000
0000
0001
0000
0000
0000
0000
0000
0000
0000
0000
0000
0000
0010
0000
0000
0000
0000
0000
,
0000
0000
0000
0000
0000
0100
0000
0000
0000
0000
0000
1000
0000
0000
0000
0000
0000
0000
0000
0000
0001
0000
0000
0000
0000
0000
0000
0000
0100
0000
0000
0000
0000
0000
0000
0000
0010
0000
0000
0000
0000
0000
0000
0000
0000
1000
0000
0000
0000
0000
0000
0000
0000
0000
0001
0000
0000
0000
0000
0000
0000
0000
0000
0000
0000
0000
0000
0000
0000
0000
0000
0000
0000
0000
0000
0000
0000
0000
0000
0000
0000
0000
0000
0000
0000
0000
0000
0000
0000
0000
0000
0000
0000
0000
0000
0000
0000
0000
0000
0000
0000
0000
0000
0000
0000
0000
0000
0000
0000
0000
0000
0000
0000
0000
0000
0000
0000
0000
0000
0000
0000
0000
0000
0000
0000
0000
0000
0000
0000
0000
0000
0000
0000
0000
0000
0000
0000
0000
0000
0000
0000
0000
0000
0000
1000
0000
0000
0000
0000
0000
0000
0000
0000
0000
0000
0000
0100
0000
0000
0000
0000
0000
0000
0000
0000
0000
0000
0000
1000
0000
0000
0000
0000
0000
0000
0000
0000
0000
0000
0000
0100
0000
0000
0000
0000
0000
0000
0000
0000
0000
0000
0000
,
0010
0001
0010
0001
0100
0000
0000
0000
1001
0000
0000
0000
0001
0100
0010
1000
,
0001
0000
0010
0000
0100
1000
0001
0010
0100
0000
1000
0000
1010
0000
1100
0000
,
0000
0000
0101
0000
0000
0000
0010
0100
0220
0000
0330
0000
1000
0100
0010
0001
,
1000
0000
0010
0000
0100
0001
1000
0010
0100
0000
0001
0000
0011
0000
0101
0000
,
0000
0000
1100
0000
0000
0000
0010
0100
0220
0000
0330
0000
1000
0100
0010
0000
,
0100
0001
0100
0000
0010
0100
1000
0000
0001
0100
0010
1000
0002
0000
0100
0000
,
1000
0000
0013
0000
1001
0000
0001
0100
0020
0000
0000
0000
0130
0010
1000
0000
,
0100
0010
0001
0000
1000
0001
0100
0010
1000
0000
1100
0000
0000
0000
0101
0000
,
0101
0000
0011
0000
0021
0000
1000
0000
0031
0000
1000
0001
1000
0100
0010
0001
,
1000
0000
0010
0000
0100
0001
1000
0010
0100
0000
0001
0000
0011
0000
0101
0000
,
0000
0000
1100
0000
0000
0000
0010
0100
2002
0000
3003
0000
0001
0100
0010
1000
,
0001
0000
0010
0000
0100
1000
0001
0010
0100
0000
1000
0000
1010
0000
1100
0000
,
0000
0000
0101
0000
0000
0000
0100
0010
2002
0000
3003
0000
0001
0100
1000
0000
,
0000
0000
0001
0010
1000
0000
0000
0000
1000
0100
0001
0000
0000
0000
1000
0010
,
0001
0000
0000
0000
0100
0010
0100
0000
0000
0000
0010
0100
1002
0000
0000
0000
,
1003
0100
0010
0001
0100
0010
1000
0001
0010
0100
1000
0000
0000
0000
0010
0000
,
0100
0000
0000
0000
0001
0000
0000
0001
0010
0000
0100
0000
2100
0000
0000
0000
,
3010
0001
0010
0100
0010
1000
1100
0101
,
0011
0000
1010
0000
0100
0010
0000
0000
2001
0000
0000
0000
3001
0010
0100
0000
,
0010
0001
0100
0000
0010
1000
0100
0000
1000
0010
0100
0000
0001
0010
0100
1000
,
0100
0000
0010
0001
1000
0000
1001
0000
0110
0000
0000
0000
1000
0010
0100
0000
,
0010
1000
0100
0000
0010
0001
0100
0000
0001
0010
0100
0000
1000
0010
0100
0001
,
0100
0010
1000
0001
0010
0000
1001
0000
0110
0000
0000
0000
1000
0100
0010
0000
,
0001
0100
0010
0000
1000
0001
0010
0000
0001
1000
0010
0000
0100
0001
0100
0001
,
1000
0000
0100
0010
0001
0000
1001
0000
0110
0000
0000
0000
2000
0000
0010
0000
,
0000
0001
0000
0000
0200
0000
0000
0000
3300
0000
0000
0000
0001
0010
0001
1000
,
0001
0100
0001
1000
0001
0010
0001
1000
0000
0000
0000
0000
0001
0010
0000
1000
,
0010
0000
0100
0001
0000
0100
1000
0000
1001
0000
0110
0000
0000
0000
1010
0000
,
0011
1010
0011
0000
2002
0000
0000
0000
,
0000
0000
0000
3003
;

//--------------- dance-double - forcednature ----------------
#NOTEDATA:;
#STEPSTYPE:dance-double;
#DESCRIPTION:forcednature;
#DIFFICULTY:Easy;
#METER:8;
#RADARVALUES:0,0,0,0,0;
#CREDIT:forcednature;
#NOTES:
00000000
00000000
00000000
00000000
,
00000000
00000000
00000000
00000000
,
00000000
00000000
00000000
00000000
,
00000000
00000000
00000000
00000000
,
00000000
00000000
00000000
00000000
,
00000000
00000000
00000000
00000000
,
00002000
00000000
00000000
00000000
,
00020000
00000000
00000000
00033000
,
00001000
00001000
01000000
00010000
,
10000000
01000000
00100000
00000000
,
00010000
00010000
01000000
00001000
,
00010000
00000010
00001000
00000000
,
00000001
00000001
00000010
00000100
,
00000010
00000001
00001000
00000000
,
00000010
00000010
00010000
00001000
,
01000000
00010000
00100000
00000000
,
00000000
01000000
10000000
10000000
,
00000000
00100000
00000000
00000000
10000000
00000000
01000000
00000000
,
00010000
00010000
00001000
00010000
,
00000000
00000000
00000000
00000000
,
00011000
00000000
00001000
00000000
,
00010000
00000000
00000100
00000000
,
00001000
00000010
00001000
00000000
,
00000001
00000000
00000010
00000000
,
00000100
00000000
00010000
00000000
,
00001000
00000000
00100000
00000000
,
00010000
00000000
00000000
00010000
00000000
00000000
00010000
00000000
,
00000000
00010000
00000000
00000000
01000000
00000000
00000000
00000000
,
00100000
10000000
00000000
10000000
,
01000000
00010000
00000000
00010000
,
00001000
00100000
00001000
00010000
,
00000000
00000010
00000000
00001000
,
00000001
00000010
00000000
00000010
,
00001000
00010000
00000000
00010000
,
00001000
00000000
01000000
01000000
,
00000000
00010000
00010000
00000000
,
10000000
00000000
01000000
00000000
,
00100000
01000000
00100000
00000000
,
00001000
00000000
00010000
00000000
,
00000100
00000100
00000010
00000100
,
00001000
00000000
00000001
00000000
,
00000100
00000001
00000100
00000000
,
00000010
00000010
00001000
00000010
,
00010000
00000000
00001000
00000000
00000000
00011000
00000000
00000000
,
00000000
00000000
00000000
00000000
00000000
00000000
00000000
02000000
00000000
00000000
00000000
00000000
00000000
00000000
00000000
00000000
,
03000000
00000000
00000000
00000000
,
20020000
00000000
00000000
00000000
,
00000000
00000000
00000000
00000000
,
30030000
00000000
00000000
00000000
00000000
00000000
00000000
00200000
00000000
00000000
00000000
00000000
00000000
00000000
00000000
00000000
,
00300000
00000000
00000000
00000000
,
00022000
00000000
00000000
00000000
,
00000000
00000000
00000000
00000000
,
00033000
00000000
00020200
00000000
,
00030300
00000000
02002000
00000000
,
03003000
00000000
00020020
00000000
,
00030030
00002000
00003000
00100000
,
20020000
00000000
00000000
00000000
,
30030000
00000000
00000000
00000000
,
00000000
00000000
00000000
00000000
,
00000000
00000000
00000000
00000000
,
00000000
00000000
00000000
00000000
,
00000000
00000000
00000000
00010000
,
00000000
01000000
00000000
00001000
,
00010000
00000100
00001000
00000100
,
00010000
00000000
00000000
00001000
,
00010000
00000010
00001000
00000010
,
00000100
00000000
00000000
00000001
,
00001000
00000100
00001000
00000010
,
00010000
00000000
00000000
00001000
,
00100000
00001000
00010000
01000000
,
01000000
01000000
00000000
10000000
,
00100000
10000000
00010000
01000000
,
00001000
00000000
00000000
00010000
,
00000100
00001000
00000100
00010000
,
00001000
00000000
00000000
00000010
,
00000000
00000010
00000000
00000000
00000100
00000000
00000000
00000100
,
00000000
00000010
00000000
00002002
,
00000000
00000000
00000000
00000000
00000000
00003003
00000000
00000000
,
00000000
00000000
00000000
00000001
,
00000000
00000001
00000000
00000100
,
00001000
00010000
00000000
00100000
,
10000000
01000000
10000000
00010000
,
01000000
00001000
00000000
00010000
,
00000100
00001000
00000100
00010000
,
00000010
00001000
00000000
00000001
,
00000010
00000100
00000010
00000100
,
00010000
00001000
00000000
01000000
,
00000000
00000000
00000000
00200000
,
00000000
00000000
00000000
00000000
00000000
00000000
00000000
00000000
00300000
00000000
00000000
00000000
10000000
00000000
00000000
00010000
,
00000000
00000000
10000000
00000000
00000000
00010000
00000000
00000000
10000000
00000000
00000000
00000000
00000000
00000000
01000000
00000000
,
00000000
00010000
00022000
00000000
,
00000000
00000000
00000000
00033000
;

//--------------- dance-double - forcednature ----------------
#NOTEDATA:;
#STEPSTYPE:dance-double;
#DESCRIPTION:forcednature;
#DIFFICULTY:Medium;
#METER:11;
#RADARVALUES:0,0,0,0,0;
#CREDIT:forcednature;
#NOTES:
00000000
00000000
00000000
00000000
,
00000000
00000000
00000000
00000000
,
00000000
00000000
00000000
00000000
,
00000000
00000000
00000000
00000000
,
00000000
00000000
00000000
00000000
,
00000000
00000000
00000000
00000000
,
00022000
00000000
00000000
00033000
,
00000220
00000000
00000000
00000330
,
00000001
00000101
00001000
00001100
,
00010000
00001000
01000000
00010000
,
10000000
10100000
00010000
00110000
,
10000000
01000000
00010000
00001000
,
00100000
00011000
00000010
00011000
,
00000100
00001000
00000001
00000100
,
00000010
00011000
00100000
00011000
,
01000000
00010000
10000000
00100000
,
00000000
00000000
10000000
00000000
01000000
00000000
00010000
01000000
,
00000000
00100000
00001000
00010000
,
00000010
00000000
00000010
00000000
00001000
00000000
00001000
00000002
,
00000000
00000000
00000000
00000003
,
00000010
00000100
00001000
00000100
,
00010000
00001000
01000000
00010000
,
00100000
01000000
00010000
01000000
,
10000000
00100000
10000000
01000000
,
00010000
00001000
00000100
00000001
,
00000010
00000100
00010000
00000000
,
00001000
00010000
00000000
00001000
00010000
00000000
00010000
00001000
,
00000000
00010000
00001000
00000000
00022000
00000000
00033000
00000000
,
01000000
00000000
00010000
00000000
00000000
00100000
00100000
00000000
,
00001000
00000000
00010000
00000000
00000000
00000010
00000010
00000000
,
00001000
00000100
00000001
00000100
,
00001000
00000000
00000010
00000000
00000000
00001000
00001000
00000000
,
00000100
00000000
00010000
00000000
00000000
00001000
00001000
00000000
,
01000000
00000000
00001000
00000000
00000000
00010000
00010000
00000000
,
00000010
00001000
00010000
01000000
,
00000000
00010000
10000000
00010000
10000000
00000000
00000000
00000000
,
01000000
00010000
00001000
00000000
,
00000100
00001000
00010000
00000000
,
00000010
00001000
00000001
00000000
,
00000011
00000011
00001100
00001100
,
00000100
00000010
00000001
00000000
,
00000100
00001000
00010000
00000000
,
10100000
10100000
01010000
01010000
,
10010000
00000000
10010000
00000000
00000000
01000000
00100000
00000000
,
00000000
00000000
00000000
00000000
00000000
00000000
00000000
02200000
00000000
00000000
00000000
00000000
00000000
00000000
00000000
00000000
,
03300000
00010000
00001000
00010000
,
00022000
00000000
00000000
00000000
,
00000000
00000000
00000000
00000000
,
00033000
00000000
00000000
00000000
00000000
00000000
00000000
00000220
00000000
00000000
00000000
00000000
00000000
00000000
00000000
00000000
,
00000330
00001000
00010000
00001000
,
00022000
00000000
00000000
00000000
,
00000000
00000000
00000000
00000000
,
00033000
00000000
02002000
00000000
,
03003000
00000000
00020200
00000000
,
00030300
00000000
00202000
00000000
,
00303000
00020020
00030030
00000010
,
00001000
00000001
00001000
00000001
00001000
00000001
00001000
00000001
,
00000020
00000000
00000000
00000000
,
00000000
00000000
00000030
00000100
,
00000000
00000000
00000000
00000000
,
00000000
00000000
00000000
01000000
,
00000000
00000000
00000000
00001000
,
00010000
00011000
00100000
00010000
,
10000000
00000000
00100000
00000000
10000000
00000000
01000000
00100000
,
00000000
02200000
00000000
00000000
03300000
00000000
00100000
00000000
,
00001000
00000000
00010000
00000000
00000100
00000000
00000010
00000100
,
00000000
00000220
00000000
00000000
00000330
00000000
00000010
00000000
,
00000001
00000000
00001000
00000000
00000010
00001000
00000000
00000010
,
00010000
00002000
00000000
00000000
00003000
00000000
01000000
00000000
,
00010000
00000000
10000000
00000000
00010000
00100000
00000000
01000000
,
00100000
01000000
20000000
00000000
30000000
00000000
00010000
00000000
,
01000000
00000000
00001000
00000000
00010000
00000000
00000010
00000100
,
00000000
00000220
00000000
00000000
00000330
00000000
00000010
00000000
,
00010000
00000000
00001000
00000000
00010000
00000000
00001000
00100000
,
00000000
02200000
00000000
00000000
03300000
00000000
10000000
00010000
,
00000000
00010000
10000000
00000000
00010000
01000000
00000000
00001000
,
00010000
00000000
00000010
00001000
00000000
00000001
00000020
00000000
,
00000000
00000000
00000000
00000000
00000000
00000130
00000000
00000000
,
00000000
00000000
00000000
00001001
,
00000001
00000000
00000100
00000000
00001000
00000000
00010000
00001000
,
00010000
00002000
00000000
00000000
00103000
00000000
00110000
00000000
,
00110000
11000000
11000000
10000000
,
00010000
01000000
00001000
00011000
,
00011000
00010100
00010100
00000100
,
00001000
00000001
00000100
00001010
,
00001010
00000101
00000101
00000001
,
00000010
00001000
00010000
02000000
,
00000000
00000000
03000000
00200000
,
00000000
00000000
00000000
00000000
00000000
00000000
00000000
00000000
00300000
00000000
00000000
00000000
00001000
00000000
00000000
00010000
,
00000000
00000000
00000100
00000000
00000000
00000010
00000000
00000000
00000001
00000000
00001000
00000000
00000000
00000000
00000010
00000000
,
00000100
00000010
00000100
00000000
00022000
00000000
00000000
00000000
,
00000000
00000000
00000000
00033000
;

//--------------- dance-double - forcednature ----------------
#NOTEDATA:;
#STEPSTYPE:dance-double;
#DESCRIPTION:forcednature;
#DIFFICULTY:Hard;
#METER:15;
#RADARVALUES:0,0,0,0,0;
#CREDIT:forcednature;
#NOTES:
00000000
00000000
00000000
00000000
,
00000000
00000000
00000000
00000000
,
00000000
00000000
00000000
00000000
,
00000000
00000000
00000000
00000000
,
00000000
00000000
00000000
00000000
,
00000000
00000000
00000000
00000000
,
00002000
00023000
02030000
23000000
,
30100000
01000000
00100000
01000000
00100000
00000000
10010000
00000000
,
10000000
01000000
00000000
00000000
01000000
00010000
00000000
00000000
00010000
00001000
00000000
00000000
00001000
00100000
00000000
00000000
,
00001000
00010000
00000010
00001000
00000010
00010000
00001000
00000000
,
00000010
00000001
00000000
00000000
00000001
00000100
00000000
00000000
00000100
00001000
00000000
00000000
00001000
00010000
00000000
00000000
,
00001000
01000000
00010000
00100000
00010000
01000000
00001000
00000000
,
00100000
00010000
00000000
00000000
00010000
10000000
00000000
00000000
10000000
00100000
00000000
00000000
00100000
01000000
00000000
00000000
,
00010000
00100000
00001000
00010000
00000010
00010000
00001000
00000000
,
00000010
00000001
00000000
00000000
00000001
00000100
00000000
00000000
00000100
00000010
00000000
00000000
00000010
00001000
00000000
00000000
,
00000010
00010000
00001000
00100000
00001000
00010000
00000100
00001000
,
00000000
00000000
00000110
00000000
00000010
00000001
00000100
00001000
,
00000000
00001000
00010000
00001000
00010000
00000000
00011000
00000000
,
00001000
00010000
00100000
10000000
00010000
00100000
01000000
00010000
,
00000000
00022000
00000000
00000000
00000000
00000000
00033000
00000000
,
00001000
01000000
00010000
00000000
10000000
01000000
00010000
00001000
,
00000000
00100000
00010000
00000000
00100000
00001000
00010000
00000010
,
00001000
00000000
00001001
00000000
00000011
00000000
00000010
00000100
,
00000000
00001000
00000100
00010000
00000000
00001000
01000000
00010000
,
00100000
00000000
01100000
00000000
01000000
10000000
01000000
00020000
,
00000000
00031000
00100000
00010000
00000000
01000000
00001000
00000000
,
00010000
00010000
00000000
00000100
00000100
00000000
00000010
00000010
,
00000000
00000001
00000001
00000000
00002002
00000000
00003003
00000000
,
00000001
00000100
00001000
00010000
00000000
00100000
00100000
00000000
,
10000000
01000000
00010000
00001000
00000000
00000010
00000010
00000000
,
00000100
00010000
00001000
00010000
00000010
00001000
00000001
00000010
,
00000000
00000100
00010000
00000000
00001000
00100000
00100000
00000000
,
01000000
00010000
00001000
00010000
00000000
00000010
00000010
00000000
,
00000100
00001000
00001000
00001000
00000000
00100000
00100000
00000000
,
01000000
00010000
00001000
00010000
00000100
00001000
00000001
00000100
,
00000000
00000010
00000010
00000010
00000010
00000000
00000110
00000000
,
00000001
00000100
00000001
00000010
00000100
00010000
00001000
00000000
,
01000000
00001000
00010000
00000000
00100000
10000000
01000000
00000000
,
00100000
00001000
00010000
00000000
00000100
00001000
00000010
00000000
,
00000110
00000000
00001001
00000000
00000001
00000100
00001000
00000000
,
00010000
00100000
10000000
00100000
01000000
00010000
10000000
00000000
,
01000000
00010000
00001000
00100000
00001000
00010000
00000100
00000000
,
00000010
00001000
00010000
00000000
00100000
00010000
00001000
00000000
,
00010000
01000000
10000000
00100000
00000000
01000000
20020000
00000000
,
30030000
00000000
00000000
00000000
00000000
00000000
00000000
00000000
00000000
00000000
00000000
00000000
00000000
00000000
10000000
00000000
00000000
00020000
00000000
00000000
00000000
00000000
00000000
00000000
00000000
00000000
00000000
00000000
00000000
00000000
00000000
00000000
,
00030000
01000000
00001000
00010000
,
00022000
00000000
00003000
00000000
,
00030100
00001000
00000100
00010000
00001000
00010000
00000100
00001000
00000100
00010000
00001000
00010000
,
00000020
00000000
00000000
00000000
00000000
00000000
00000000
00000000
00000030
00000000
00000000
00000000
00000000
00000000
00001000
00000000
00000000
00000002
00000000
00000000
00000000
00000000
00000000
00000000
00000000
00000000
00000000
00000000
00000000
00000000
00000000
00000000
,
00000003
00000100
00001000
00010000
,
00022000
00000000
00030000
00000000
,
01003000
00010000
01000000
00001000
00010000
00001000
00100000
00010000
00100000
00001000
00010000
00001000
,
02000000
03000000
00022000
00033000
,
00000200
00000300
00022000
00033000
,
00100000
00000000
00022000
00033000
,
00000010
00000110
00000100
00011000
,
00100000
01000000
00100000
01000000
00100000
01000000
00100000
01000000
00100000
01000000
00100000
01000000
,
00200000
00000000
00000000
00000000
,
00000000
00000000
00300000
20010000
,
00000000
01000000
00000000
00010000
,
00000000
30100000
00010000
00021000
,
00000000
00000000
00000100
00000000
00030000
00000000
00010000
00001000
,
00000010
00000001
00000100
00000000
00000110
00000000
00000010
00010000
,
00001000
01000000
00001000
00010000
00100000
00000000
01000000
00010000
,
00000000
00110000
00000000
00100000
01000000
00000000
10000000
01000000
,
00010000
00001000
00100000
00001000
00010000
00000000
00000010
00001000
,
00000000
00000000
00000101
00000000
00000000
00000000
00000001
00000000
00000010
00000000
00000000
00000000
00000100
00010000
00000000
00000000
,
00010000
00001000
00000000
00000000
00001000
00100000
00000000
00000000
00010000
00000000
01000000
00000000
00000000
00000000
10000000
00000000
,
01000000
00010000
00100000
00001000
00001000
00000000
00010000
00000010
,
00001000
00000010
00010000
00001000
00000010
00000100
00000000
00000010
,
00000010
00000010
00000110
00000000
00001001
00000000
00000001
00000100
,
00001000
00010000
00000010
00010000
00001000
00000000
00100000
00010000
,
00000000
11000000
00000000
00100000
00100000
00000000
10000000
01000000
,
00010000
00001000
00100000
00001000
00010000
00000000
00000010
00001000
,
00000000
00000101
00000000
00000010
00000010
00000000
00001000
00001100
,
00000000
00010000
00011000
00000000
01000000
01010000
00000000
00001000
,
00011000
00000000
00100000
00110000
00000000
01000000
20020000
00000000
,
00000000
00000000
00000000
00030000
00000000
30100000
00000000
00000000
,
00000000
01000000
01100000
10010000
,
10000000
01000000
00010000
00001000
00000010
00000000
00000100
00010000
,
00001000
00010000
00000010
00000000
00000110
00000000
00000100
00000001
,
00000010
00001000
00000010
00000001
00000100
00001000
00010000
01000000
,
10000000
00100000
00010000
00100000
10000000
00000000
01000000
10000000
,
00100000
00010000
00100000
10000000
01000000
00010000
00001000
00000100
,
00000001
00000010
00001000
00000010
00000001
00000000
00000100
00000001
,
00000010
00001000
00000010
00000001
00000100
00001000
00010000
01000000
,
10000000
00100000
00010000
00100000
10000000
00000000
02000000
00000000
,
03000000
00000000
00020000
00000000
00030000
00000000
00001000
00001000
,
00000000
00000000
00001000
00000000
00000010
00000000
00000001
00000000
00000000
00000000
00000000
00000000
00000100
00000001
00000000
00000100
,
00000001
00000000
00001000
00000010
00000000
00001000
00000010
00000000
00010000
00000000
00001000
00000000
00000000
00000000
01000000
00000000
,
00100000
01000000
00100000
00000000
20020000
00000000
00000000
00000000
,
00000000
00000000
00000000
30030000
;

//--------------- dance-double - forcednature ----------------
#NOTEDATA:;
#STEPSTYPE:dance-double;
#DESCRIPTION:forcednature;
#DIFFICULTY:Challenge;
#METER:18;
#RADARVALUES:0,0,0,0,0;
#OFFSET:0.245;
#BPMS:0.000=190.000
,220.000=760.000
,244.000=95.000
,250.000=190.000
;
#STOPS:208.000=0.316
,209.000=0.316
,210.000=0.316
,211.000=0.316
,212.000=0.316
,213.000=0.316
,214.000=0.158
,214.500=0.158
,215.000=0.158
,215.500=0.158
,244.000=1.579
;
#DISPLAYBPM:190.000;
#CREDIT:forcednature;
#NOTES:
00000000
00000000
00000000
00000000
,
00000000
00000000
00000000
00000000
,
00000000
00000000
00000000
00000000
,
00000000
00000000
00000000
00000000
,
00000000
00000000
00000000
00000000
,
00000000
00000000
00000000
00000000
,
00001000
00010000
00001000
01000000
00010000
00100000
01000000
00010000
00001000
00000010
00001000
00010000
,
00000100
00000000
00000100
00000000
00000010
00000000
00000100
00000000
00001000
00000001
00000010
00000100
00002000
00000000
00003000
00000000
,
00000001
00000100
00001000
00000000
00000100
00001000
00010000
00000000
00001000
00010000
00100000
00000000
00010000
00100000
10000000
00000000
,
00010000
10000000
00100000
01000000
00010000
00000000
10000000
00010000
00100000
00000000
01100000
00000000
10010000
00000000
00000000
00000000
,
10000000
01000000
00010000
00000000
01000000
00010000
00001000
00000000
00010000
00001000
00000010
00000000
00001000
00000010
00000001
00000000
,
00001000
00000001
00000010
00000100
00000010
00000001
00001000
00000000
00000010
00000000
00000110
00000000
00001001
00000000
00000000
00000000
,
00000001
00000100
00001000
00000000
00000100
00001000
00010000
00000000
00001000
00010000
00100000
00000000
00010000
00100000
10000000
00000000
,
00010000
10000000
01000000
00100000
00010000
00000000
10000000
00010000
01000000
00000000
01100000
00000000
10010000
00000000
00000000
00000000
,
10000000
01000000
00010000
00000000
01000000
00010000
00001000
00000000
00010000
00001000
00000010
00000000
00001000
00000010
00000001
00000000
,
00001000
00000001
00000100
00000001
00001000
00000100
00000000
00000110
00000000
00000010
00000001
00000010
00000001
00001000
00000100
00001000
,
00000000
00000000
00001001
00000000
00000001
00000100
00001000
01000000
,
00000000
00100000
00100000
00100000
00100000
00000000
10010000
00000000
,
10000000
01000000
00010000
00001000
01000000
00100000
00010000
00011000
,
00000000
20000000
32000000
03020000
00032000
00003200
00000302
00000003
,
00000010
00000100
00010000
00000000
00001000
00000010
00000001
00000010
,
00000000
00000100
00010000
00001000
00100000
00001000
00010000
00100000
,
10000000
00000000
00000000
10000000
01000000
00000000
00000000
01000000
00010000
00000000
00000000
00000000
00001000
00000000
00011000
00000000
,
00000000
00010000
00000010
00001000
00000002
00000203
00002300
00003200
,
00000302
00000003
00000011
00000000
00000010
00000100
00010000
00002000
,
00000000
00103000
01000000
01100000
00000000
00020000
20030000
30000000
,
11000000
10100000
00000000
01010000
01001000
00000000
00010100
00001100
,
00000000
00000000
00000011
00000000
00000101
00000000
00000000
00000000
00001001
00000000
00000000
00000000
00001000
00000100
00001000
00000100
,
00010000
00000000
00001000
00000000
00100000
00000000
00110000
00000000
00000000
00000000
00000200
00000300
02000000
03000000
00000000
00000000
,
00001000
00000000
00010000
00000000
00000010
00000000
00001010
00000000
00000000
00000000
02000000
03000000
00000200
00000300
00000000
00000000
,
00010000
00100000
01000000
00100000
10000000
01000000
00010000
00011000
,
00000000
00000000
00000010
00000000
00010000
00000000
00000000
00000000
00001000
00000000
02000000
03000000
00000200
00000300
00000000
00000000
,
00010000
00000000
00001000
00000000
01000000
00000000
01010000
00000000
00000000
00000000
00000002
00000003
00020000
00030000
00000000
00000000
,
00001000
00000000
00010000
00000000
00000100
00000000
00001100
00000000
00000000
00000000
20000000
30000000
00002000
00003000
00000000
00000000
,
00100000
01000000
00010000
00000100
00001000
00000010
00000110
00000101
,
00000000
00000001
00001000
00010000
10000000
00000000
01100000
00000000
,
10000000
01000000
00100000
00000000
01000000
00000000
10000000
00000000
00010000
00100000
00001000
00010000
00001000
00000000
00000000
00000000
,
00000100
00000001
00001000
00000000
00000010
00000000
00000100
00000000
00000001
00000010
00000100
00001000
00000200
00000000
00000000
00000000
,
00010300
00001000
01000000
00000000
00010000
01000000
00001000
00000000
00010000
00001000
00100000
00010000
00100000
00000000
00000000
00000000
,
01100000
00000000
00011000
00000000
00000010
00000110
00001001
00000000
,
00000001
00000100
00000010
00000000
00000100
00000000
00000001
00000000
00001000
00000010
00010000
00001000
00010000
00000000
00000000
00000000
,
01000000
10000000
00010000
00000000
00100000
00000000
01000000
00000000
10000000
00100000
01000000
00010000
02000000
00000000
00000000
00000000
,
03001000
00011000
00010100
00000000
00010010
00011000
01001000
00000000
,
01000000
00010000
01000000
00001000
00010000
00000010
00001000
00000010
00000000
00000000
00000110
00000000
00002002
00000000
00000000
00000000
,
00003003
00000000
00000000
00000000
00000000
00000000
00000000
00000000
00000000
00000000
00000000
00000000
00000000
00000000
00000101
00000000
00000000
00000202
00000000
00000000
00000000
00000000
00000000
00000000
00000000
00000000
00000000
00000000
00000000
00000000
00000000
00000000
,
00000303
00000110
00010010
00011000
,
00002000
00023000
00230000
02300000
03200000
00320000
00032000
00023000
02030000
03200000
02300000
03020000
,
00032000
00023000
00230000
02300000
03200000
00320000
00032000
00023000
02030000
03200000
02300000
03020000
,
00032000
00000000
00000000
00000000
00000000
00000000
00000000
00000000
00003000
00000000
00000000
00000000
00000000
00000000
11000000
00000000
00000000
22000000
00000000
00000000
00000000
00000000
00000000
00000000
00000000
00000000
00000000
00000000
00000000
00000000
00000000
00000000
,
33000000
01100000
00101000
00011000
,
00020000
00032000
00003020
00000230
00000320
00002030
00023000
00032000
00003200
00000320
00000230
00002300
,
00013000
00000100
00001000
00000100
00010000
00001000
00010000
00000010
00001000
00000010
00010000
00001000
00010000
00000100
00001000
00000100
,
00000020
00000030
00000000
00000000
00002002
00003003
00000000
00000000
02000000
03000000
00000000
00000000
20020000
30030000
00000000
00000000
,
00000200
00000300
00000000
00000000
00002002
00003003
00000000
00000000
02200000
03300000
00020000
00030000
00022000
00033000
00002000
00003000
,
00000010
00000100
00000010
00000100
00000010
00000100
00000010
00000100
00000010
00000100
00000010
00000100
,
00002002
00000000
00000000
00000000
,
00000000
00000000
00000000
00000000
,
00000000
00000000
00000000
00000000
,
00000000
00000000
00000000
00000000
,
00000000
00000000
00000000
00000000
,
00000000
00000000
00000000
00000000
,
00003003
00000000
00000000
00000000
00000000
00000000
00000000
00000000
00000000
00000000
00000000
00000000
00000000
00000000
00000000
00000000
00000000
00000000
00000000
00000000
00000000
00000000
00000000
00000000
00000001
00000000
00000000
00000000
00000000
00000000
00000000
00000000
00000000
00000100
00000000
00000000
00000000
00000000
00000000
00000000
00000000
00000000
00000000
00000000
00000010
00000000
00000000
00000000
00000000
00000000
00000000
00000000
00000100
00000000
00000000
00000000
00000000
00000000
00000000
00000000
00000000
00000000
00001000
00000000
00000000
00000000
00000000
00000000
00000000
00000000
00000000
00010000
00000000
00000000
00000000
00000000
00000000
00000000
00000000
00000000
00000000
00001000
00000000
00000000
00000000
00000000
00000000
00000000
00000000
00000000
00000000
00000000
00000000
01000000
00000000
00000000
00000000
00000000
00000000
00000000
00000000
00000000
00000000
00010000
00000000
00000000
00000000
00000000
00000000
00000000
00000000
00000000
00000000
00000000
10000000
00000000
00000000
00000000
00000000
00000000
00000000
00010000
00000000
00000000
00000000
00000000
00000000
00000000
00000000
00000000
00000000
00000000
00000000
00000000
00000000
00000000
00200000
00000000
00000000
00000000
00000000
00000000
00000000
00000000
00000000
00000000
00000000
00000000
00000000
01000000
00000000
00000000
00000000
00000000
00000000
00000000
00000000
00000000
00000000
00000000
00000000
00000000
00000000
00000000
00000000
00310000
00000000
00000000
00000000
00000000
00000000
00000000
00000000
00000000
00000000
10000000
00000000
00000000
00000000
00000000
00000000
00000000
00000000
00000000
00000000
00000000
00100000
00000000
00000000
00000000
00000000
00000000
,
00000000
00000000
00000000
00000000
00000000
01000000
00000000
00000000
00000000
00000000
00000000
00010000
00000000
00000000
00000000
00000000
00000000
00000000
00000000
00000000
01000000
00000000
00000000
00000000
00000000
00000000
00000000
00000000
00001000
00000000
00000000
00000000
00000000
00000000
00000000
00000000
00010000
00000000
00000000
00000000
00000000
00000000
00000000
00000000
00000000
00000010
00000000
00000000
00000000
00000000
00000000
00000000
00000000
00000000
00001000
00000000
00000000
00000000
00000000
00000000
00000000
00000000
00000000
00000000
00000000
00000000
00000000
00000000
00000000
00000000
00000000
00000000
00000000
00000000
00000000
00000000
00000000
00000000
00000000
00000000
00000000
00000000
00000000
00000000
00000000
00000000
00000000
00000000
00000000
00000000
00000000
00000000
00000000
00000000
00000000
00000000
00000000
00000000
00000000
00000000
00000000
00000000
00000000
00000000
00000000
00000000
00000000
00000000
00000000
00000000
00000000
00000000
00000000
00000000
00000000
00000000
00000000
00000000
00000000
00000000
00000000
00000000
00000000
00000000
00000000
00000000
00000000
00000000
00000000
00000000
00000000
00000000
00000000
00000000
00000000
00000000
00000000
00000000
00000000
00000000
00000000
00000000
00000000
00000000
00000100
00000000
00000000
00000000
00000000
00000000
00000000
00000000
00000000
00000000
00000000
00000000
00001000
00000000
00000000
00000000
00000000
00000000
00000000
00000000
00000000
00000000
00000000
00000000
00000100
00000000
00000000
00000000
00000000
00000000
00000000
00000000
00000000
00000000
00000000
00000000
00010000
00000000
00000000
00000000
00000000
00000000
00000000
00000000
00000000
00000000
00000000
00000000
,
00001000
01000000
00010000
01000000
00100000
00000000
00000000
00000000
10010000
00000000
00000000
00000000
10000000
01000000
00100000
01000000
,
10000000
00000000
00010000
00000000
01000000
00001000
00010000
00001000
01000000
00000000
00010000
00000000
00110000
00000000
00101000
00000000
,
00000000
00000000
00011000
00000000
00000000
00000000
00010000
00000010
00002000
00000000
00000000
00000000
00003001
00000010
00000100
00000010
,
00000001
00000000
00001000
00000000
00000100
00010000
00001000
00010000
00000100
00000000
00001000
00000000
00001010
00000000
00010010
00000000
,
00000000
00000000
00011000
00000000
00000000
00000000
00100000
00010000
01000000
00000000
00000000
00000000
00100000
10000000
00010000
01000000
,
00010000
00000000
00100000
00001000
00010000
00000000
00000100
00001000
00000001
00000000
00000100
00000010
00001000
00000010
00000100
00000001
,
00001000
00000000
00000100
00000000
00000020
00000000
00000001
00000000
00000130
00000010
00000001
00000010
00000100
00000000
00001000
00000100
,
00010000
00000000
00001000
01000000
00010000
00000000
10000000
00010000
00100000
01000000
10000000
00000000
00000000
00000000
10010000
00000000
,
10010000
00000000
01010000
00000000
01010000
00000000
00100000
00010000
00100000
00000000
00000000
00000000
00001000
00010000
00000010
00001000
,
00000010
00000000
00000100
00000001
00001000
00000010
00001000
00000001
00000010
00000000
00000100
00010000
00001000
00000000
00101000
00000000
,
00000000
00000000
00110000
00000000
00000000
00000000
00010000
10000000
00100000
00000000
00000000
00000000
01000000
00010000
01000000
00001000
,
00010000
00000000
00000010
00001000
00000010
00000100
00000001
00001000
00000100
00010000
00001000
00010000
00000100
00000000
00001100
00000000
,
00000000
00000000
00001010
00000000
00000000
00000000
00010000
00001000
00100000
00000000
00000000
00000000
00010000
01000000
00001000
00010000
,
00000010
00000000
00001000
00000100
00010000
00001000
00100000
00000000
00010000
01000000
00100000
10000000
00010000
00000000
01000000
00001000
,
00010000
00000100
00001000
00000000
00000001
00000100
00000010
00001000
00000001
00000000
00000010
00000100
00002000
00000000
00000000
00000000
,
00003010
00001000
00000010
00010000
00001000
00010000
00000100
00001000
00000100
00000010
00000002
00000000
00000000
00000000
00000100
00000000
,
00000103
00000000
00000000
00000000
00000001
00000000
00000000
00000001
00000010
00000000
00001000
00000000
00011000
00000000
00000000
00000000
,
00010000
00000000
00100000
00000000
01000000
00000000
00100000
00000000
10000000
00000000
00010000
00000000
10000000
01000000
10000000
01000000
,
00100000
00010000
00100000
00010000
02000000
00000000
00000000
00000000
03001000
00000000
00000000
00000000
10000000
01000000
00010000
00000000
,
01000000
00010000
00001000
00000000
00010000
00001000
00000010
00000000
00001000
00000010
00000001
00000000
00001000
00000001
00000010
00000100
,
00001000
00000000
00000001
00001000
00000010
00000000
00000110
00000000
00001001
00000000
00000000
00000000
00000001
00000100
00001000
00000000
,
00000100
00001000
00010000
00000000
00001000
00010000
00100000
00000000
00010000
00100000
10000000
00000000
00010000
10000000
00100000
01000000
,
00100000
10000000
00010000
00000000
00100000
00000000
01100000
00000000
10010000
00000000
00000000
00000000
10000000
01000000
00010000
00000000
,
01000000
00010000
00001000
00000000
00010000
00001000
00000010
00000000
00001000
00000010
00000001
00000000
00001000
00000001
00000100
00000010
,
00001000
00000000
00000001
00001000
00000100
00000000
00000110
00000000
00001001
00000000
00000000
00000000
00000001
00000000
00000100
00000000
,
00000000
00010000
00000000
00000000
02000000
00000000
00000000
00000000
03000000
00000000
00000000
00000000
00001000
00100000
00001000
00010000
,
00001000
01000000
00001000
00010000
00001000
00100000
00001000
00010000
00000000
00000000
00000000
00000000
00000010
00000100
00000000
00001000
,
00010000
00000000
00100000
01000000
00000000
00001000
00010000
00000000
00000100
00000000
00000110
00000000
00000000
00000000
00001010
00000000
,
00011000
00001100
00011000
00000000
02200000
00000000
00000000
00000000
,
00000000
00000000
00000000
03300000
;
