#VERSION:0.83;
#TITLE:太陽はやめて!ぼくらのスカーレット警察;
#SUBTITLE:;
#ARTIST:七条レタスグループ starring ココ;
#TITLETRANSLIT:Taiyou wa yamete! Bokura no Scarlet keisatsu;
#SUBTITLETRANSLIT:;
#ARTISTTRANSLIT:Lettuce Shichijou starring Koko;
#GENRE:;
#CREDIT:;
#MUSIC:Taiyou wa yamete! Bokura no Scarlet keisatsu.ogg;
#BANNER:Taiyou wa yamete! Bokura no Scarlet keisatsu.png;
#BACKGROUND:Taiyou wa yamete! Bokura no Scarlet keisatsu-bg.png;
#CDTITLE:./CDTitles/SDVX II -infinite infection-.png;
#SAMPLESTART:72.717;
#SAMPLELENGTH:15.000;
#SELECTABLE:YES;
#OFFSET:1.975;
#BPMS:0.000=134.000;
#STOPS:;
#TIMESIGNATURES:0.000=4=4;
#BGCHANGES:0.000=../BGAs/19po.mp4=1.000=0=0=0=StretchNoLoop====,
99999.000=-nosongbg-=1.000=0=0=0=StretchNoLoop====
;
#FGCHANGES:;

//--------------- dance-single - forcednature ----------------
#NOTEDATA:;
#STEPSTYPE:dance-single;
#DESCRIPTION:forcednature;
#CREDIT:forcednature;
#DIFFICULTY:Beginner;
#METER:1;
#RADARVALUES:0,0,0,0,0;
#NOTES:
0000
0000
0000
0000
,
0000
0000
0000
0000
,
0000
0000
0000
0000
,
0000
0000
0000
0000
,
0000
0000
0000
0000
,
0000
0000
0000
0000
,
0000
0000
0000
0000
,
0000
0000
0000
0000
,
1000
0000
0000
0000
,
0000
0000
0000
0000
,
0000
0000
0000
0000
,
0000
0000
0000
0000
,
0010
0000
0000
0000
,
0000
0000
0000
0000
,
0000
0000
0000
0000
,
0000
0000
0000
0000
,
0100
0000
0000
0000
,
0000
0000
0000
0000
,
0000
0000
0000
0000
,
0000
0000
0000
0000
,
0001
0000
0000
0000
,
0000
0000
0000
0000
,
0000
0000
0000
0000
,
0000
0000
0000
0000
,
1000
0000
0000
0000
,
0000
0000
0000
0000
,
0001
0000
0000
0000
,
0000
0000
0000
0000
,
0010
0000
0000
0000
,
0000
0000
0000
0000
,
0001
0000
0000
0000
,
0000
0000
0000
0000
,
0100
0000
0000
0000
,
0000
0000
0000
0000
,
0100
0000
0000
0000
,
0000
0000
0000
0000
,
0010
0000
0000
0000
,
0000
0000
0000
0000
,
0000
0000
0000
0000
,
1000
0000
0000
0000
,
0000
0000
0000
0000
,
0000
0000
0000
0000
,
0001
0000
0000
0000
,
0000
0000
0000
0000
,
0010
0000
0000
0000
,
0000
0000
0000
0000
,
0100
0000
0000
0000
,
0000
0000
0000
0000
,
1000
0000
0000
0000
,
0000
0000
0000
0000
,
0001
0000
0000
0000
,
0000
0000
0000
0000
,
0100
0000
0000
0000
,
0000
0000
0000
0000
,
0010
0000
0000
0000
,
0000
0000
0000
0000
,
1000
0000
0000
0000
,
0000
0000
0000
0000
,
0001
0000
0000
0000
,
0000
0000
0000
0000
,
0010
0000
0000
0000
,
0000
0000
0000
0000
,
0100
0000
0000
0000
,
0000
0000
0000
0000
,
1000
0000
0000
0000
,
0000
0000
0000
0000
,
0010
0000
0000
0000
;

//--------------- dance-single - forcednature ----------------
#NOTEDATA:;
#STEPSTYPE:dance-single;
#DESCRIPTION:forcednature;
#CREDIT:forcednature;
#DIFFICULTY:Easy;
#METER:3;
#RADARVALUES:0,0,0,0,0;
#NOTES:
0000
0000
0000
0000
,
0000
0000
0000
0000
,
0000
0000
0000
0000
,
0000
0000
0000
0000
,
0000
0000
0000
0000
,
0000
0000
0000
0000
,
1000
0000
0000
0001
,
0000
0000
0100
0000
,
0010
0000
0000
0000
,
1000
0000
0000
0000
,
0001
0000
0000
0000
,
1000
0000
0000
0000
,
0100
0000
0000
0000
,
0010
0000
0000
0000
,
0001
0000
0000
0000
,
0010
0000
0000
0000
,
0001
0000
0000
0000
,
0001
0000
0001
0000
,
0100
0000
0000
0000
,
0100
0000
0010
0000
,
0010
0000
0000
0000
,
0010
0000
1000
0000
,
1000
0000
0000
0000
,
1000
0000
0001
0000
,
0010
0000
0000
0000
,
0100
0000
0000
0000
,
1000
0000
0000
0000
,
0001
0000
0000
0000
,
0100
0000
0000
0000
,
0010
0000
0000
0000
,
1000
0000
0000
0000
,
0001
0000
1000
0000
,
0100
0000
0000
0000
,
0010
0000
0000
0000
,
0001
0000
0000
0000
,
1000
0000
1000
0000
,
0010
0000
0000
0000
,
0100
0000
0000
0000
,
0001
0000
0000
0000
,
1000
0000
1000
0000
,
0100
0000
0000
0010
,
0000
0000
0001
0000
,
1001
0000
0000
0000
,
1000
0000
0010
0000
,
1000
0000
0000
0000
,
0100
0000
0100
0000
,
0010
0000
0000
0000
,
0001
0000
0100
0000
,
0001
0000
0000
0000
,
1000
0000
1000
0000
,
1001
0000
0000
0000
,
0001
0000
0010
0000
,
0001
0000
0000
0000
,
1000
0000
0010
0000
,
1000
0000
0000
0000
,
0100
0000
1000
0000
,
0100
0000
0000
0010
,
0000
0000
0100
0000
,
1000
0000
0000
0000
,
1000
0000
0010
0000
,
0010
0000
0000
0000
,
0010
0000
0100
0000
,
0100
0000
0000
0000
,
0100
0000
0001
0000
,
0001
0000
0000
0000
,
0001
0000
0010
0000
,
0010
0000
0000
0100
,
0000
1000
0000
0000
;

//--------------- dance-single - forcednature ----------------
#NOTEDATA:;
#STEPSTYPE:dance-single;
#DESCRIPTION:forcednature;
#CREDIT:forcednature;
#DIFFICULTY:Medium;
#METER:9;
#RADARVALUES:0,0,0,0,0;
#NOTES:
0000
0000
0000
0000
,
0000
0000
0000
0000
,
0000
0000
0000
0000
,
0000
0000
0000
0000
,
0000
0000
0000
0000
,
0000
0000
0000
0000
,
2000
0000
0000
3001
0000
0000
0002
0000
,
0000
1003
0000
0100
0010
0000
0110
0000
,
1001
1000
0001
0100
,
0001
1000
0001
0010
,
0100
1000
0001
1000
,
0010
0000
1000
0000
0001
0000
0010
0100
,
1000
0000
0001
0000
0100
0010
1000
0000
,
0100
0000
0010
0000
0001
1000
0010
0000
,
0100
0000
0001
0000
1000
0100
0010
0000
,
0100
1000
0001
0000
0100
0001
1000
0010
,
0100
0001
0101
0000
,
1010
0000
0101
0000
1000
0100
0001
0100
,
1000
0100
1100
0000
,
0011
0000
1100
0000
0001
0100
1000
0100
,
0001
0010
1100
0000
,
0011
0000
1100
0000
1000
0100
0001
0100
,
2000
0001
0010
3000
,
0110
0000
1001
0000
1000
0100
0010
0000
,
0001
0100
0001
0010
0001
0100
0001
0000
,
2000
0000
0000
0020
0000
0000
3030
0000
,
1000
0000
0100
0000
1000
0000
0010
0000
1000
0000
0000
0100
0000
0000
0010
0000
,
0002
0000
0000
0200
0000
0000
0303
0000
,
0001
0000
0010
0000
0100
0000
0010
0000
0001
0000
0000
1000
0000
0000
0001
0000
,
0100
0001
0100
0000
0010
1000
0010
0100
,
0001
0000
0101
0000
1100
0000
0010
0110
,
0000
0000
0100
2002
0000
0000
3003
0000
,
1000
0000
0100
0000
0010
0000
0001
0000
0010
0000
0000
0100
0000
0000
1000
0000
,
0001
0000
0100
0000
0010
0000
1000
0000
0010
0000
0000
0100
0000
0000
0001
0000
,
1000
0000
0000
0100
0000
0000
0010
0000
0001
0000
0000
0100
0000
0000
0010
0000
,
1000
0000
0000
0001
0000
0000
0010
0000
0200
0000
0000
1000
0000
0000
0010
0000
,
0300
0000
1000
0000
0001
1000
0010
0000
,
0100
0000
0001
0000
1000
0100
0010
0000
,
0001
0000
1000
0000
0010
0100
0001
1000
,
0100
0000
0000
0100
0000
0000
0100
0000
0010
0000
0000
0010
0000
0000
0010
0000
,
2002
0000
3003
0001
0100
1000
0200
0000
,
0310
1000
0001
0010
0010
0000
0110
0000
,
1001
0000
1000
0100
0010
0001
0000
0200
,
0000
0000
0001
0000
0310
0000
0100
0001
,
1000
0000
0100
1000
0001
0000
0100
0000
,
0220
0000
0330
2002
0000
3003
1000
0100
,
0010
0000
0001
1000
0000
0010
0100
0001
,
0100
0010
1000
0001
0000
0010
0010
0000
,
0100
1000
0001
0100
0000
0110
0000
2002
,
0000
3003
1000
0100
0010
0001
0100
0000
,
0110
0000
1000
0001
0010
0100
0000
2000
,
0000
0000
0010
0000
3100
0000
1000
0001
,
0100
0000
0010
1000
0001
0000
0010
0000
,
2200
0000
3300
0022
0000
0033
0001
0100
,
0020
0000
1030
0001
0010
0200
0000
1300
,
0000
0001
0100
1000
0100
0010
1000
0001
,
0012
0000
0000
0103
0000
0000
2010
0000
,
0000
3100
0000
0010
0110
0000
1001
0000
,
1000
0100
0011
0000
,
1100
0000
0011
0000
0001
0100
1000
0100
,
0001
0100
1010
0000
,
0101
0000
1010
0000
1000
0100
0001
0100
,
1000
0100
0011
0000
,
1100
0000
0011
0000
0001
0100
1000
0100
,
0001
0100
1010
0000
,
0101
0000
1010
0000
1000
0100
0001
0100
,
0010
0001
0000
0100
1000
0000
0100
0010
,
0000
2002
0000
0000
0000
3003
0000
0000
;

//--------------- dance-single - forcednature ----------------
#NOTEDATA:;
#STEPSTYPE:dance-single;
#DESCRIPTION:forcednature;
#CREDIT:forcednature;
#DIFFICULTY:Hard;
#METER:12;
#RADARVALUES:0,0,0,0,0;
#NOTES:
0000
0000
0000
0000
,
0000
0000
0000
0000
,
0000
0000
0000
0000
,
0000
0000
0000
0000
,
0000
0000
0000
0000
,
0000
0000
0000
0000
,
2100
0000
0000
3010
0000
0000
0102
0000
,
0000
0013
0000
0100
0110
0000
1001
0000
,
1100
0000
0101
0000
1000
0001
0100
0000
,
1010
0000
0011
0000
0001
1000
0010
0100
,
0001
0000
0011
0000
1000
0100
0010
0000
,
0110
0000
1001
0000
0001
0100
2000
0000
,
3100
0000
0100
0000
0010
0000
1000
0001
1000
0000
0100
0000
0010
0000
0001
0000
,
0100
0000
0100
0000
0100
0000
0000
0001
1000
0000
0010
0000
0100
0001
0100
0000
,
0010
1000
0001
1000
0100
0100
0010
0000
,
0001
0001
1000
0010
0100
0001
1000
0000
,
1100
0101
1001
0000
,
0101
0000
0000
0000
1010
0000
0000
0000
1000
0100
0000
0000
0010
0001
0000
0000
,
0101
1010
1001
0000
,
0011
0000
0000
0000
1100
0000
0000
0000
1000
0010
0000
0000
0100
0001
0000
0000
,
0110
1010
0011
0000
,
1100
0000
0000
0000
0101
0000
0000
0000
1000
0010
0000
0000
0001
0010
0000
0000
,
0110
2000
0002
3003
,
1100
0000
0000
0000
0011
0000
0000
0000
0001
0100
0001
0000
1000
0010
1000
0000
,
0001
0000
0010
0000
0100
0000
0010
0000
0001
0000
1000
0001
0000
0000
0100
0000
,
0002
0000
0000
0020
0000
0000
0033
0000
,
1000
0000
0010
0000
1000
0000
0001
0000
0010
0000
0000
0110
0000
0000
1000
0000
,
0200
0000
0000
0020
0000
0000
0330
0000
,
0001
0000
1000
0000
0010
0000
0100
0000
0001
0000
1000
0100
0000
0100
0010
0000
,
0001
0000
1000
0000
0010
0000
0100
0001
1000
0000
1000
0000
0100
0000
0010
0000
,
0001
0100
0000
0000
0100
1000
0000
0000
1000
0100
0000
0000
0010
0000
0220
0000
,
0000
0000
0330
0000
0010
0000
2002
0000
0000
0000
3003
0000
1000
0000
0001
0010
,
0100
0000
1000
0000
0100
0000
0001
0000
0100
0000
0000
0011
0000
0000
1010
0000
,
0001
0000
1000
0000
0010
0000
0001
0000
0010
0000
0000
1100
0000
0000
0101
0000
,
1000
0000
0000
1000
0100
0000
0010
0000
0001
0000
0000
0001
0100
0000
0010
0000
,
1000
0000
0000
1000
0001
0000
0010
0000
0200
0000
0000
2300
0000
0000
3020
0000
,
0230
1000
0010
0001
,
0320
1000
0100
0001
,
2030
0000
0100
0000
3001
1000
0010
0100
,
0001
0000
0000
0011
0000
0000
0101
0000
1000
0000
0000
1010
0000
0000
1100
0000
,
1002
0000
0000
0203
0000
0320
2030
0000
,
3100
0010
0001
0100
0100
0000
0010
1000
,
1002
0000
0013
0001
0100
0010
0000
2000
,
0100
0000
0001
0000
3010
1000
0001
0010
,
0210
0000
0301
0100
1100
0000
0101
0000
,
0220
0000
0000
0000
0330
0000
2002
0000
0000
0000
3003
0000
1000
0001
1000
0001
,
1000
0010
0100
0001
1000
0000
0001
1000
,
0001
0010
0100
1000
0010
1000
1100
0000
,
0001
0100
1000
0100
0000
0110
0000
0001
,
1000
0100
0010
0000
0001
0000
0100
0001
0000
0001
1000
0000
0100
1000
0100
1000
,
0002
0000
0103
0010
1000
0001
0000
0020
,
0001
0000
0100
0000
1030
0010
0001
1000
,
2002
0000
3003
0001
0101
0000
1010
0000
,
0220
0000
0330
2002
0000
3003
0001
0100
,
0120
0000
0031
0010
1000
0002
0000
0013
,
0000
0000
0110
0000
0000
0000
1000
0100
1000
0000
0010
0000
0100
0001
0100
0001
,
0020
0000
0030
1100
0000
0000
2020
0000
,
3030
0101
0000
0100
0110
0000
1001
0000
,
1100
0101
1001
0000
,
1010
0000
0000
0000
0101
0000
0000
0000
0001
0010
0000
0000
0100
1000
0000
0000
,
1010
1100
0101
0000
,
0110
0000
0000
0000
1001
0000
0000
0000
1000
0010
0000
0000
0001
0010
0000
0000
,
0101
1010
1001
0000
,
1100
0000
0000
0000
0011
0000
0000
0000
0100
0010
0000
0000
1000
0001
0000
0000
,
1001
0110
1001
0000
,
0101
0000
0000
0000
1100
0000
0000
0000
0001
0010
0000
0000
0100
1000
0100
0000
,
0010
0001
0010
0000
0000
0000
0001
0100
0001
0100
0001
0000
1000
0010
1000
0010
,
0000
2002
0000
0000
0000
3003
0000
0000
;

//--------------- dance-double - forcednature ----------------
#NOTEDATA:;
#STEPSTYPE:dance-double;
#DESCRIPTION:forcednature;
#CREDIT:forcednature;
#DIFFICULTY:Easy;
#METER:3;
#RADARVALUES:0,0,0,0,0;
#NOTES:
00000000
00000000
00000000
00000000
,
00000000
00000000
00000000
00000000
,
00000000
00000000
00000000
00000000
,
00000000
00000000
00000000
00000000
,
00000000
00000000
00000000
00000000
,
00000000
00000000
00000000
00000000
,
00001000
00000000
00000000
00010000
,
00000000
00000000
00001000
00000000
,
01000000
00000000
00000000
00000000
,
00010000
00000000
00000000
00000000
,
10000000
00000000
00000000
00000000
,
00010000
00000000
00000000
00000000
,
00100000
00000000
00000000
00000000
,
00001000
00000000
00000000
00000000
,
00010000
00000000
00000000
00000000
,
00001000
00000000
00000000
00000000
,
00010000
00000000
00000000
00000000
,
00000010
00000000
00001000
00000000
,
00001000
00000000
00000000
00000000
,
00001000
00000000
00000100
00000000
,
00000100
00000000
00000000
00000000
,
00000100
00000000
00000010
00000000
,
00000010
00000000
00000000
00000000
,
00000010
00000000
00000001
00000000
,
00000001
00000000
00000000
00000000
,
00000100
00000000
00000000
00000000
,
00000010
00000000
00000000
00000000
,
00001000
00000000
00000000
00000000
,
00000010
00000000
00000000
00000000
,
00010000
00000000
00000000
00000000
,
00001000
00000000
00000000
00000000
,
00100000
00000000
00010000
00000000
,
00100000
00000000
00000000
00000000
,
01000000
00000000
00000000
00000000
,
10000000
00000000
00000000
00000000
,
01000000
00000000
00000000
00000000
,
00100000
00000000
00000000
00000000
,
00010000
00000000
00000000
00000000
,
00100000
00000000
00000000
00000000
,
00001000
00000000
00001000
00000000
,
00010000
00000000
00000000
00010000
,
00000000
00000000
00000000
00000000
,
00011000
00000000
00000000
00000000
,
00001000
00000000
00010000
00000000
,
00000100
00000000
00000000
00000000
,
00001000
00000000
00001000
00000000
,
00000001
00000000
00000000
00000000
,
00000010
00000000
00000100
00000000
,
00000010
00000000
00000000
00000000
,
00000100
00000000
00000100
00000000
,
00001000
00000000
00000000
00000000
,
00000010
00000000
00001000
00000000
,
00000010
00000000
00000000
00000000
,
00010000
00000000
00001000
00000000
,
00010000
00000000
00000000
00000000
,
00001000
00000000
00100000
00000000
,
00001000
00000000
00000000
00001000
,
00000000
00000000
01000000
00000000
,
00010000
00000000
00000000
00000000
,
00010000
00000000
00100000
00000000
,
00100000
00000000
00000000
00000000
,
00100000
00000000
01000000
00000000
,
01000000
00000000
00000000
00000000
,
01000000
00000000
10000000
00000000
,
10000000
00000000
00000000
00000000
,
10000000
00000000
00100000
00000000
,
00100000
00000000
00000000
01000000
,
00000000
00010000
00000000
00000000
;

//--------------- dance-double - forcednature ----------------
#NOTEDATA:;
#STEPSTYPE:dance-double;
#DESCRIPTION:forcednature;
#CREDIT:forcednature;
#DIFFICULTY:Medium;
#METER:9;
#RADARVALUES:0,0,0,0,0;
#NOTES:
00000000
00000000
00000000
00000000
,
00000000
00000000
00000000
00000000
,
00000000
00000000
00000000
00000000
,
00000000
00000000
00000000
00000000
,
00000000
00000000
00000000
00000000
,
00000000
00000000
00000000
00000000
,
02002000
00000000
00000000
03003000
00000000
00000000
00020200
00000000
,
00000000
00030300
00000000
00000000
00011000
00000000
00011000
00000000
,
00010000
00000000
00001000
00000000
00100000
00010000
00100000
00000000
,
01000000
10000000
00010000
01000000
,
00001000
00000000
00010000
00000000
00000100
00001000
00000100
00000000
,
00000010
00000001
00000100
00000010
,
00001000
00000100
00001000
00000000
00000010
00000000
00010000
00000000
,
00001000
00100000
00001000
00000000
00010000
00000000
00100000
00000000
,
01000000
00010000
01000000
00000000
00100000
00000000
10000000
00000000
,
01000000
00100000
01000000
00000000
00010000
00000000
00001000
00000000
,
00000110
00001001
00000110
00000000
,
00010100
00101000
01010000
10100000
,
01100000
10010000
01100000
00000000
,
01001000
00010010
00001100
00000011
,
00000110
00001001
00000110
00000000
,
00010010
01001000
00110000
11000000
,
01100000
10010000
01100000
00000000
,
10000000
00000000
00010000
00000000
01000000
00001000
01000000
00000000
,
00010000
00000000
00100000
00000000
00001000
00000000
00100000
00000000
00010000
00000000
00000000
00001000
00000000
00000000
00000100
00000000
,
00000020
00000000
00000000
00000002
00000000
00000000
00000033
00000000
,
00000100
00000000
00000001
00000000
00000100
00000000
00000010
00000000
00001000
00000000
00000000
00010000
00000000
00000000
01000000
00000000
,
00200000
00000000
00000000
20000000
00000000
00000000
30300000
00000000
,
10000000
00000000
01000000
00000000
10000000
00000000
00010000
00000000
01000000
00000000
00000000
00001000
00000000
00000000
00010000
00000000
,
00000100
00000100
00001000
00000100
00000000
00000000
00000010
00000001
,
00000200
00000000
00002300
00000000
00023000
00000000
00130000
01100000
,
00000000
00000000
10000000
20020000
00000000
00000000
30030000
00000000
,
10000000
00000000
01000000
00000000
10000000
00000000
01000000
00000000
00100000
00000000
00000000
00010000
00000000
00000000
01000000
00000000
,
00001000
00000000
00010000
00000000
00001000
00000000
00010000
00000000
00000100
00000000
00000000
00001000
00000000
00000000
00000010
00000000
,
00000100
00000000
00000000
00000001
00000000
00000000
00000010
00000000
00000100
00000000
00000000
00001000
00000000
00000000
00000010
00000000
,
00010000
00000000
00000000
00001000
00000000
00000000
00100000
00000000
00010000
00000000
00000000
00010000
00000000
00000000
01010000
00000000
,
00000000
10000000
20000000
00000000
32000000
00000000
03020000
00000000
,
00032000
00003200
00000302
00000023
,
00000230
00002300
00003020
00020030
,
00031000
00000000
00000000
00100000
00000000
00000000
00001000
00000000
00010000
00000000
00000000
00000010
00000000
00000000
00010000
00000000
,
00012000
00000000
00000000
02003000
00000000
03001000
00010000
00000000
,
00000100
00001000
00000100
00000010
00000001
00000000
00000100
00000001
,
00000101
00000000
00000100
00000010
00000100
00001000
00010000
01000000
,
00200000
00000000
00010000
00000000
01300000
00000000
00100000
00010000
,
10000000
00000000
00100000
01000000
00010000
00000000
00100000
00000000
,
01100000
00000000
00000000
00011000
00000000
00000000
00000010
00001000
,
00000001
00000010
00000100
00001000
00000000
00000010
00000100
00000001
,
00001000
00000100
00010000
00001000
00000000
01000000
01000000
00000000
,
00010000
00100000
01000000
10000000
00000000
10010000
00000000
02200000
,
00000000
00000000
00000000
00000000
03300000
00000000
00010000
01000000
,
00001000
00000000
00010000
00000100
00001000
00000010
00000000
00000200
,
00000001
00000000
00000010
00000000
00001300
00000000
00000100
00000001
,
00001000
00000000
00000100
00000010
00000100
00000000
00010000
00000000
,
00101000
00000000
00000000
00010010
00000000
00000000
00010000
00001000
,
01000000
00000000
00010000
00100000
01000000
10000000
00000000
01000000
,
00000000
00010000
00000000
00001000
00000100
00000001
00000100
00000010
,
00000110
00000000
00000000
00001010
00000000
00000000
00010100
00000000
,
00000000
01001000
00000000
00100000
01100000
00000000
10010000
00000000
,
01100000
10010000
01100000
00000000
,
01001000
00010010
00001100
00000011
,
00000110
00001001
00000110
00000000
,
00010100
00101000
01010000
10100000
,
01100000
10010000
01100000
00000000
,
00101000
00010100
00001010
00000101
,
00000110
00001001
00000110
00000000
,
00010010
01001000
00110000
11000000
,
10000000
00010000
00000000
00100000
00001000
00000000
00010000
00000010
,
00000000
00000220
00000000
00000000
00000000
00000330
00000000
00000000
;

//--------------- dance-double - forcednature ----------------
#NOTEDATA:;
#STEPSTYPE:dance-double;
#DESCRIPTION:forcednature;
#CREDIT:forcednature;
#DIFFICULTY:Hard;
#METER:11;
#RADARVALUES:0,0,0,0,0;
#NOTES:
00000000
00000000
00000000
00000000
,
00000000
00000000
00000000
00000000
,
00000000
00000000
00000000
00000000
,
00000000
00000000
00000000
00000000
,
00000000
00000000
00000000
00000000
,
00000000
00000000
00000000
00000000
,
02002000
00000000
00000000
03003000
00000000
00000000
00020200
00000000
,
00000000
00030300
00000000
00010000
00001000
00000000
00011000
00000000
,
00010000
00100000
01000000
00000000
00100000
10000000
00010000
00000000
,
00100000
01000000
00010000
00001000
00000010
00000100
00001000
00000000
,
00000001
00000100
00000010
00000000
00010000
00001000
00000010
00000000
,
00000100
00001000
00000010
00010000
00001000
01000000
00010000
00000000
,
00100000
01000000
10000000
01000000
00010000
01000000
00100000
00000000
,
00001000
00010000
00000010
00010000
00001000
00000010
00000100
00000000
,
00001000
00000001
00000100
00000010
00001000
00000100
00000010
00000000
,
00000100
00010000
00001000
01000000
00010000
00100000
01000000
00000000
,
01100000
00011000
00000110
00000000
,
00001001
00000000
00000000
00000000
00000110
00000000
00000000
00000000
00000001
00000100
00000000
00000000
00001000
00000100
00000000
00000000
,
00000110
00011000
01100000
00000000
,
10010000
00000000
00000000
00000000
01100000
00000000
00000000
00000000
10000000
01000000
00000000
00000000
00010000
01000000
00000000
00000000
,
01100000
00011000
00000110
00000000
,
00001001
00000000
00000000
00000000
00000110
00000000
00000000
00000000
00000001
00000100
00000000
00000000
00001000
00000100
00000000
00000000
,
00000020
00002030
00203000
00300000
,
10010000
00000000
01100000
00000000
10000000
01000000
00010000
00000000
,
00001000
00100000
00010000
01000000
00001000
00010000
00100000
01000000
,
00020000
00000000
00000000
20000000
00000000
00000000
30030000
00000000
,
10000000
01000000
00010000
00001000
00100000
00010000
01000000
00001000
,
00020000
00000000
00000000
00000200
00000000
00000000
00030300
00000000
,
00000010
00001000
00000001
00000010
00000100
00001000
00000010
00000100
,
00000001
00000001
00001000
00000002
00000000
00000013
00000100
00001000
,
00000020
00000000
00000230
00000000
00002300
00000000
00013000
00200000
,
00000000
00300000
01000000
02200000
00000000
00000000
03300000
00000000
,
10000000
00000000
00100000
00000000
00010000
00000000
00100000
00000000
01000000
00000000
00000000
00001000
00000000
00000000
00010000
00000000
,
00000010
00000000
00000100
00000000
00001000
00000000
00000100
00000000
00000010
00000000
00000000
00001000
00000000
00000000
00000001
00000000
,
00000010
00000000
00000000
00000100
00000000
00000000
00010000
00000000
00001000
00000000
00000000
00100000
00000000
00000000
01000000
00000000
,
10000000
00000000
00000000
00010000
00000000
00000000
01000000
00000000
00002000
00000000
00000000
00010000
00000000
00000000
00103000
00000000
,
00000000
00001000
00010000
00100000
01000000
00010000
10000000
00000000
,
01000000
00010000
00001000
00100000
00010000
01000000
00001000
00000000
,
00010000
00000100
00001000
00000010
00000100
00000001
00000010
00000000
,
00000110
00000000
00000000
00000100
00000000
00000000
00010000
00000000
00011000
00000000
00000000
00001000
00000000
00000000
01000000
00000000
,
02200000
00000000
00000000
03300000
00000000
00000000
20020000
00000000
00000000
30030000
00000000
00000000
01100000
00000000
00000000
00000000
,
10000000
01000000
00010000
00001000
00000010
00000000
00000100
00001000
,
00001010
00000000
00000010
00000100
00001000
00000100
00000001
00000010
,
00000100
00010000
00001000
01000000
00010000
00100000
00001000
00010000
,
00100000
00000000
01000000
00010000
10000000
01000000
00100000
00000000
,
01100000
00000000
00000000
00011000
00000000
00000000
00000010
00001000
,
00000100
00000010
00000100
00000000
00001000
00000000
00000001
00000000
00000100
00000000
00000000
00000000
00000010
00000000
00010000
00000000
,
00001000
00100000
00001000
00000000
00010000
00000000
00100000
00000000
01000000
00000000
00010000
00000000
01010000
00000000
00000000
00000000
,
10000000
01000000
00010000
00001000
00000000
00011000
00000000
00000110
,
00000000
00000001
00000100
00000000
00000010
00000000
00001000
00000001
00000000
00000010
00000100
00000000
00001000
00000000
00000001
00000000
,
00000011
00000000
00000010
00000100
00010000
00001000
00100000
00010000
,
01000000
00100000
10000000
00010000
00100000
01000000
00010000
00001000
,
00000010
00000000
00000100
00001000
00000001
00000100
00000010
00001000
,
00010000
01000000
00010000
00100000
01000000
00000000
10000000
00010000
,
01000000
00100000
01000000
00000000
00010000
00000000
00100000
00000000
01000000
00000000
00010000
00000000
00001000
00000000
00000010
00000000
,
00000100
00001000
00000001
00000100
00001000
00010000
00100000
10000000
,
22000000
00000000
00000000
33000000
00000000
00000000
00110000
00000000
00000000
00000000
00000000
00000000
00002200
00000000
00000000
00003300
,
00000000
00000011
00000000
00000001
00000100
00000000
00001010
00000000
,
00000110
00011000
01100000
00000000
,
10010000
00000000
00000000
00000000
01100000
00000000
00000000
00000000
10000000
01000000
00000000
00000000
00010000
01000000
00000000
00000000
,
01100000
00011000
00000110
00000000
,
00001001
00000000
00000000
00000000
00000110
00000000
00000000
00000000
00000001
00000100
00000000
00000000
00001000
00000100
00000000
00000000
,
00000110
00011000
01100000
00000000
,
10010000
00000000
00000000
00000000
01100000
00000000
00000000
00000000
10000000
01000000
00000000
00000000
00010000
01000000
00000000
00000000
,
01100000
00011000
00000110
00000000
,
00001001
00000000
00000000
00000000
00000110
00000000
00000000
00000000
00000001
00000100
00000000
00000000
00001000
00000100
00000000
00000000
,
00000010
00001000
00000010
00000000
00000000
00000000
00010000
00000100
00010000
00000100
00000000
00000000
01000000
00001000
01000000
00001000
,
00000000
20020000
00000000
00000000
00000000
30030000
00000000
00000000
;
