#VERSION:0.83;
#TITLE:ただ、それだけの理由で;
#SUBTITLE:;
#ARTIST:BEMANI Sound Team "あさき";
#TITLETRANSLIT:Tada, soredake no riyuu de;
#SUBTITLETRANSLIT:;
#ARTISTTRANSLIT:Asaki;
#GENRE:;
#CREDIT:;
#MUSIC:Tada, soredake no riyuu de.ogg;
#BANNER:Tada, soredake no riyuu de.png;
#BACKGROUND:Tada, soredake no riyuu de-bg.png;
#CDTITLE:./CDTitles/GITADORA HIGH-VOLTAGE.png;
#SAMPLESTART:40.164;
#SAMPLELENGTH:15.000;
#SELECTABLE:YES;
#OFFSET:0.414;
#BPMS:0.000=134.000;
#STOPS:;
#BGCHANGES:0.000=../BGAs/28bk.mp4=1.000=0=0=0=StretchNoLoop====,
99999.000=-nosongbg-=1.000=0=0=0=StretchNoLoop====
;
#FGCHANGES:;

//--------------- dance-single - forcednature ----------------
#NOTEDATA:;
#STEPSTYPE:dance-single;
#DESCRIPTION:forcednature;
#DIFFICULTY:Beginner;
#METER:3;
#RADARVALUES:0,0,0,0,0;
#CREDIT:forcednature;
#NOTES:
0000
0000
0000
0000
,
0000
0000
0000
0000
,
0000
0000
0000
0000
,
0000
0000
0000
0000
,
0000
0000
0000
0000
,
0001
0000
0000
0000
,
1000
0000
0001
0000
,
1000
0000
0000
0000
,
0010
0000
0000
0000
,
0100
0000
0000
0000
,
0001
0000
1000
0000
,
0001
0000
0000
0000
,
0010
0000
0000
0000
,
0100
0000
0000
0000
,
1000
0000
0000
0000
,
0010
0000
0000
0000
,
0100
0000
0000
0000
,
0010
0000
0100
0000
,
0010
0000
0000
0000
,
1000
0000
1000
0000
,
1000
0000
0000
0000
,
0001
0000
0001
0000
,
0001
0000
0000
0000
,
1001
0000
0000
0000
,
0110
0000
0000
0000
,
1001
0000
0000
0000
,
1000
0000
0100
0000
,
1001
0000
0000
0000
,
0001
0000
0010
0000
,
0100
0000
1000
0000
,
0010
0000
0000
0000
,
1001
0000
0000
0000
,
0110
0000
0000
0000
,
1001
0000
0000
0000
,
0001
0000
0100
0000
,
0010
0000
0000
0000
,
1000
0000
0100
0000
,
1001
0000
0000
0000
,
0000
0000
0000
0000
,
0001
0000
0000
1000
,
1000
0000
0000
0001
,
0001
0000
1000
0000
,
0010
0010
0100
0000
,
1001
0000
0000
0000
,
1000
0000
0100
0000
,
1000
0000
1000
0000
,
0001
0000
0000
0000
,
0100
0100
0100
0000
,
0010
0010
0010
0000
,
1001
0000
0110
0000
,
0001
0001
1000
0000
,
0010
0000
0100
0000
,
0010
0100
0010
0000
,
1000
0000
0001
0000
,
1000
0100
0010
0001
,
0000
2002
0000
0000
0000
0000
0000
0000
,
0000
0000
0000
0000
,
3003
0000
0000
0000
;

//--------------- dance-single - forcednature ----------------
#NOTEDATA:;
#STEPSTYPE:dance-single;
#DESCRIPTION:forcednature;
#DIFFICULTY:Easy;
#METER:7;
#RADARVALUES:0,0,0,0,0;
#CREDIT:forcednature;
#NOTES:
0000
0000
0000
0000
,
0000
0000
0000
0000
,
0000
0000
0000
0000
,
0000
0000
0000
0000
,
0000
0000
0000
0000
,
1000
0000
1000
0000
,
0001
0001
1000
0010
,
0000
0100
0001
0100
,
0000
0001
1000
0010
,
0000
1000
0100
1000
,
0000
1000
0001
0010
,
0110
0000
1000
0000
,
0001
0100
0001
0000
,
0110
0000
0001
0000
,
1000
0100
1000
0000
,
1001
0000
0002
0000
,
0013
0100
0020
0000
,
0130
0000
1000
0000
,
0010
0100
0010
0000
,
1001
0000
0001
0100
,
0001
0000
0001
0010
,
0001
0000
0001
0100
,
0002
0000
0013
0000
,
1001
0001
1000
0000
,
0100
0100
1000
0000
,
0010
0010
1000
0000
,
0100
0100
0010
0010
,
0001
0000
1000
0010
,
0100
0001
0100
0010
,
1000
0000
0001
0010
,
0100
1000
0010
0100
,
0110
0000
0010
1000
,
1001
0000
0001
0010
,
0110
0000
0100
1000
,
1001
0000
0001
0100
,
0001
0000
1000
0010
,
1000
0100
0010
0001
,
1001
0000
0000
0000
,
0000
0000
0020
0000
0130
0100
0100
0000
,
2002
3003
1000
0100
,
2002
3003
0001
0100
,
2002
3003
0220
0330
,
1000
1001
0001
0110
,
1000
0000
0001
0000
0100
0010
0100
0000
,
0001
0000
1000
0000
0100
0010
0100
0000
,
1000
0000
0001
0000
0010
0100
0010
0000
,
0001
0000
1000
0000
0010
0100
0010
0000
,
1000
0000
0001
0000
0100
0010
1000
0000
,
0001
0000
1000
0000
0100
0010
0001
0000
,
1000
1010
0001
0101
,
1000
0100
0010
0000
0001
0001
0001
0000
,
1000
0000
0010
0000
0100
0001
0100
0000
,
0010
0010
0010
0000
1000
0000
0001
0000
,
0010
0100
1000
0000
0001
0010
0001
0000
,
0000
0000
1000
0000
0000
0010
0000
0000
0100
0000
0000
0001
0000
0000
0010
0000
,
0000
2002
0000
0000
0000
0000
0000
0000
,
0000
0000
0000
0000
,
3003
0000
0000
0000
;

//--------------- dance-single - forcednature ----------------
#NOTEDATA:;
#STEPSTYPE:dance-single;
#DESCRIPTION:forcednature;
#DIFFICULTY:Medium;
#METER:12;
#RADARVALUES:0,0,0,0,0;
#CREDIT:forcednature;
#NOTES:
0000
0000
0000
0000
,
0000
0000
0000
0000
,
0000
0000
0000
0000
,
0000
0000
0000
0000
,
0000
0000
0000
0000
,
0001
0100
0001
0100
,
0010
0000
1001
0000
1000
0100
0020
0000
,
0031
0000
0100
0000
0001
0000
0000
0001
0010
0000
1000
0000
0010
0000
0000
0000
,
0100
0000
1000
0000
0010
0000
0000
0010
1000
0000
0100
0000
0001
0000
0000
0000
,
0100
0000
1000
0000
0001
0000
0000
0001
0010
0000
0001
0000
0100
0000
0000
0000
,
0010
0000
1000
0000
0001
0000
0000
0001
0100
0000
1000
0000
0100
0000
0001
0000
,
0000
1000
1000
0010
1000
0001
0100
0001
,
1000
0000
0010
0000
0001
0000
0010
0000
1000
0000
0001
0000
0202
0000
0000
0303
,
0000
0001
0001
0010
0001
1000
0100
1000
,
0001
0010
1000
0010
0001
1000
1100
0000
,
1000
0000
0010
0100
0000
0001
0200
0000
0000
0000
0010
0000
0310
0000
0000
0000
,
0001
0000
0010
0100
0000
1000
0200
0000
0000
0000
0010
0000
0320
0000
0000
0000
,
0031
0000
0100
0001
0000
1000
0010
0000
0000
0100
0000
0000
0001
0000
1000
0000
,
0200
0000
0000
0000
0310
0000
0000
0000
0001
1000
0001
1000
0002
0000
0000
0000
,
0103
0000
0010
0000
0000
1000
0000
1000
0000
1000
0000
0000
0100
0000
0010
0000
,
0001
0000
0100
0000
0000
0010
0000
0010
0000
0010
0000
0000
1000
0000
0001
0000
,
0010
0000
0100
0000
0000
1000
0000
1000
0000
1000
0000
0000
0002
0000
0000
0000
,
0103
0000
0010
0100
0010
0000
0100
0001
2000
0000
0000
0000
3000
0000
0000
0000
,
0011
0000
0000
0110
0000
0000
1100
0000
0000
0000
0001
0000
0010
0000
0000
0000
,
0101
0000
0000
0110
0000
0000
1010
0000
0000
0000
0001
0000
0100
0000
0000
0000
,
1001
0000
0000
1100
0000
0000
0011
0000
0000
0000
1000
0000
0020
0000
0000
0000
,
0100
0000
0000
0100
0000
0000
1030
0000
0000
0000
0001
0000
0100
0000
0000
0000
,
0110
0000
0000
0000
0010
0000
1000
0000
0001
0000
0000
0010
0001
0000
1000
0000
,
0100
0010
0100
1000
0001
0010
0001
1000
,
0010
0000
0000
0100
0010
0000
0100
0001
0100
0000
0010
0000
2000
0000
0000
0000
,
3001
0000
0000
0010
0000
0000
1000
0000
0010
0000
0001
0000
1000
0000
0000
0000
,
1010
0000
0000
1100
0000
0000
0101
0000
0000
0000
1000
0000
0001
0000
0000
0000
,
0011
0000
0000
0101
0000
0000
1100
0000
0000
0000
0100
0000
0010
0000
0000
0000
,
0110
0000
0000
1001
0000
0000
0110
0000
0000
0000
0001
0000
1000
0000
0000
0000
,
1010
0000
0000
0101
0000
0000
0011
0000
0000
0000
0001
1000
0001
0000
0000
0000
,
1000
0000
0000
0100
0000
0000
0001
0000
0100
0000
0000
1000
0100
0000
0000
0000
,
0010
0000
0000
0001
0000
0000
0100
0000
0010
0000
0100
0010
2000
0000
0000
0000
,
3002
0003
0000
0000
,
0000
0000
0000
0010
0000
0000
0200
0000
0000
0000
0000
0000
1300
0000
0001
0000
1000
0000
0001
0000
0000
0000
0000
0000
,
0101
0000
1000
0010
1000
0000
0001
0000
,
1100
0000
0001
0010
0001
0000
1000
0000
,
1010
0000
0001
0100
0101
0000
1000
0010
,
1010
0000
1100
0000
0001
0010
2000
0000
,
3010
0000
0001
0000
0000
1000
0000
0100
0000
1100
0000
0000
0001
0000
0010
0000
,
0001
0000
0100
0000
0000
0010
0000
1000
0000
1010
0000
0000
0001
0000
0010
0000
,
0100
0000
1000
0000
0000
0010
0000
0100
0000
0110
0000
0000
1000
0000
0001
0000
,
0010
0000
0001
0000
0000
0100
0000
1002
0000
0000
0103
0000
0010
1000
0010
0000
,
0100
0000
0001
0000
0010
0000
0001
0000
0100
0000
0010
1000
0001
0000
0100
0000
,
0010
0000
1000
0000
0010
0000
1000
0000
0100
0000
0010
0001
1000
0000
0000
0000
,
0001
0100
0001
0100
0020
0000
0000
0000
1030
0100
1000
0100
0020
0000
0000
0000
,
0031
0000
1000
0000
1001
0000
0001
0000
0100
0010
0100
0010
0200
0000
0000
0000
,
0310
1000
0100
0001
0100
1000
0010
0000
,
0100
0001
0100
0000
0001
0000
1000
0000
0010
0100
0010
0100
0002
0000
0000
0000
,
1003
0000
0100
0000
0001
0000
0100
0000
1000
0000
0001
0010
0001
0010
0001
0000
,
1000
0000
0010
0000
0100
0010
0000
0100
0001
0000
1000
0010
0000
0100
0010
0000
,
0000
2002
0000
0000
0000
0000
3000
0000
,
0010
0000
0010
0000
,
1003
0001
0000
0000
0000
0000
0000
0000
;

//--------------- dance-single - forcednature ----------------
#NOTEDATA:;
#STEPSTYPE:dance-single;
#DESCRIPTION:forcednature;
#DIFFICULTY:Hard;
#METER:17;
#RADARVALUES:0,0,0,0,0;
#CREDIT:forcednature;
#NOTES:
0000
0000
0000
0000
,
0000
0000
0000
0000
,
0000
0000
0000
0000
,
0000
0000
0000
0000
,
0000
0000
0000
0000
,
1001
0000
0000
0000
1000
0000
0000
0100
0010
0000
0000
0000
0001
0000
0000
0100
,
0010
0000
0000
0000
1000
0100
1000
0000
0100
0010
0001
1000
0020
0000
0000
0000
,
0130
0001
1000
0000
0010
0100
0000
0100
0010
1000
0001
0000
0010
0100
0000
0100
,
0010
0000
0001
1000
0100
0010
0000
0010
0100
1000
0001
0100
0001
1000
0010
0000
,
0100
0000
0001
1000
0010
0100
0000
0100
0010
0000
1000
0001
0010
0100
0000
0100
,
0010
0000
0001
1000
0010
0100
0000
0100
0001
0010
0100
1000
0010
0100
0001
0000
,
2001
0000
0000
0000
3100
0001
0000
0100
0000
1000
0001
0000
0010
0000
0001
0000
,
0100
0000
0001
0000
1000
0010
0000
0002
0000
0000
0013
0000
1000
0000
0000
0000
,
0001
0000
0100
0000
0001
0010
0000
0100
0000
0010
0100
0000
1000
0000
0001
0000
,
0100
0000
0010
0000
1000
0001
0000
0200
0000
0000
0310
1000
0001
0100
0010
0000
,
1000
0000
0100
0001
0000
0100
2000
0000
0000
0000
3010
0100
0001
0000
0010
0000
,
0001
0000
0100
1000
0000
0100
0002
0000
0000
0000
0013
0100
2000
0000
0000
0000
,
3010
0000
0100
0001
0000
0010
0001
0000
1000
0010
0000
1000
0100
0010
0100
0000
,
1000
0001
0010
0001
1000
0100
1000
0000
0001
0100
0010
0000
0210
0000
0000
0000
,
0301
1000
0010
1000
0000
0101
0000
0110
0000
1010
0000
0001
0010
0100
1000
0000
,
0001
0100
0001
1000
0000
1100
0000
0110
0000
0011
0000
1000
0010
0100
0001
0000
,
1000
0100
0010
0100
0000
0011
0000
0101
0000
1010
0000
1000
0100
1000
0001
0000
,
0100
0000
0001
0000
0100
0000
0001
0000
0000
1000
0000
0000
0010
0000
1000
0000
0010
0000
0100
0000
0000
0000
0000
0000
2002
0000
0000
0000
0000
0000
0000
0000
0000
0000
0000
0000
3003
0000
0000
0000
0000
0000
0000
0000
0000
0000
0000
0000
,
1000
0000
0100
0010
0000
0100
1000
0000
0001
0010
1000
0010
0001
0000
1000
0000
,
0001
0000
0100
0010
0000
0100
0001
0000
1000
0010
0001
0010
1000
0000
0001
0000
,
0010
0000
0100
1000
0000
0010
0100
0000
0001
0010
1000
0010
0002
0000
0000
0000
,
1003
0000
0010
1000
0010
0000
0100
0010
1000
0001
0100
0000
0210
0000
0000
0000
,
0310
0000
1000
0100
0000
0010
0100
0010
0001
0000
1000
0010
0000
0001
0010
0000
,
0100
0000
0001
0100
0000
0010
0100
0010
1000
0000
0001
0010
2000
0000
0000
0000
,
3010
0001
1000
0100
1000
0001
0100
0001
1000
0010
1000
0001
0020
0000
0000
0000
,
0130
0000
0000
1000
0000
0000
0001
0000
0000
1000
0000
0000
0100
0000
0010
0000
0100
0000
0010
0000
0000
0001
0000
0000
1000
0000
0000
0010
0000
0000
0001
0000
0000
0010
0000
0000
1000
0000
0000
0001
0000
0000
0100
0000
0000
0010
0000
0000
,
1000
0000
0001
0010
0000
0001
1000
0000
0100
0001
0100
1000
0010
0000
0100
0000
,
0001
0000
1000
0010
0000
1000
0001
0000
0100
1000
0100
0001
0010
0000
0100
0000
,
2200
0000
0000
3300
0000
0000
0220
0000
0000
0330
0000
0000
0011
0000
0000
0000
0001
0000
0100
0000
1000
0000
0100
0000
0010
0000
0000
0000
1000
0000
0000
0000
,
1001
0000
0000
0110
0000
0000
0001
0010
0100
1000
0010
0100
0001
0010
1000
0010
,
0002
0000
0000
0000
0000
0000
0000
0000
0103
0000
0000
0000
0001
0000
0000
0000
1000
0000
0010
0000
0100
0000
0001
0000
2000
0000
0100
0000
0000
3000
0000
0000
,
0011
0000
0000
0000
0000
0000
0010
0000
0000
0100
0000
0000
1000
0000
0000
0001
0000
0000
0100
0000
0000
0010
0000
0000
1000
0000
0000
0001
0000
0000
0010
0000
0000
0001
0000
0000
0100
0000
0000
0010
0000
0000
1000
0000
0001
0000
0100
0000
,
0020
1030
0010
0001
,
0010
0000
0000
0000
0000
0000
1000
0000
0000
0001
0000
0000
0200
0000
0000
0000
0000
0000
0000
0000
0000
0000
0000
0000
0310
0000
0000
0000
0110
0000
0000
0000
0100
0000
0000
0000
0110
0000
0000
0000
0000
0000
0000
0000
0000
0000
0000
0000
,
1002
0000
0000
0000
1003
0100
0000
0010
0100
0000
1000
0000
0001
0000
0101
0000
,
2001
0000
0000
0000
3001
0100
0000
0010
0100
0000
0001
0000
1000
0100
0010
0001
,
2000
0000
0000
0000
3001
0100
0010
1000
0002
0000
0000
0000
0013
0100
0010
0100
,
2000
0000
3010
0100
0002
0000
0013
0100
1000
0010
0100
0001
0020
0000
0032
0000
,
1003
0010
0100
0010
0000
1010
0000
0110
0000
0101
0000
0001
1000
0000
0010
0100
,
0001
0010
0100
0010
0000
0011
0000
0110
0000
1100
0000
1000
0010
0100
0001
0000
,
1000
0100
0001
0100
1000
0001
0000
0011
0000
0110
0000
0100
1000
0001
0010
0000
,
0001
0100
1000
0100
0001
1000
0000
1020
0000
0130
0001
1000
0001
0010
0200
0000
,
1300
0010
0100
0010
1000
0001
0100
0001
1000
0010
0001
0010
1000
0001
0100
0000
,
0001
0010
0100
0010
0001
1000
0100
1000
0001
0010
1000
0010
0001
1000
0100
0000
,
0010
0001
0100
1000
0200
0000
0000
0000
0310
1000
0100
0001
0200
0000
0000
0000
,
0310
0000
0000
0001
0000
0000
1000
0000
0000
0001
0000
0000
0100
0000
0010
0000
0100
0000
0010
0000
0000
1000
0000
0000
0001
0000
0010
0000
0001
0000
0010
0000
0001
0000
0010
0000
0100
0000
1000
0000
0100
0000
1000
0000
0100
0000
1000
0000
,
0001
0100
0010
1000
0100
0001
0100
1000
0010
0100
0001
0010
0200
0000
0000
0000
,
1300
0000
0010
0000
1000
0000
0001
0000
0100
0000
0001
0000
1000
0000
0000
0100
0000
0000
0010
0000
0000
0001
0000
0000
0100
0000
0000
1000
0000
0000
0100
0000
0000
0001
0000
0000
0200
0000
0000
0000
0000
0000
0000
0000
0000
0000
0000
0000
,
0310
0000
0000
1000
0000
0000
0001
0000
0000
0010
0000
0000
0100
0000
1000
0000
0100
0000
1000
0000
0100
0000
1000
0000
0001
0000
0100
0000
0010
0000
0100
0000
0001
0000
0100
0000
0010
0000
1000
0000
0001
0000
1000
0000
0010
0000
1000
0000
,
0001
0010
0100
1000
0010
0100
0001
0010
0100
0001
0100
1000
0001
0010
1000
0000
,
0110
2002
0000
0000
0000
0000
0003
0000
,
0010
0000
0010
0000
,
3001
0100
1000
0000
0000
0000
0000
0000
0000
0000
0000
0000
0000
0000
0000
0000
;

//--------------- dance-double - forcednature ----------------
#NOTEDATA:;
#STEPSTYPE:dance-double;
#DESCRIPTION:forcednature;
#DIFFICULTY:Easy;
#METER:7;
#RADARVALUES:0,0,0,0,0;
#CREDIT:forcednature;
#NOTES:
00000000
00000000
00000000
00000000
,
00000000
00000000
00000000
00000000
,
00000000
00000000
00000000
00000000
,
00000000
00000000
00000000
00000000
,
00000000
00000000
00000000
00000000
,
00001000
00000000
00001000
00000000
,
00010000
00010000
00001000
00100000
,
00000000
00010000
10000000
01000000
,
00000000
10000000
00010000
00100000
,
00000000
00001000
00010000
00001000
,
00000000
00010000
00001000
00010000
,
00011000
00000000
00000100
00000000
,
00001000
00000001
00001000
00000000
,
00000110
00000000
00000001
00000000
,
00001000
00000100
00010000
00000000
,
00011000
00000000
00002000
00000000
,
00103000
00010000
00200000
00000000
,
01300000
00000000
10000000
00000000
,
00010000
01000000
00010000
00000000
,
10010000
00000000
00001000
00010000
,
00001000
00000000
00010000
00001000
,
00010000
00000000
00000100
00001000
,
00000200
00000000
00000310
00000000
,
00001001
00000000
00001000
00000100
,
00010000
00000000
00001000
00100000
,
00010000
00000000
01000000
01000000
,
00100000
00100000
01000000
00000000
,
10010000
00000000
00010000
01000000
,
00001000
00010000
00000010
00000000
,
00001000
00000100
00001000
00000000
,
00000001
00000100
00000001
00000000
,
00000110
00000000
00001000
00000100
,
00000110
00000000
00000100
00010000
,
00011000
00000000
00001000
00100000
,
00011000
00000000
01000000
00010000
,
01000000
00000000
00100000
10000000
,
00010000
10000000
01000000
00000000
,
10010000
00000000
00000000
00000000
,
00000000
00000000
00200000
00000000
01300000
01000000
01000000
00000000
,
20020000
30030000
00001000
00010000
,
00022000
00033000
00000001
00001000
,
00002002
00003003
00000220
00000330
,
00001000
00001001
00000100
00000110
,
00000001
00000000
00000100
00000000
00000010
00001000
00000010
00000000
,
00001000
00000000
00000100
00000000
00010000
00001000
00010000
00000000
,
00001000
00000000
00100000
00000000
00010000
00100000
00010000
00000000
,
10000000
00000000
00100000
00000000
01000000
00100000
01000000
00000000
,
00010000
00000000
10000000
00000000
01000000
00100000
00010000
00000000
,
00100000
00000000
00001000
00000000
00010000
00000100
00001000
00000000
,
00000010
00001001
00000100
00001001
,
00001000
00000100
00010000
00000000
00001000
00001000
00001000
00000000
,
01000000
00000000
00010000
00000000
00100000
00010000
00100000
00000000
,
01000000
01000000
01000000
00000000
10000000
00000000
00010000
00000000
,
01000000
00010000
00100000
00000000
00001000
00010000
00001000
00000000
,
00000000
00000000
00010000
00000000
00000000
00000100
00000000
00000000
00001000
00000000
00000000
00000010
00000000
00000000
00000100
00000000
,
00000000
00002002
00000000
00000000
00000000
00000000
00000000
00000000
,
00000000
00000000
00000000
00000000
,
00003003
00000000
00000000
00000000
;

//--------------- dance-double - forcednature ----------------
#NOTEDATA:;
#STEPSTYPE:dance-double;
#DESCRIPTION:forcednature;
#DIFFICULTY:Medium;
#METER:12;
#RADARVALUES:0,0,0,0,0;
#CREDIT:forcednature;
#NOTES:
00000000
00000000
00000000
00000000
,
00000000
00000000
00000000
00000000
,
00000000
00000000
00000000
00000000
,
00000000
00000000
00000000
00000000
,
00000000
00000000
00000000
00000000
,
00001000
00010000
00001000
00010000
,
00000100
00000000
00001001
00000000
00000001
00000100
00002000
00000000
,
00013000
00000000
00001000
00000000
00010000
00000000
00000000
00010000
00001000
00000000
00100000
00000000
00010000
00000000
00000000
00000000
,
10000000
00000000
00100000
00000000
10000000
00000000
00000000
10000000
01000000
00000000
00100000
00000000
00010000
00000000
00000000
00000000
,
01000000
00000000
00001000
00000000
00010000
00000000
00000000
00010000
00000100
00000000
00001000
00000000
00000010
00000000
00000000
00000000
,
00000100
00000000
00000001
00000000
00000010
00000000
00000000
00000010
00000100
00000000
00010000
00000000
00001000
00000000
00100000
00000000
,
00000000
00001000
00001000
00010000
00001000
01000000
00010000
00000000
,
10000000
00000000
00100000
00000000
00010000
00000000
00100000
00000000
10000000
00000000
00010000
00000000
02000000
00000000
00000000
03000000
,
00000000
00001000
00001000
00010000
00000100
00001000
00000100
00000000
,
00000010
00001000
00000010
00000001
00001000
00000100
00000110
00000000
,
00000010
00000000
00000100
00000010
00000000
00000100
00002000
00000000
00000000
00000000
00000100
00000000
00003100
00000000
00000000
00000000
,
00010000
00000000
00001000
00010000
00000000
00001000
00200000
00000000
00000000
00000000
00010000
00000000
00310000
00000000
00000000
00000000
,
10000000
00000000
00100000
01000000
00000000
00010000
01000000
00000000
00000000
01000000
00000000
00000000
00001000
00000000
00010000
00000000
,
00000020
00000000
00000000
00000000
00001030
00000000
00000000
00000000
00000001
00001000
00000001
00001000
00000002
00000000
00000000
00000000
,
00000013
00000000
00000100
00000000
00000000
00010000
00000000
00010000
00000000
00010000
00000000
00000000
00001000
00000000
00100000
00000000
,
00010000
00000000
01000000
00000000
00000000
00100000
00000000
00100000
00000000
00100000
00000000
00000000
10000000
00000000
00010000
00000000
,
00100000
00000000
01000000
00000000
00000000
00010000
00000000
00010000
00000000
00010000
00000000
00000000
00002000
00000000
00000000
00000000
,
00003010
00000000
00000100
00000000
00001000
00000000
00000100
00000010
00000002
00000000
00000000
00000000
00000003
00000000
00000000
00000000
,
00000101
00000000
00000000
00000110
00000000
00000000
00001010
00000000
00000000
00000000
00010000
00000000
00001000
00000000
00000000
00000000
,
00110000
00000000
00000000
01100000
00000000
00000000
11000000
00000000
00000000
00000000
00010000
00000000
01000000
00000000
00000000
00000000
,
00011000
00000000
00000000
00101000
00000000
00000000
00110000
00000000
00000000
00000000
10000000
00000000
00200000
00000000
00000000
00000000
,
01000000
00000000
00000000
01000000
00000000
00000000
01300000
00000000
00000000
00000000
10000000
00000000
00010000
00000000
00000000
00000000
,
00110000
00000000
00000000
00000000
00100000
00000000
00001000
00000000
00010000
00000000
00000000
00000100
00000000
00000000
00001000
00000000
,
00000010
00000000
00000000
00010000
00000000
00000000
00001000
00000000
01000000
00000000
00010000
00000000
01010000
00000000
00000000
00000000
,
10000000
00000000
00000000
10000000
01000000
00000000
00100000
00000000
01000000
00000000
00010000
00000000
00002000
00000000
00000000
00000000
,
00103000
00000000
00000000
00100000
00000000
00000000
00001000
00000000
00010000
00000000
00000010
00000000
00001000
00000000
00000000
00000000
,
00001100
00000000
00000000
00000110
00000000
00000000
00000011
00000000
00000000
00000000
00001000
00000000
00000010
00000000
00000000
00000000
,
00011000
00000000
00000000
00101000
00000000
00000000
00110000
00000000
00000000
00000000
00010000
00000000
01000000
00000000
00000000
00000000
,
01100000
00000000
00000000
10010000
00000000
00000000
01100000
00000000
00000000
00000000
10000000
00000000
00010000
00000000
00000000
00000000
,
00110000
00000000
00000000
00101000
00000000
00000000
00011000
00000000
00000000
00000000
00010000
00001000
00010000
00000000
00000000
00000000
,
00000100
00000000
00000000
00001000
00000000
00000000
00000010
00000000
00000100
00000000
00000000
00000001
00000100
00000000
00000000
00000000
,
00001000
00000000
00000000
00010000
00000000
00000000
00001000
00000000
00010000
00000000
00001000
00100000
00020000
00000000
00000000
00000000
,
20030000
30000000
00000000
00000000
,
00000000
00000000
00000000
00100000
00000000
00000000
02000000
00000000
00000000
00000000
00000000
00000000
03010000
00000000
10000000
00000000
00010000
00000000
10000000
00000000
00000000
00000000
00000000
00000000
,
01010000
00010000
00100000
00001000
,
00011000
00000100
00001000
00000010
,
00001001
00000100
00011000
01000000
,
01100000
00000000
00000000
00000000
10010000
00000000
00000000
00000000
10000000
00010000
10000000
00010000
20000000
00000000
00000000
00000000
,
31000000
00000000
00010000
00000000
00000000
00001000
00000000
00001000
00000000
00001000
00000000
00000000
00000010
00000000
00000100
00000000
,
00001000
00000000
00000001
00000000
00000000
00000100
00000000
00000100
00000000
00000100
00000000
00000000
00001000
00000000
00010000
00000000
,
00100000
00000000
01000000
00000000
00000000
00010000
00000000
00010000
00000000
00010000
00000000
00000000
10000000
00000000
01000000
00000000
,
00010000
00000000
00001000
00000000
00000000
00100000
00000000
00200000
00000000
00000000
00310000
00000000
00100000
00010000
00100000
00000000
,
01000000
10000000
01000000
00010000
00001000
00100000
00101000
00000000
,
00001000
00010000
00001000
00000010
00000100
00001000
00001100
00000000
,
00010000
00001000
00010000
00001000
00200000
00000000
00000000
00000000
00301000
00010000
00001000
00010000
00000020
00000000
00000000
00000000
,
00010030
00000000
00010000
00000000
00001000
00000000
00001000
00000000
00010000
00001000
00010000
00001000
00020000
00000000
00000000
00000000
,
00030100
00001000
00000010
00000100
00000001
00000010
00000100
00000000
,
00001000
00000100
00001000
00000000
00000100
00000000
00010000
00000000
00001000
00010000
00001000
00000000
00200000
00000000
00000000
00000000
,
00310000
00000000
01000000
00000000
00100000
00000000
01000000
00000000
00010000
00000000
10000000
00100000
10000000
00000000
10000000
00000000
,
00000000
00000000
01000000
00000000
00000000
00010000
00000000
00000000
00011000
00000000
00000000
00010100
00000000
00000000
00001100
00000000
,
00000000
00000022
00000000
00000000
00000000
00000000
00000030
00000000
,
00000100
00000000
00000100
00000000
,
00001003
00000010
00000000
00000000
00000000
00000000
00000000
00000000
;

//--------------- dance-double - forcednature ----------------
#NOTEDATA:;
#STEPSTYPE:dance-double;
#DESCRIPTION:forcednature;
#DIFFICULTY:Hard;
#METER:17;
#RADARVALUES:0,0,0,0,0;
#CREDIT:forcednature;
#NOTES:
00000000
00000000
00000000
00000000
,
00000000
00000000
00000000
00000000
,
00000000
00000000
00000000
00000000
,
00000000
00000000
00000000
00000000
,
00000000
00000000
00000000
00000000
,
00001000
00000000
00010000
00000000
00100000
00000000
00000000
00010000
00001000
00000000
00010000
00000000
01000000
00000000
00000000
00010000
,
00001000
00000000
00010000
00000000
00100000
01000000
00010000
00000000
00100000
00001000
00010000
00000100
00002000
00000000
00000000
00000000
,
00003001
00000100
00001000
00000000
00000100
00000001
00000000
00001000
00000010
00010000
00001000
00000000
00100000
01000000
00000000
01000000
,
00100000
00000000
00010000
10000000
00100000
00010000
00000000
00001000
00010000
00001000
01000000
00010000
00000000
00100000
00010000
00000000
,
10000000
01000000
00010000
00000000
01000000
10000000
00000000
00010000
00100000
00001000
00010000
00000000
00000010
00000100
00000000
00000100
,
00000010
00000000
00001000
00000001
00000010
00001000
00000000
00010000
00001000
00010000
00000100
00001000
00000010
00000100
00000001
00000010
,
00000200
00000000
00000000
00000000
00010300
00001000
00000000
00100000
00000000
01000000
00010000
00000000
00001000
00000000
00100000
00000000
,
00010000
00000000
00000010
00000000
00000100
00001000
00000000
00000001
00000010
00000000
00000001
00000000
00000201
00000000
00000000
00000000
,
00001300
00000000
00010000
00000000
00100000
01000000
00000000
00001000
00000000
00010000
00100000
00000000
00001000
00000000
00000010
00000100
,
00000001
00000000
00000010
00000000
00001000
00010000
00001000
02000000
00000000
00000000
03010000
10000000
00100000
01000000
00010000
00000000
,
10000000
00000000
01000000
00010000
00000000
00001000
00000020
00000000
00000000
00000000
00000130
00001000
00000001
00000000
00000010
00000000
,
00000001
00000000
00000100
00001000
00000000
00010000
00200000
00000000
00000000
00000000
10300000
00010000
02000000
00000000
00000000
00000000
,
03100000
00000000
10000000
01000000
00000000
00010000
01000000
00000000
00010000
00001000
00000000
00000010
00000100
00001000
00000100
00000000
,
00000010
00000001
00000100
00000001
00000010
00000100
00010000
00000000
00001000
00100000
01000000
00000000
01200000
00000000
00000000
00000000
,
00310000
10000000
00100000
10000000
00000000
01010000
00000000
01001000
00000000
00011000
00000000
00010000
00000010
00001000
00000010
00000000
,
00000100
00000001
00001000
00000001
00000000
00000011
00000000
00000110
00000000
00001100
00000000
00010000
00001000
00100000
00010000
00000000
,
01000000
00100000
10000000
00010000
00000000
00110000
00000000
00101000
00000000
00011000
00000000
00010000
00000010
00001000
00000010
00000000
,
00000100
00000000
00000001
00000000
00000100
00000000
00000001
00000000
00000000
00001000
00000000
00000000
00000100
00000000
00001000
00000000
00000100
00000000
00010000
00000000
00000000
00001000
00000000
00000000
00200000
00000000
00000000
00000000
00000000
00000000
00000000
00000000
00000000
00000000
00000000
00000000
00300000
00000000
00000000
00000000
00000000
00000000
00000000
00000000
00000000
00000000
00000000
00000000
,
01000000
00000000
00010000
00001000
00000000
00010000
01000000
00000000
00100000
00001000
00010000
00000100
00000010
00000000
00000001
00000000
,
00000100
00000000
00001000
00010000
00000000
00001000
00000100
00000000
00000010
00010000
00001000
01000000
00100000
00000000
10000000
00000000
,
01000000
00000000
00010000
00001000
00000000
00000010
00001000
00000000
00000010
00000100
00010000
00001000
00000020
00000000
00000000
00000000
,
00000031
00000000
00000100
00000001
00000100
00000000
00001000
00010000
00001000
00100000
00010000
01000000
00200000
00000000
00000000
00000000
,
10300000
00000000
01000000
00010000
00000000
00001000
00100000
00010000
00100000
00000000
00001000
00000010
00000000
00000100
00001000
00000000
,
00000001
00000000
00000100
00001000
00000000
00010000
00001000
00010000
00100000
00000000
01000000
00010000
20000000
00000000
00000000
00000000
,
31000000
00010000
00001000
00100000
00001000
00010000
00000100
00010000
00001000
00000010
00000001
00000010
00000200
00000000
00000000
00000000
,
00001300
00000000
00000000
00000001
00000000
00000000
00000100
00000000
00000000
00000001
00000000
00000000
00001000
00000000
00000010
00000000
00000100
00000000
00000010
00000000
00000000
00001000
00000000
00000000
00000100
00000000
00000000
00000010
00000000
00000000
00001000
00000000
00000000
00010000
00000000
00000000
01000000
00000000
00000000
00100000
00000000
00000000
00010000
00000000
00000000
10000000
00000000
00000000
,
01000000
00000000
00010000
00001000
00000000
00010000
01000000
00000000
00100000
00010000
00001000
00000100
00000010
00000000
00000001
00000000
,
00000100
00000000
00001000
00010000
00000000
00001000
00000100
00000000
00000010
00001000
00010000
01000000
00100000
00000000
10000000
00000000
,
01000000
00000000
00010000
00000100
00000000
00001000
00000010
00000000
00000100
00001000
00010000
00100000
01000000
00000000
00010000
00000000
,
10010000
00000000
00000000
01100000
00000000
00000000
00010000
00100000
00001000
00010000
00000100
00001000
00000010
00000100
00001000
00000100
,
00000002
00000000
00000000
00000000
00000000
00000000
00000000
00000000
00000013
00000000
00000000
00000000
00000100
00000000
00000000
00000000
00010000
00000000
00001000
00000000
00100000
00000000
00010000
00000000
20000000
00000000
00000000
00000000
00000000
30000000
00000000
00000000
,
10010000
00000000
00000000
00000000
00000000
00000000
00010000
00000000
00000000
01000000
00000000
00000000
00100000
00000000
00000000
00010000
00000000
00000000
00001000
00000000
00000000
00000100
00000000
00000000
00001000
00000000
00000000
00010000
00000000
00000000
00000010
00000000
00000000
00001000
00000000
00000000
00000010
00000000
00000000
00010000
00000000
00000000
00001000
00000000
00100000
00000000
00010000
00000000
,
02000000
03000000
00000000
00000000
,
00000000
00000000
00000000
00000000
00000000
00000000
00001000
00000000
00000000
00010000
00000000
00000000
00000020
00000000
00000000
00000000
00000000
00000000
00000000
00000000
00000000
00000000
00000000
00000000
00001030
00000000
00000000
00000000
00001100
00000000
00000000
00000000
00000110
00000000
00000000
00000000
00000011
00000000
00000000
00000000
00000000
00000000
00000000
00000000
00000000
00000000
00000000
00000000
,
00002001
00000000
00000100
00000000
00000001
00000000
00003010
00001000
,
00020000
00000000
01000000
00000000
10000000
00000000
00130000
00010000
,
00002000
00000000
00000000
00000000
00003010
00010000
00001000
01000000
00020000
00000000
00000000
00000000
00130000
00001000
00010000
00000100
,
00002000
00000000
00003010
00000100
00002000
00000000
00013000
00100000
01000000
00010000
10000000
00010000
00200000
00000000
02300000
00000000
,
03010000
00001000
00100000
00001000
00000000
00011000
00000000
00010100
00000000
00001100
00000000
00001000
00000010
00000000
00000100
00000001
,
00000010
00000100
00000010
00000001
00000000
00000101
00000000
00000110
00000000
00001010
00000000
00001000
00000100
00010000
00001000
00000000
,
00100000
00010000
01000000
00010000
10000000
01000000
00000000
01100000
00000000
00101000
00000000
00001000
00010000
00000010
00001000
00000000
,
00000001
00000100
00001000
00000100
00000001
00001000
00000000
00001020
00000000
00000130
00000001
00001000
00000001
00000100
00002000
00000000
,
00013000
00100000
01000000
00100000
10000000
00010000
01000000
00010000
10000000
01000000
00010000
00001000
00000010
00000100
00010000
00000000
,
00001000
00000010
00000100
00000010
00000001
00001000
00000100
00001000
00000001
00000100
00001000
00010000
00100000
00000000
10010000
00000000
,
10000000
01000000
00010000
00001000
00000020
00000000
00000000
00000000
00000031
00000100
00001000
00010000
00200000
00000000
00000000
00000000
,
10300000
00000000
00000000
01000000
00000000
00000000
10000000
00000000
00000000
00010000
00000000
00000000
00100000
00000000
00010000
00000000
00100000
00000000
00001000
00000000
00000000
00010000
00000000
00000000
00000010
00000000
00001000
00000000
00000010
00000000
00001000
00000000
00000010
00000000
00010000
00000000
00001000
00000000
01000000
00000000
00010000
00000000
01000000
00000000
00010000
00000000
01000000
00000000
,
00001000
00010000
00001000
00000100
00000010
00000100
00001000
00010000
00001000
00000010
00000100
00000010
00000002
00000000
00000000
00000000
,
00000103
00000000
00000010
00000000
00001000
00000000
00000010
00000000
00000100
00000000
00000001
00000000
00000100
00000000
00000000
00000010
00000000
00000000
00000100
00000000
00000000
00001000
00000000
00000000
00010000
00000000
00000000
01000000
00000000
00000000
10000000
00000000
00000000
01000000
00000000
00000000
00020000
00000000
00000000
00000000
00000000
00000000
00000000
00000000
00000000
00000000
00000000
00000000
,
00031000
00000000
00000000
00100000
00000000
00000000
00010000
00000000
00000000
00100000
00000000
00000000
01000000
00000000
10000000
00000000
01000000
00000000
10000000
00000000
01000000
00000000
10000000
00000000
00100000
00000000
01000000
00000000
00010000
00000000
00100000
00000000
00001000
00000000
00010000
00000000
00000100
00000000
00001000
00000000
00000010
00000000
00000100
00000000
00000001
00000000
00000010
00000000
,
00000100
00001000
00000100
00010000
00001000
00010000
00000010
00001000
00010000
01000000
00001000
00010000
00001000
00100000
00010000
00000000
,
01000000
00100000
20020000
00000000
00000000
00000000
00000000
00000000
00000000
00000000
00000000
00000000
00030000
00000000
00000000
00000000
,
00100000
00000000
00100000
00000000
,
31000000
00010000
00000100
00000000
00000000
00000000
00000000
00000000
00000000
00000000
00000000
00000000
00000000
00000000
00000000
00000000
;
