#VERSION:0.83;
#TITLE:TSAR BOMBA;
#SUBTITLE:;
#ARTIST:L.E.D.;
#TITLETRANSLIT:;
#SUBTITLETRANSLIT:;
#ARTISTTRANSLIT:;
#GENRE:DRUMSTEP;
#CREDIT:;
#MUSIC:TSAR BOMBA.ogg;
#BANNER:TSAR BOMBA.png;
#BACKGROUND:TSAR BOMBA-bg.png;
#CDTITLE:./CDTitles/jubeat saucer.png;
#SAMPLESTART:86.428;
#SAMPLELENGTH:15.000;
#SELECTABLE:YES;
#OFFSET:0.717;
#BPMS:0.000=190.000;
#STOPS:;
#TIMESIGNATURES:0.000=4=4;
#BGCHANGES:1.500=TSAR BOMBA.mp4=1.000=0=0=0=StretchNoLoop====,
99999.000=-nosongbg-=1.000=0=0=0=StretchNoLoop====
;
#FGCHANGES:;

//--------------- dance-single - Karl with a K ----------------
#NOTEDATA:;
#STEPSTYPE:dance-single;
#DESCRIPTION:Karl with a K;
#CREDIT:Karl with a K;
#DIFFICULTY:Beginner;
#METER:5;
#RADARVALUES:0.181121,0.306259,0.082328,0,0,154,144,10,0,0,0,0.181121,0.306259,0.082328,0,0,154,144,10,0,0,0;
#NOTES:
0000
0000
0000
0000
,
0000
0000
0000
0000
,
0000
0000
0000
0000
,
0000
0000
0000
0000
,
0000
0000
0000
0000
,
1000
0000
0000
0000
,
1000
0000
0000
0000
,
0001
0000
0000
0000
,
0010
0000
0000
0000
,
0001
0000
0000
0000
,
0001
0000
0000
0000
,
1000
0000
0000
0000
,
1000
0000
0000
0000
,
1000
0000
0000
0000
,
0100
0100
0100
0000
,
0010
0000
0000
0000
,
1000
0000
0010
0000
,
0001
0001
0001
0000
,
0100
0100
0100
0000
,
0010
0010
0010
0000
,
0001
0000
0010
0000
,
1001
0000
0000
0000
,
0000
0000
0000
0000
,
0000
0000
0000
0000
,
0000
0000
0000
0000
,
1000
0000
0000
0000
,
0001
0000
0000
0000
,
1000
0000
0001
0000
,
1001
0000
0110
0000
,
1001
0000
0000
0000
,
1000
0000
0010
0000
,
0100
0000
0000
0000
,
0010
0000
0100
0000
,
0001
0001
0001
0000
,
0010
0000
0100
0000
,
0010
0010
0010
0000
,
0010
0010
0010
0000
,
0001
0000
0001
0000
,
1000
1000
1000
0000
,
0001
0001
0001
0000
,
0100
0000
0010
0000
,
1000
0000
0001
0000
,
1000
1000
1000
0000
,
0010
0010
0010
0000
,
0010
0010
0010
0000
,
0010
0000
0000
0000
,
1000
0000
0100
0000
,
1000
0000
0000
0000
,
0001
0000
0000
0000
,
0001
0000
0000
0000
,
0100
0000
0010
0000
,
1000
0000
0000
0000
,
0001
0001
0001
0000
,
0010
0000
0000
0000
,
0001
0000
0100
0000
,
0001
0000
0000
0000
,
1000
0000
0000
0000
,
1000
0000
0000
0000
,
0100
0000
0010
0000
,
0010
0010
0000
0010
,
0000
0010
0000
0000
,
0110
0000
0000
0000
,
0000
0000
0000
0000
,
0000
0000
0000
0000
,
0000
0000
0000
0000
,
0001
0000
0000
0000
,
1000
0000
0000
0000
,
0001
0000
1000
0000
,
1001
0000
0110
0000
,
1001
0000
0000
0000
,
0000
0000
0000
0000
,
1000
0000
0000
0000
,
0001
0001
0001
0000
,
1001
0000
0000
0000
,
0000
0000
0000
0000
,
0001
0000
0000
0000
,
1000
1000
1000
0000
,
0010
0000
0000
0000
,
0100
0000
0000
0000
,
0010
0010
0000
0000
,
0001
0000
0010
0000
,
1000
0000
0000
0000
,
0100
0000
0000
0000
,
0010
0010
0000
0000
,
1000
0000
0010
0000
,
0001
0000
0100
0000
,
0010
0000
0100
0000
,
0010
0010
0000
1000
,
1000
0000
0100
0000
,
0010
0000
0100
0000
,
0010
0000
0010
0000
,
0001
0001
0001
0000
,
1000
1000
1000
0000
,
1001
0000
0000
0000
;

//--------------- dance-single - forcednature ----------------
#NOTEDATA:;
#STEPSTYPE:dance-single;
#DESCRIPTION:forcednature;
#CREDIT:forcednature;
#DIFFICULTY:Easy;
#METER:8;
#RADARVALUES:0.337543,0.547478,0.263448,0.222284,0,287,255,32,27,0,0,0.337543,0.547478,0.263448,0.222284,0,287,255,32,27,0,0;
#NOTES:
0000
0000
0000
0000
,
0000
0000
0000
0000
,
0000
0000
0000
0000
,
0000
0000
0000
0000
,
0000
0000
0000
0000
,
1001
0000
0001
0000
,
0100
0000
0010
0000
,
1000
1000
1000
0000
,
0100
0000
0010
0000
,
1001
0000
1000
0010
,
0100
0001
1000
0000
,
1001
0000
0001
0010
,
0100
1000
0001
0000
,
0110
0000
1000
0000
,
0001
0001
0010
0000
,
0100
1000
0100
0000
,
0010
0010
0001
0000
,
0100
0100
0100
0000
,
0010
1000
0001
0000
,
0010
0010
0010
0000
,
0100
1000
0010
0000
,
2002
0000
0000
0000
,
0000
0000
0000
0000
,
0000
0000
0000
0000
,
0000
0000
3003
0000
,
0110
0000
0001
1000
,
0110
0000
1000
0001
,
0110
0100
0010
0010
,
1000
1000
1000
0001
,
0110
0000
0001
0000
,
1000
0100
1000
0000
,
0010
0010
0010
0000
,
0100
0001
0010
0000
,
0110
0000
0100
1000
,
0010
1000
0001
0000
,
0100
0100
0200
0300
,
0010
0010
0010
0010
,
1001
0000
1000
0000
,
0100
0010
0100
1000
,
0001
0000
0100
0000
,
0010
1000
0010
0000
,
1001
0000
0001
0000
,
1000
0100
0010
0000
,
0001
0001
0002
0003
,
1000
1000
1000
1000
,
1002
0000
0000
0000
,
0203
0000
0320
0000
,
1030
0000
0010
1000
,
0001
1000
0100
0000
,
0120
0000
0000
0000
,
0032
0000
2003
0000
,
3010
1000
0010
0000
,
0100
0001
0100
0000
,
2001
0000
0000
0000
,
3200
0000
0320
0000
,
0031
0100
0001
0000
,
1000
0100
1000
0000
,
0021
0000
0000
0000
,
0230
0000
2300
0000
,
3010
0010
0100
0100
,
0001
1000
0100
0000
,
2002
0000
0000
0000
,
0000
0000
0000
0000
,
0000
0000
0000
0000
,
0000
0000
3003
0000
,
0110
0001
1000
0100
,
1000
0010
1000
0001
,
0110
0001
1000
0001
,
0100
0001
0010
0100
,
0110
0010
0010
0001
,
1000
0010
1000
0000
,
0001
0100
0001
0010
,
0001
1000
0001
0000
0010
0000
0100
0000
,
0110
0000
0010
0001
,
1000
0000
0010
0000
1000
0100
1000
0000
,
1001
0000
0001
0100
,
0010
0000
1000
0000
0001
0010
0001
0000
,
2001
0000
3010
0100
,
0001
0100
0010
1000
,
0200
0000
0310
0001
,
0010
0100
0010
0000
0001
0000
1000
0000
,
1002
0000
0103
0010
,
1000
0000
0100
0000
1000
0010
1000
0000
,
2001
0000
3001
0010
,
0200
0000
1000
0300
,
0110
0000
0010
0000
0001
1000
0001
0000
,
0100
0010
2000
3000
,
0110
0000
0001
0000
1000
0100
1000
0000
,
0010
0100
0002
0003
,
1001
0001
1000
0100
,
1001
1000
0001
0100
,
0110
0010
0110
0100
,
0001
0100
0001
0000
1000
0100
1000
0000
,
2002
0000
0000
0000
,
0000
0000
0000
0000
,
3003
0000
0000
0000
;

//--------------- dance-single - Karl with a K ----------------
#NOTEDATA:;
#STEPSTYPE:dance-single;
#DESCRIPTION:Karl with a K;
#CREDIT:Karl with a K;
#DIFFICULTY:Medium;
#METER:11;
#RADARVALUES:0.426927,0.586584,0.230517,0.502198,0.016466,363,335,28,61,0,0,0.426927,0.586584,0.230517,0.502198,0.016466,363,335,28,61,0,0;
#NOTES:
0000
0000
0000
0000
,
0000
0000
0000
0000
,
0000
0000
0000
0000
,
0000
0000
0000
0000
,
0000
0000
0000
0000
,
1001
0000
1000
0100
,
0010
0100
1000
0000
,
1001
0000
0001
0100
,
1000
0100
0010
0000
,
1001
1000
0010
0100
,
0001
0100
0010
1000
,
1001
0001
0010
0100
,
0002
2003
3020
0032
,
2003
0000
3010
0010
,
1000
0001
1000
0000
0001
0000
0100
0000
,
0001
0000
0001
0000
0001
0000
0100
0000
0000
0100
0000
0000
,
0010
0100
0010
0000
1000
0000
0001
0000
,
0010
0000
0010
0000
0010
0000
0100
0000
0000
0100
0000
0000
,
1000
0010
1000
0000
0010
0000
0010
0000
,
0001
0010
1000
0100
,
0010
1000
0010
0001
,
2002
0000
0000
0000
,
0000
0000
0000
0000
,
0000
0000
0000
0000
,
0000
0000
0000
3003
,
1000
0010
0001
0010
,
1000
0100
0001
0100
,
1000
1001
0001
1001
,
1000
0100
1000
0100
0010
0001
1000
0000
,
1002
2000
3000
1003
,
2000
0010
0010
3010
,
0200
0002
0003
0301
,
0020
0100
0001
0130
,
1000
0001
0100
1001
,
0001
0010
0100
0110
,
0010
0010
0010
0000
0002
0000
0103
0000
,
0010
0010
0010
0000
1010
0000
0011
0000
,
1001
0000
0001
0020
0000
0000
0130
0000
,
1000
0100
0010
0000
0001
0000
0100
0000
,
0001
0100
0001
0000
1000
0100
1000
0000
,
0001
0010
1000
0010
,
0110
0000
1000
0020
0000
0000
0130
0000
,
0001
0000
0100
0020
0000
0000
1030
0000
,
0010
0010
0010
0000
2000
0000
3100
0000
,
0010
0010
0010
0000
0011
0000
1010
0000
,
1002
0000
0023
0000
,
0230
0000
2300
0000
,
3100
0000
0100
0010
0000
0001
1000
0000
,
0010
0100
0000
0010
1000
0000
0100
0000
,
2000
0000
3020
0000
,
0230
0000
0302
0000
,
0003
0100
0000
0010
1000
0000
1001
0000
,
0010
0000
0010
1000
0000
1000
0001
0000
,
1002
0000
0203
0000
,
0320
0000
0032
0000
,
0013
0000
0010
0100
0000
0100
0001
0000
,
0001
0100
0010
1000
,
2000
0000
3200
0000
,
0320
0000
2030
0000
,
3010
0000
0010
0100
0000
0100
1000
0000
,
1000
0001
0000
0001
0100
0000
0110
0000
,
2002
0000
0000
0000
,
0000
0000
0000
0000
,
0000
0000
0000
0000
,
0000
0000
0000
3003
,
0001
0010
1000
0010
,
0001
0100
1000
0100
,
0001
1001
1000
1001
,
0002
0023
0230
1300
,
1001
0000
0100
0000
1000
0000
0001
0010
,
0000
0001
0000
0100
0010
0000
0001
0000
,
0010
0100
0010
1000
,
0010
0010
0010
0010
0000
1000
0001
0000
,
1001
0000
0100
0000
0001
0000
1000
0010
,
0000
1000
0000
0100
0010
0000
0001
0000
,
0010
0100
0010
0001
,
0010
0010
0010
0010
0000
0001
1000
0000
,
1002
0100
2003
0100
,
3002
0010
2003
0010
,
3001
0001
0001
0000
1000
0000
0100
0000
,
0001
0001
0100
0000
0010
0000
0001
0000
,
2001
0100
3002
0100
,
2003
0010
3002
0010
,
1003
1000
1000
0000
0001
0000
0100
0000
,
0020
0000
0000
0032
0000
0000
0023
0000
,
0230
0001
0320
0001
,
0230
1000
0320
1000
,
1030
1000
0100
0000
0010
0001
0010
0000
,
0010
1000
0001
0100
,
0020
0001
0230
0001
,
0320
1000
0230
2300
,
3010
0010
0010
0000
1000
0000
0100
0000
,
0010
0001
0010
0100
1000
0001
0100
0000
,
2002
0000
0000
0000
,
0000
0000
0000
0000
,
3003
0000
0000
0000
;

//--------------- dance-single - forcednature ----------------
#NOTEDATA:;
#STEPSTYPE:dance-single;
#DESCRIPTION:forcednature;
#CREDIT:forcednature;
#DIFFICULTY:Hard;
#METER:14;
#RADARVALUES:0.728011,0.938534,0.271681,0.321077,0.23875,619,586,33,39,0,0,0.728011,0.938534,0.271681,0.321077,0.23875,619,586,33,39,0,0;
#NOTES:
0000
0000
0000
0000
,
0000
0000
0000
0000
,
0000
0000
0000
0000
,
0000
0000
0000
0000
,
0000
0000
0000
0000
,
1100
0000
0001
0100
2000
0000
3000
0000
,
0101
0000
1000
0100
0002
0000
0003
0000
,
0100
0000
0100
0000
0100
0000
0220
0000
0000
0330
0000
0000
,
1001
0000
0100
0010
2002
0000
3003
0000
,
0101
0000
1000
0010
0001
0010
0100
0001
,
1000
0000
0001
0010
1000
0010
0100
1000
,
0001
0000
0000
0000
0001
0000
0000
0000
0001
0000
0000
0000
1000
0000
0000
0010
0000
0000
0100
0000
0000
1000
0000
0000
,
0100
0000
0000
0000
0010
0000
1000
0000
0100
0000
0010
0000
0001
1000
0001
0000
,
2002
0000
3003
0000
1000
0100
1000
0010
,
0100
0001
0010
0000
0001
0100
0010
0000
,
1000
0000
0000
0000
1000
0000
0000
0000
1000
0000
0100
0000
0010
0000
0000
0001
0000
0000
0100
0000
0000
0000
0000
0000
,
0001
0010
0001
1000
0001
0100
0001
0000
,
0200
0000
0000
0000
0320
0000
0000
0000
0230
0000
0000
0000
0301
0000
0000
1000
0000
0000
0100
0000
0000
0000
0000
0000
,
0010
0010
0010
0000
0100
0010
0001
0100
,
0001
0000
1000
0000
0001
0000
0200
0000
0000
0000
0000
0000
0310
0000
0000
1000
0000
0000
0100
0000
0000
1000
0000
0000
,
0001
0010
0001
0100
0010
0000
0000
0000
,
0210
0010
0000
0010
,
0000
1000
0000
1000
,
0000
0010
0000
0010
,
0000
0001
0000
0301
,
0110
0000
0000
0000
0100
0000
0001
0000
1000
0000
0100
0000
0010
0001
0010
0000
,
0110
0000
0100
1000
0001
0100
0100
0010
,
1010
1000
0001
0010
0011
0001
1000
0010
,
1000
0100
1000
0000
0001
0100
0001
0000
0010
0100
0010
0000
0200
0000
0300
0000
,
1001
0000
1000
0100
0000
0001
0100
0000
,
0010
0001
1000
0000
0010
0001
0010
0100
,
0001
0000
0000
0000
0001
0000
0000
0000
0001
0000
0000
0000
1000
0000
0000
0100
0000
0000
0010
0000
0000
0001
0000
0000
,
0100
0000
0010
1000
0100
1000
0010
0000
,
0110
0000
0000
0000
0100
0000
0001
0000
0010
0000
0001
0000
1000
0100
1000
0000
,
0010
0000
0100
0001
1000
0010
0010
0000
,
1000
0000
0100
0000
0010
0000
0001
0000
0020
0000
0000
0000
0031
0000
1000
0001
,
1000
0000
0010
0000
0100
0000
0001
0000
1000
0100
0000
0000
0010
0001
0000
0000
,
0110
0000
0010
1000
0000
0010
0001
0001
,
1000
0010
1000
0010
0200
0000
0000
0000
0301
0000
1000
0000
0100
0000
1000
0000
,
0001
0010
0001
1000
0001
0100
0001
1000
,
0020
0000
0031
0020
0000
1030
0001
0000
,
0110
0000
0001
1000
0100
0010
0001
0100
,
0010
0000
1000
0100
1000
0010
0010
0000
,
0100
0000
0001
0000
1000
0000
0010
0000
2000
0000
0000
0000
3100
0000
0010
0001
,
0010
0000
0100
0000
1000
0000
0001
0000
0100
0001
0000
0000
1000
0010
0000
0000
,
0100
1000
0100
0010
0100
0001
0100
1000
,
0100
0001
0100
0010
0100
1000
0100
0001
,
2000
0000
3100
0020
0000
0031
0200
0000
,
0310
1000
0100
1000
0010
0100
0100
0000
,
0001
0010
0100
0010
1000
0010
0001
0010
,
1000
0010
0100
0010
0001
0010
1000
0010
,
0000
0001
1000
0010
1000
0001
0010
0100
,
2000
0000
3001
0200
0000
0310
0010
0000
,
1000
0100
0010
0100
0001
0100
0010
0100
,
1000
0010
0100
0010
0001
0010
0100
0010
,
1000
0001
0010
0002
0000
0103
0010
1000
,
0100
0010
0001
0010
0100
1000
1000
0001
,
1000
0010
0001
0010
1000
0100
0001
0100
,
1000
0010
0001
1000
0100
0001
1000
0001
,
0020
0000
0130
0002
0000
0103
2000
0000
,
3010
0000
1000
0001
1000
0000
0010
0000
1000
0000
0100
0000
0010
0001
0010
0000
,
2002
0000
0000
0000
,
0000
0000
0000
0000
,
0000
0000
0000
0000
,
0000
0000
0000
3003
,
1001
0000
0000
0000
0001
0000
1000
0000
0100
0000
1000
0000
0001
0100
0001
0100
,
0010
0000
0000
0000
0100
0000
0001
0010
0001
0010
0100
0000
0000
0000
0010
0000
,
1001
0000
0000
0000
1000
0000
0001
0000
0100
0000
0001
0000
1000
0010
1000
0010
,
0100
0000
0000
0000
0010
0000
1000
0100
1000
0100
0010
0000
0000
0000
0100
0000
,
0110
0000
0010
0000
1001
0000
0001
0010
,
0000
0100
1000
1000
0001
0100
0010
1000
,
0100
0000
0000
0000
0110
0000
0000
0000
0010
0000
0000
0000
1001
0000
0000
0000
0000
0000
0001
0000
0000
0100
0000
0000
,
0010
0001
0010
1000
0100
0010
0010
0000
,
0110
0000
0001
1000
0001
0100
1000
0100
,
0010
1000
0001
1000
0100
0010
1000
0010
,
0001
0100
0010
1000
0100
1000
0010
0100
,
0001
0000
0010
0000
0100
0000
0010
0000
0000
0000
0001
1000
0001
1000
0001
0000
,
2002
0000
3003
0000
1000
0010
0100
0001
,
0010
1000
0010
0001
1000
0010
0100
0001
,
1000
0000
0100
0010
0200
0000
0000
0000
1300
0000
0001
0000
0100
0000
0010
0000
,
1000
0001
1000
0001
1000
0000
0100
0000
0010
0000
0100
0000
1000
0000
0001
0000
,
2002
0000
3003
0000
0001
0100
0010
0100
,
1000
0100
0010
1000
0001
0010
0100
1000
,
0010
0000
0010
0000
0200
0000
0000
0000
0301
0000
1000
0100
1000
0100
0010
0000
,
0002
0000
0000
0003
,
1001
0000
0000
0000
0001
0000
0010
0000
0100
0000
1000
0000
0010
0100
0010
0000
,
1000
0000
0001
0000
0010
0000
0100
0000
1000
0000
0001
0100
0001
0000
0010
0000
,
0110
0000
0100
1000
0001
1000
0010
0100
,
0001
0010
0001
0010
0100
0000
1000
0000
0001
1000
0000
0001
1000
0000
0010
0000
,
0110
0000
0000
0000
0100
0000
0001
0000
0010
0000
0100
1000
0100
0000
0010
0000
,
0110
0000
0000
0000
0100
0000
1000
0000
0010
0000
0100
0001
0100
0000
0010
0000
,
1010
1000
0100
1000
0011
0001
0100
0001
,
1000
0010
1000
0000
0001
0010
0001
0000
1000
0100
1000
0000
0001
0100
0001
0000
,
2002
0000
0000
0000
,
0000
0000
0000
0000
,
3003
0000
0000
0000
;

//--------------- dance-single - Karl with a K ----------------
#NOTEDATA:;
#STEPSTYPE:dance-single;
#DESCRIPTION:Karl with a K;
#CREDIT:Karl with a K;
#DIFFICULTY:Challenge;
#METER:14;
#RADARVALUES:0.639803,0.938534,0.065862,0.790345,0.185237,544,536,8,96,0,0,0.639803,0.938534,0.065862,0.790345,0.185237,544,536,8,96,0,0;
#NOTES:
0000
0000
0000
0000
,
0000
0000
0000
0000
,
0000
0000
0000
0000
,
0000
0000
0000
0000
,
0000
0000
0000
0000
,
2000
0000
3000
0100
0020
0000
0030
0000
,
0002
0000
0003
0100
0020
0000
0030
0000
,
1000
0000
1000
0000
0100
0000
0020
0000
0000
0030
0000
0000
,
0002
0000
0103
0001
0020
0000
0030
0000
,
0001
0100
0001
0100
0010
0001
0010
0010
,
0100
0001
0010
0100
0001
0100
0010
0100
,
1000
0000
0000
0000
1000
0000
0000
0000
1000
0000
0000
0000
0020
0000
0000
0000
0000
0000
1030
0000
0000
0010
0000
0000
,
2000
0000
3100
0100
0020
0000
0031
1000
,
2001
0000
0000
0000
3100
0000
0010
0010
,
1000
1000
1000
1000
0010
0100
0100
0100
,
1000
0000
0000
0000
1000
0000
0000
0000
1000
0000
0001
0000
0100
0000
0000
0100
0000
0000
0100
0000
0000
0100
0000
0000
,
1000
1000
1000
1000
0001
0001
0001
0001
,
0010
0000
0000
0000
0010
0000
0000
0000
0010
0000
0000
0000
0100
0000
0000
0100
0000
0000
0100
0000
0000
0100
0000
0000
,
0001
0100
0001
0100
0001
0100
0001
0100
0010
0000
0010
0000
0010
0000
1000
0000
,
0100
0000
0010
0000
0100
0000
0020
0000
0000
0000
0000
0000
0130
0000
0000
0100
0000
0000
0100
0000
0000
0100
0000
0000
,
0001
0001
0001
0001
1000
1000
1000
1000
,
0020
0000
0000
0000
,
0000
0000
0000
0000
,
0032
0000
0000
0000
,
2003
0000
3020
0000
,
0130
0010
1000
0010
,
0011
0010
0100
0010
,
1001
0001
0001
0001
1000
1000
1000
1000
,
0100
1000
0100
1000
0100
1000
0100
1000
0001
1000
0001
1000
0001
0000
0000
0000
,
1010
0000
0010
0100
0000
0100
0010
0000
,
0010
0100
0002
0000
1003
0010
1000
0100
,
0010
0000
0000
0000
0010
0000
0000
0000
0010
0000
0000
0000
0001
0000
0000
0100
0000
0000
0010
0000
0000
0100
0000
0000
,
0002
0000
0103
2000
0000
3100
0001
0010
,
0011
0000
0000
0000
0010
0000
0100
0000
0000
0000
0100
0000
0010
0000
0000
0010
,
0001
0010
0100
2000
0000
3100
1000
0000
,
0010
0000
0010
0000
0010
0000
0010
0000
0020
0000
0130
0000
0001
0000
1000
0001
,
0010
0010
0010
0100
0020
1030
0020
0130
,
2000
0000
3001
0020
0000
0031
0100
0001
,
1000
0010
1000
0010
0200
0000
0000
0000
0301
0000
0010
0000
0100
0000
1000
0000
,
0001
0001
0001
0001
0100
0100
0010
0010
,
1000
0100
0001
2000
0000
3001
0100
1000
,
0002
0000
1003
0200
0000
1300
0010
1000
,
0002
0000
1003
0020
0000
1030
0100
1000
,
0001
0000
0010
0000
0010
0000
0010
0000
0020
0000
0130
0000
1000
0000
0001
1000
,
0010
0010
0010
0100
0020
0031
0020
0130
,
0002
1000
0000
0100
0000
1000
0000
1000
,
2003
0001
0000
0100
3200
0010
0000
1000
,
1300
0000
0001
0020
0000
0031
0020
0000
,
1030
0020
0000
0031
2000
0000
3200
0000
,
2300
0001
0000
0100
0000
0001
0000
3001
,
0002
1000
0000
0100
0203
0010
0000
0301
,
0100
0001
0000
0001
0001
0100
0010
0001
,
1000
0000
1000
0000
1000
0000
0200
0000
0000
0000
0310
0100
0010
0000
1000
0000
,
0002
1000
0000
0010
0000
1000
0000
1000
,
2003
0001
0000
0010
3020
0100
0000
1000
,
2030
0000
3001
0020
0000
0031
0020
0000
,
0130
0010
0100
0001
0100
1000
0010
1000
,
2000
0001
0000
0010
0000
0001
0000
3001
,
0002
1000
0000
0010
0023
0100
0000
0031
,
0100
0000
0100
2000
0000
3100
0200
0000
,
0301
0010
0000
0010
0010
0200
0000
1300
,
2002
0000
0000
0000
,
0000
0000
0000
0000
,
0000
0000
0000
0000
,
0000
0000
0000
3003
,
1000
0000
0010
0100
0000
0100
0001
0010
,
0001
0000
0000
0000
0010
0000
0000
0000
0010
0100
0020
0000
0000
0000
0031
0000
,
0001
0000
0010
0100
0000
0100
1000
0010
,
1000
0020
0100
1030
,
0101
0000
0100
0000
0001
0010
0100
0010
,
0000
0001
0010
0100
1000
0010
0100
0001
,
1000
0000
0000
0000
1000
0000
0100
0000
1000
0000
0000
0000
1000
0000
0000
0010
0000
0000
0100
0000
0000
0010
0000
0000
,
1000
1000
1000
2000
3001
0010
0200
0000
,
0301
0000
0100
1000
0010
0010
0100
0010
,
0010
1000
0010
0100
0001
0010
0100
1000
,
0001
0001
0100
0100
0001
0010
0100
0010
,
0001
0001
0001
0002
1003
0010
0200
0000
,
2300
0000
3200
0000
0301
1000
0002
0000
,
0013
0100
0002
0000
1003
0010
0002
0000
,
1003
0000
0010
1000
0000
0000
0200
0000
0000
0000
0010
0000
0310
0000
0000
0000
,
0001
0010
0001
0010
0001
0000
0100
0000
1000
0000
0001
0000
0020
0000
0000
0000
,
2030
0000
3200
0000
1300
0001
2000
0000
,
3010
0100
2000
0000
3001
0010
2000
0000
,
3001
0000
0001
0000
0002
0000
0000
0000
0013
0000
0100
0000
0010
0001
0010
0001
,
0010
0100
0001
0100
1000
0100
0020
0000
,
0032
0000
0203
0000
2300
0100
3200
0000
,
0310
0100
2000
0000
3001
0010
2000
0000
,
3001
0001
0001
0200
0000
0010
0310
0000
,
1000
0010
1000
0010
1000
0000
0100
0000
0001
0000
1000
0000
0020
0000
0000
0000
,
0032
0000
0203
0000
0301
1000
0002
0000
,
0013
0100
0002
0000
1003
0010
0002
0000
,
1003
1000
2000
0000
3010
0010
0010
0010
,
1000
0001
1000
0001
1000
0001
1000
0001
0100
0010
0100
0010
0100
0000
0000
0000
,
2002
0000
0000
0000
,
0000
0000
0000
0000
,
3003
0000
0000
0000
;

//--------------- dance-double - forcednature ----------------
#NOTEDATA:;
#STEPSTYPE:dance-double;
#DESCRIPTION:forcednature;
#CREDIT:forcednature;
#DIFFICULTY:Easy;
#METER:8;
#RADARVALUES:0.304612,0.430162,0.205819,0.197586,0,259,234,25,24,0,0,0.304612,0.430162,0.205819,0.197586,0,259,234,25,24,0,0;
#NOTES:
00000000
00000000
00000000
00000000
,
00000000
00000000
00000000
00000000
,
00000000
00000000
00000000
00000000
,
00000000
00000000
00000000
00000000
,
00000000
00000000
00000000
00000000
,
00011000
00000000
00001000
00000000
,
01000000
00000000
00010000
00000000
,
00100000
00100000
00100000
00000000
,
01000000
00000000
10000000
00000000
,
10010000
00000000
00010000
01000000
,
00001000
00010000
00000100
00000000
,
00001001
00000000
00001000
00000100
,
00010000
00001000
01000000
00000000
,
10010000
00000000
01000000
00000000
,
00100000
00010000
00100000
00000000
,
00001000
00001000
00001000
00000000
,
00010000
00000010
00010000
00000000
,
00001000
00001000
00001000
00000000
,
00010000
00000100
00001000
00000000
,
00000001
00000001
00000100
00000000
,
00000010
00001000
00000100
00000000
,
00002002
00000000
00000000
00000000
,
00000000
00000000
00000000
00000000
,
00000000
00000000
00000000
00000000
,
00000000
00000000
00003003
00000000
,
00000001
00000001
00000100
00001000
,
00010000
00010000
01000000
10000000
,
00100000
10000000
00010000
10000000
,
01000000
01000000
01000000
00000000
,
01100000
00000000
00010000
10000000
,
00100000
01000000
00010000
00000000
,
00100000
00100000
00100000
00000000
,
00010000
01000000
00001000
00000000
,
00011000
00000000
00010000
00000000
,
00000100
00001000
00000010
00000000
,
00000100
00000100
00000100
00000000
,
00000001
00000001
00000001
00000000
,
00001001
00000000
00001000
00000100
,
00000010
00000100
00001000
00000000
,
00000001
00000000
00000100
00000010
,
00001000
00000010
00010000
00000000
,
00011000
00000000
00001000
00100000
,
00010000
10000000
00010000
00000000
,
01100000
00000000
10000000
00010000
,
10000000
01000000
00100000
00000000
,
10020000
00000000
00000000
00000000
,
02030000
00000000
03002000
00000000
,
00013000
00000100
00010000
00000000
,
00000100
00001000
00000100
00000000
,
00000120
00000000
00000000
00000000
,
00000032
00000000
00002003
00000000
,
00003010
00001000
00000010
00000000
,
00010000
00001000
00010000
00000000
,
00010200
00000000
00000000
00000000
,
00020300
00000000
00032000
00000000
,
01003000
00010000
01000000
00000000
,
00100000
10000000
00100000
00000000
,
20010000
00000000
00000000
00000000
,
32000000
00000000
03200000
00000000
,
00310000
00010000
01000000
01000000
,
00001000
00010000
00001000
00000000
,
00022000
00000000
00000000
00000000
,
00000000
00000000
00000000
00000000
,
00000000
00000000
00000000
00000000
,
00000000
00000000
00033000
00000000
,
00011000
00000000
01000000
00000000
,
00001000
00010000
00000100
00000000
,
00011000
00000000
00000100
00000000
,
00010000
00001000
01000000
00000000
,
00011000
00000000
00000100
00000000
,
00001000
00000010
00001000
00000000
,
00000100
00000100
00000100
00000010
,
00000001
00000010
00000100
00000000
,
00001001
00000000
00000001
00000100
,
00001000
00010000
00100000
01000000
,
00100000
00000000
10000000
01000000
,
00010000
00001000
00000010
00000000
,
00000120
00000000
00000230
00000000
,
00001300
00000001
00000010
00000000
,
00000100
00001000
00000001
00000100
,
00000010
00000000
00001000
00000000
00000001
00001000
00000001
00000000
,
00001002
00000000
00002003
00000000
,
00003100
00010000
00001000
00000000
,
01000000
00010000
10000000
00100000
,
20000000
00000000
00000000
30000000
,
10020000
00000000
10030000
01000000
,
00100000
00010000
01000000
00000000
,
00011000
00000000
00000100
00001000
,
00000010
00001000
00000001
00000000
,
00000110
00001000
00000001
00000100
,
00001000
00010000
01000000
10000000
,
00010000
00010000
10000000
10000000
,
01000000
00100000
01000000
00000000
10000000
00000000
00010000
00000000
,
02200000
00000000
00000000
00000000
,
00000000
00000000
00000000
00000000
,
03300000
00000000
00000000
00000000
;

//--------------- dance-double - Karl with a K ----------------
#NOTEDATA:;
#STEPSTYPE:dance-double;
#DESCRIPTION:Karl with a K;
#CREDIT:Karl with a K;
#DIFFICULTY:Medium;
#METER:11;
#RADARVALUES:0.398701,0.547478,0.197586,0.609224,0.016466,339,315,24,74,0,0,0.398701,0.547478,0.197586,0.609224,0.016466,339,315,24,74,0,0;
#NOTES:
00000000
00000000
00000000
00000000
,
00000000
00000000
00000000
00000000
,
00000000
00000000
00000000
00000000
,
00000000
00000000
00000000
00000000
,
00000000
00000000
00000000
00000000
,
10010000
00000000
10000000
01000000
,
00100000
00000000
00110000
00000000
,
00011000
00001000
00010000
00001000
,
00000100
00000000
00000101
00000000
,
00001001
00000001
00000100
00000010
,
00010000
00001000
00100000
01000000
,
10010000
00010000
00100000
01000000
,
00020000
00000000
00032000
00000000
,
00003020
00000000
00000031
00000001
,
00000100
00001000
00010000
01000000
,
10000000
00000000
10000000
00000000
10000000
00000000
00010000
00000000
00000000
00010000
00000000
00000000
,
01000000
00100000
01000000
00000000
00010000
00000000
00010000
00000000
,
10000000
00000000
10000000
00000000
10000000
00000000
01000000
00000000
00000000
01000000
00000000
00000000
,
00100000
00010000
00001000
00000100
,
00000010
00000010
00000001
00000100
,
00000010
00010000
00001000
00000000
,
00022000
00000000
00000000
00000000
,
00000000
00000000
00000000
00000000
,
00000000
00000000
00000000
00000000
,
00000000
00000000
00000000
00033000
,
00201000
00000000
00310000
00000000
,
10200000
00000000
01300000
00000000
,
00001000
01001000
00001000
00011000
,
00000010
00010000
00001000
00000000
00000010
00000001
00000100
00000000
,
00000201
00000010
00000000
00001300
,
00002000
00000100
00010000
00003000
,
00020000
00001000
00000000
01030000
,
00200000
00010000
02300000
00000000
,
13000000
00010000
01000000
00001000
,
00010000
00000100
00000010
00000001
,
00000010
00000010
00000010
00000000
00000002
00000000
00000103
00000000
,
00000010
00000010
00000010
00000000
00001010
00000000
00010010
00000000
,
00011000
00000000
00010000
00200000
00000000
00000000
10300000
00000000
,
01000000
01000000
00100000
00000000
00010000
00000000
01000000
00000000
,
00010000
01000000
00010000
00000000
10000000
00000000
10010000
00000000
,
10000000
00100000
00010000
00001000
,
00000010
00000000
00000001
00000020
00000000
00000000
00000130
00000000
,
00001000
00000000
00001000
00020000
00000000
00000000
01030000
00000000
,
00100000
00100000
00100000
00000000
20000000
00000000
31000000
00000000
,
00100000
00100000
00100000
00000000
00101000
00000000
00011000
00000000
,
00020000
00000000
00030020
00000000
,
00000032
00000000
00002003
00000000
,
00003100
00000000
00000100
00000010
00000000
00001000
00000001
00000000
,
00000010
00000100
00000000
00010000
00001000
00000000
01000000
00000000
,
00002000
00000000
00203000
00000000
,
20300000
00000000
30020000
00000000
,
00030000
01000000
00000000
00100000
00010000
00000000
10000000
00000000
,
00100000
00000000
00100000
00010000
00000000
00010000
00001000
00000000
,
00020000
00000000
00030200
00000000
,
00000302
00000000
00002003
00000000
,
00003010
00000000
00000010
00000001
00000000
00000001
00001000
00000000
,
00000010
00001000
00000100
00010000
,
00002000
00000000
02003000
00000000
,
23000000
00000000
30020000
00000000
,
00130000
00000000
00100000
10000000
00000000
10000000
00010000
00000000
,
00010000
00100000
00000000
00100000
01000000
00100000
01000000
00000000
,
20020000
00000000
00000000
00000000
,
00000000
00000000
00000000
00000000
,
00000000
00000000
00000000
00000000
,
00000000
00000000
00000000
30030000
,
10000000
00100000
00010000
00001000
,
00010000
00001000
00000010
00000001
,
00000100
00001000
00010000
01000000
,
20000000
30200000
02300000
03001000
,
01010000
00000000
01000000
00000000
00001000
00000000
00010000
00100000
,
00000000
00010000
00000000
00001000
00100000
00000000
00010000
00000000
,
00100000
01000000
00100000
10000000
,
00100000
00100000
00100000
00100000
00000000
00001000
00010000
00000000
,
00001100
00000000
00000100
00000000
00010000
00000000
00001000
00000010
,
00000000
00000001
00000000
00001000
00000100
00000000
00000010
00000000
,
00000001
00000100
00001000
00000100
,
00000010
00000010
00000010
00000010
00000000
00010000
00001000
00000000
,
00012000
02003000
23000000
00000000
,
30020000
00230000
20300000
00100000
,
30010000
00010000
00010000
00000000
10000000
00000000
01000000
00000000
,
00010000
00001000
00010000
00000100
,
00021000
00030200
00000302
00000000
,
00002003
00003020
00000032
00000010
,
00001003
00001000
00001000
00000000
00000010
00000000
00010000
00000000
,
00200000
00000000
00000000
20300000
00000000
00000000
00000000
00000000
,
30020000
02030000
03200000
00320000
,
00032000
00000000
00003020
00000000
00000000
00000032
00000000
00000000
,
00000013
00000010
00000100
00000000
00002000
00000000
00003020
00000000
,
00000032
00000000
00000000
00002003
00000000
00000000
00003200
00000000
,
00000302
00000023
00000230
00000302
,
00002003
00203000
02300000
23000000
,
30100000
00100000
00100000
00000000
00010000
00000000
00001000
00000000
,
00100000
00001000
00010000
00000010
00001000
00000100
00000010
00000000
,
00002002
00000000
00000000
00000000
,
00000000
00000000
00000000
00000000
,
00003003
00000000
00000000
00000000
;

//--------------- dance-double - forcednature ----------------
#NOTEDATA:;
#STEPSTYPE:dance-double;
#DESCRIPTION:forcednature;
#CREDIT:forcednature;
#DIFFICULTY:Hard;
#METER:14;
#RADARVALUES:0.675086,0.821217,0.156422,0.271681,0.181121,574,555,19,33,0,0,0.675086,0.821217,0.156422,0.271681,0.181121,574,555,19,33,0,0;
#NOTES:
00000000
00000000
00000000
00000000
,
00000000
00000000
00000000
00000000
,
00000000
00000000
00000000
00000000
,
00000000
00000000
00000000
00000000
,
00000000
00000000
00000000
00000000
,
00011000
00000000
00000100
00001000
00000020
00000000
00000030
00000000
,
00011000
00000000
01000000
00010000
00200000
00000000
00300000
00000000
,
00001000
00000000
00010000
00000000
00001000
00000000
00020000
00000000
00000000
00030000
00000000
00000000
,
00011000
00000000
00000100
00000010
00000002
00000000
00000003
00000000
,
00000110
00000000
00000001
00001000
00000010
00010000
00001000
00100000
,
00010000
00000000
10000000
00010000
00100000
00001000
00010000
00000010
,
00001000
00000000
00000000
00000000
00001000
00000000
00000000
00000000
00001000
00000000
00000000
00000000
00000100
00000000
00000000
00000010
00000000
00000000
00000100
00000000
00000000
00001000
00000000
00000000
,
00000001
00000000
00000100
00001000
00010000
00001000
00010000
01000000
,
00200000
00000000
00300000
00000000
00010000
10000000
00010000
01000000
,
00100000
10000000
01000000
00100000
00010000
00100000
00001000
00000000
,
00010000
00000000
00000000
00000000
00001000
00000000
00000000
00000000
00001000
00000000
00010000
00000000
00000100
00000000
00000000
00001000
00000000
00000000
00000100
00000000
00000000
00000000
00000000
00000000
,
00000010
00000001
00000010
00000100
00001000
00000100
00000010
00000000
,
00000200
00000000
00000000
00000000
00020300
00000000
00000000
00000000
00032000
00000000
00000000
00000000
01003000
00000000
00000000
00010000
00000000
00000000
10000000
00000000
00000000
00000000
00000000
00000000
,
01000000
01000000
01000000
00000000
00100000
00010000
01000000
00010000
,
00100000
00000000
00001000
00000000
00100000
00000000
00020000
00000000
00000000
00000000
00000000
00000000
10030000
00000000
00000000
01000000
00000000
00000000
00100000
00000000
00000000
01000000
00000000
00000000
,
10000000
00010000
01000000
00010000
00100000
00000000
00000000
00000000
,
00012000
00010000
00000000
00010000
,
00000000
00100000
00000000
00100000
,
00000000
00010000
00000000
00010000
,
00000000
00000010
00000000
00003010
,
00000110
00000000
00000001
00000000
00000100
00001000
00010000
00000000
,
01100000
00000000
10000000
00000000
01000000
00010000
00001000
00000000
,
00000010
00000100
00001000
00000100
00010000
00001000
01000000
00001000
,
00100000
00010000
00100000
00000000
00010000
00100000
00010000
00000000
10000000
01000000
10000000
00000000
00020000
00000000
00030000
00000000
,
10010000
00000000
10000000
01000000
00000000
00010000
01000000
00000000
,
00100000
00001000
00010000
00000000
00000010
00001000
00000010
00000100
,
00000001
00000000
00000000
00000000
00000001
00000000
00000000
00000000
00000001
00000000
00000000
00000000
00001000
00000000
00000000
00000100
00000000
00000000
00001000
00000000
00000000
00000010
00000000
00000000
,
00000100
00000000
00001000
00010000
00001000
01000000
00010000
00000000
,
10010000
00000000
00000000
00000000
10000000
00000000
01000000
00000000
00100000
00000000
00010000
00000000
01000000
00010000
01000000
00000000
,
00001000
00000000
00010000
00000100
00001000
00000010
00000010
00000000
,
00000100
00000000
00001000
00000000
00000100
00000000
00000001
00000000
00002000
00000000
00000000
00000000
00003100
00000000
00010000
00001000
,
00010000
00000000
00000100
00000000
00001000
00000000
00000010
00000000
00001000
00000100
00000000
00000000
00010000
00001000
00000000
00000000
,
00011000
00000000
00001000
01000000
00000000
00100000
10000000
10000000
,
00010000
00100000
00010000
00100000
02000000
00000000
00000000
00000000
13000000
00000000
00010000
00000000
10000000
00000000
00100000
00000000
,
01000000
00010000
01000000
00001000
00010000
00000100
00001000
00000100
,
00000020
00000000
00001030
00000020
00000000
00000031
00000010
00000000
,
00000110
00000000
00000100
00001000
00000100
00010000
00001000
01000000
,
00001000
00000000
00010000
01000000
00100000
00010000
00010000
00000000
,
10000000
00000000
00100000
00000000
10000000
00000000
01000000
00000000
00200000
00000000
00000000
00000000
00310000
00000000
01000000
00010000
,
01000000
00000000
00001000
00000000
00010000
00000000
00000100
00000000
00001000
00000100
00000000
00000000
00000010
00000001
00000000
00000000
,
00000001
00000100
00001000
00000100
00001000
00010000
00100000
00000000
,
10000000
01000000
00010000
01000000
00010000
00001000
00000010
00000000
,
00000002
00000000
00000103
00000020
00000000
00001030
00000020
00000000
,
00000130
00001000
00010000
00001000
00100000
00010000
00010000
00000000
,
10000000
01000000
00100000
00010000
00001000
00000100
00000010
00000000
,
00000001
00000100
00000010
00001000
00010000
01000000
00100000
00000000
,
00000000
10000000
01000000
00100000
01000000
10000000
00010000
01000000
,
00002000
00000000
00013000
00000200
00000000
00001300
00001000
00000000
,
00000001
00000100
00001000
00010000
00100000
10000000
00010000
00000000
,
10000000
01000000
00010000
00001000
00000010
00000001
00001000
00000000
,
00000010
00000100
00001000
00000200
00000000
00000310
00001000
00000010
,
00010000
00001000
00100000
00010000
00100000
01000000
01000000
00000000
,
10000000
01000000
00010000
00001000
00000100
00000001
00000010
00000000
,
00000001
00000100
00001000
00010000
01000000
10000000
00100000
00000000
,
20000000
00000000
31000000
00020000
00000000
01030000
00200000
00000000
,
00310000
01000000
01000000
00001000
00010000
00000100
00000010
00000000
,
00002002
00000000
00000000
00000000
,
00000000
00000000
00000000
00000000
,
00000000
00000000
00000000
00000000
,
00000000
00000000
00000000
00003003
,
00001001
00000000
00000001
00000100
00000000
00001000
00000100
00000010
,
00001000
00000000
00000000
00000000
00000100
00000000
00010000
00001000
00010000
00000000
00000010
00000000
00000000
00000000
00010000
00000000
,
00011000
00000000
00000000
00000000
00001000
00000000
01000000
00000000
00000000
00000000
00100000
00000000
10000000
00010000
10000000
00000000
,
01000000
00000000
00000000
00000000
00100000
00000000
00010000
10000000
00010000
00000000
01000000
00000000
00000000
00000000
00001000
00000000
,
00011000
00000000
00000100
00000000
00001000
00000000
00000010
00000100
,
00000000
00001000
00000100
00000100
00000001
00001000
00000100
00000010
,
00000100
00000000
00000000
00000000
00000100
00000000
00000000
00000000
00000100
00000000
00000000
00000000
00010000
00000000
00000000
00000000
00000000
00000000
00001000
00000000
00000000
00010000
00000000
00000000
,
00100000
01000000
00100000
00010000
00100000
10000000
10000000
00000000
,
01100000
00000000
10000000
00010000
10000000
01000000
00100000
00010000
,
00100000
00001000
00010000
00000010
00001000
00000010
00000100
00000001
,
00000010
00000100
00000010
00000001
00001000
00000010
00001000
00000100
,
00010000
00000000
00001000
00000000
01000000
00000000
00001000
00000000
00000000
00000000
00100000
00010000
00100000
00010000
00100000
00000000
,
02000000
00000000
03000000
00000000
10000000
00100000
10000000
01000000
,
00100000
00010000
00100000
00001000
00010000
00100000
01000000
00010000
,
00100000
00000000
00001000
00010000
00002000
00000000
00000000
00000000
00013000
00000000
00000100
00000000
00001000
00000000
00000100
00000000
,
00000010
00000001
00000010
00000000
00000100
00000000
00001000
00000000
00000010
00000000
00000100
00000000
00000010
00000000
00001000
00000000
,
00000002
00000000
00000003
00000000
00000010
00000100
00001000
00000100
,
00010000
00001000
01000000
00010000
00100000
01000000
00010000
00001000
,
00100000
00000000
00100000
00000000
00020000
00000000
00000000
00000000
01030000
00000000
00010000
10000000
00010000
00000000
00100000
00000000
,
00002000
00000000
00000000
00003000
,
00011000
00000000
00000000
00000000
00010000
00000000
00000100
00000000
00001000
00000000
00000100
00000000
00000010
00000001
00000010
00000000
,
00000100
00000000
00001000
00000000
00000010
00000000
00001000
00000000
00000100
00000000
00010000
00001000
00010000
00000000
00001000
00000000
,
01000000
00000000
00100000
10000000
01000000
10000000
00010000
00100000
,
00001000
00010000
00001000
00000000
01000000
00000000
00010000
00000000
00100000
01000000
00000000
01000000
00100000
00000000
00010000
00000000
,
10010000
00000000
10000000
01000000
00010000
00001000
00000010
00000000
,
00001001
00000000
00000001
00000100
00001000
00010000
00100000
00000000
,
10000000
01000000
00010000
01000000
00010000
00000100
00001000
00000100
,
00000010
00000001
00000010
00000000
00000100
00001000
00000100
00000000
00010000
00001000
00010000
00000000
00000010
00001000
00000010
00000000
,
00000200
00000000
00000000
00000000
,
00000000
00000000
00000000
00000000
,
00000300
00000000
00000000
00000000
;

//--------------- dance-double - Karl with a K ----------------
#NOTEDATA:;
#STEPSTYPE:dance-double;
#DESCRIPTION:Karl with a K;
#CREDIT:Karl with a K;
#DIFFICULTY:Challenge;
#METER:14;
#RADARVALUES:0.576293,0.703901,0.041164,0.798577,0.069978,490,485,5,97,0,0,0.576293,0.703901,0.041164,0.798577,0.069978,490,485,5,97,0,0;
#NOTES:
00000000
00000000
00000000
00000000
,
00000000
00000000
00000000
00000000
,
00000000
00000000
00000000
00000000
,
00000000
00000000
00000000
00000000
,
00000000
00000000
00000000
00000000
,
20000000
30000000
00200000
00300000
,
00020000
00030000
00002000
00003000
,
00010000
00000000
00010000
00000000
00010000
00000000
00002000
00000000
00000000
00003000
00000000
00000000
,
00000020
00000030
00000002
00000003
,
00001000
00000001
00001000
00000010
00000100
00000010
00000100
00001000
,
00010000
00100000
01000000
00010000
10000000
01000000
00100000
01000000
,
10000000
00000000
00000000
00000000
10000000
00000000
00000000
00000000
10000000
00000000
00000000
00000000
02000000
00000000
00000000
00000000
00000000
00000000
03010000
00000000
00000000
00001000
00000000
00000000
,
00000020
00000000
00000130
00000100
00000020
00000000
00000031
00000000
,
00000120
00000000
00000000
00000000
00000031
00000000
00001000
00001000
,
00000010
00000010
00000010
00000010
00010000
00010000
00010000
00010000
,
00001000
00000000
00000000
00000000
00001000
00000000
00000000
00000000
00001000
00000000
00000000
00000000
00010000
00000000
00000000
00010000
00000000
00000000
00010000
00000000
00000000
00010000
00000000
00000000
,
00001000
00001000
00001000
00001000
01000000
01000000
01000000
01000000
,
00100000
00000000
00000000
00000000
00100000
00000000
00000000
00000000
00100000
00000000
00000000
00000000
00010000
00000000
00000000
00010000
00000000
00000000
00010000
00000000
00000000
00010000
00000000
00000000
,
00001000
00001000
00001000
00001000
00100000
00100000
00100000
00100000
,
01000000
00000000
00100000
00000000
01000000
00000000
00200000
00000000
00000000
00000000
00000000
00000000
00301000
00000000
00000000
00001000
00000000
00000000
00010000
00000000
00000000
00010000
00000000
00000000
,
00100000
00100000
00100000
00100000
10000000
10000000
00010000
00010000
,
02000000
00000000
00000000
00000000
,
00000000
00000000
00000000
00000000
,
03020000
00000000
00000000
00000000
,
20030000
00000000
30200000
00000000
,
01300000
00001000
00010000
00001000
,
00010100
00001000
00000100
00000010
,
00000110
00000100
00000100
00000100
00000001
00000001
00000001
00000001
,
00001000
00001000
00001000
00001000
00000010
00001000
00010000
00000000
,
00011000
00000000
00010000
01000000
00000000
10000000
00010000
00000000
,
00100000
01000000
00020000
00000000
00031000
01000000
00010000
10000000
,
00100000
00000000
00000000
00000000
00100000
00000000
00000000
00000000
00100000
00000000
00000000
00000000
10000000
00000000
00000000
00100000
00000000
00000000
01000000
00000000
00000000
00100000
00000000
00000000
,
00020000
00000000
00031000
00000020
00000000
00000130
00001000
00000001
,
00001000
00000000
00000001
00000100
00000000
00000010
00001000
00000000
,
00010000
00000000
01000000
00200000
00000000
10300000
01000000
00000000
,
00100000
00100000
00100000
00100000
00200000
00310000
00000000
00001000
,
00000010
00000010
00000010
00000010
00000020
00000130
00000020
00000130
,
00000002
00000000
00001003
00000020
00000000
00001030
00000100
00000001
,
00000100
00000100
00020000
00000000
00031000
01000000
00100000
10000000
,
00010000
00010000
00010000
00010000
00100000
00100000
01000000
01000000
,
10000000
00100000
00010000
00002000
00000000
00013000
01000000
10000000
,
00020000
00000000
01030000
20000000
00000000
31000000
00010000
00000000
,
00001000
00000000
00001000
00000020
00000000
00001030
00000001
00000100
,
00000010
00000010
00000010
00000010
00000020
00001030
00000000
00010000
,
00100000
00100000
00100000
00100000
00200000
01300000
00200000
01300000
,
00020000
00001000
00000000
00000100
00000000
00001000
00000000
00030010
,
00002000
00000001
00000000
00003100
00000020
00000100
00000000
00000031
,
00000002
00000000
00000013
00002000
00000000
00013000
00200000
00000000
,
01300000
00002000
00000000
00013000
00000100
00000000
00010000
00000000
,
00002000
00010000
00000000
01000000
00000000
00010000
00000000
00103000
,
00020000
10000000
00000000
01030000
00200000
01000000
00000000
10300000
,
01000000
00100000
00000000
00010000
00100000
00001000
00010000
00000100
,
00000010
00000010
00000010
00000200
00000000
00000310
00001000
00010000
,
02000000
00100000
00000000
00010000
00000000
00100000
00000000
13000000
,
20000000
00100000
00000000
30010000
02000000
00010000
00000000
03001000
,
00020000
00000000
00031000
00000020
00000000
00000031
00000020
00000000
,
00000130
00000100
00000010
00000100
00010000
00001000
00100000
00010000
,
02000000
00100000
00000000
10000000
00000000
00100000
00000000
03010000
,
00020000
10000000
00000000
00100000
00230000
00010000
00000000
00301000
,
00010000
00000000
00010000
00000200
00000000
00000310
00000200
00000000
,
00001300
00000010
00000000
00000010
00000010
00000200
00000000
00000301
,
00002000
00000000
00000000
00000000
,
00000000
00000000
00000000
00000000
,
00000000
00000000
00000000
00000000
,
00000000
00000000
00000000
00000000
,
00013000
00000000
00100000
00001000
00000000
00100000
00010000
10000000
,
01000000
00000000
00100000
00000000
00001000
00002000
00000000
00013000
,
00010000
00000000
00000010
00000100
00000000
00000100
00000001
00000000
,
00000002
00000000
00000023
00000000
,
00000130
00000000
00001000
00000000
00000001
00000000
00000100
00000010
,
00000000
00001000
00000000
00000100
00010000
00001000
02000000
00000000
,
03010000
00000000
00000000
00000000
00010000
00000000
10000000
00000000
00010000
00000000
00000000
00000000
10000000
00000000
00000000
00000000
00000000
00000000
01000000
00000000
00000000
00100000
00000000
00000000
,
00010000
00010000
00010000
02000000
00000000
13000000
02000000
00000000
,
03100000
00000000
01000000
00010000
00100000
00100000
00001000
00100000
,
00100000
00010000
00100000
00001000
00010000
00000010
00000100
00000001
,
00000010
00000010
00000100
00000100
00001000
00001000
00000001
00000001
,
00001000
00001000
00001000
00000200
00000000
00000301
00002000
00000000
,
00003020
00000000
00000032
00000000
00000103
00001000
00020000
00000000
,
00130000
01000000
00020000
00000000
10030000
01000000
00020000
00000000
,
00031000
00000000
00100000
00010000
00000000
00000000
02000000
00000000
00000000
00000000
00100000
00000000
03100000
00000000
00000000
00000000
,
10000000
10000000
10000000
01000000
00010000
00001000
00000020
00000000
,
00000032
00000000
00000203
00000000
00000310
00010000
00002000
00000000
,
00103000
01000000
20000000
00000000
30010000
01000000
20000000
00000000
,
30010000
00010000
00020000
00000000
00130000
10000000
10000000
10000000
,
01000000
00100000
00001000
00020000
00000000
00000000
02030000
00000000
,
03200000
02300000
23000000
30200000
,
01300000
00010000
20000000
00000000
30100000
00010000
00002000
00000000
,
00013000
00010000
00010000
00000200
00000000
00000010
00000310
00000000
,
00000001
00000001
00000001
00000200
00000000
00001300
00020000
00000000
,
00230000
20300000
32000000
03020000
,
00031000
00100000
00020000
00000000
10030000
00100000
00020000
00000000
,
00031000
00001000
00001000
00000000
00000010
00000010
00000010
00000010
,
00000100
00000000
00000100
00000000
00000100
00000000
00000100
00000000
00010000
00001000
00010000
00001000
00010000
00000000
00000000
00000000
,
00022000
00000000
00000000
00000000
,
00000000
00000000
00000000
00000000
,
00033000
00000000
00000000
00000000
;
