#VERSION:0.83;
#TITLE:TROOPERS;
#SUBTITLE:;
#ARTIST:Des-TRACT;
#TITLETRANSLIT:;
#SUBTITLETRANSLIT:;
#ARTISTTRANSLIT:;
#GENRE:ULTIMATE CORE;
#CREDIT:;
#MUSIC:TROOPERS.ogg;
#BANNER:TROOPERS.png;
#BACKGROUND:TROOPERS-bg.png;
#CDTITLE:./CDTitles/bm IIDX 15 DJ TROOPERS.png;
#SAMPLESTART:32.867;
#SAMPLELENGTH:15.000;
#SELECTABLE:YES;
#OFFSET:1.017;
#BPMS:0.000=177.000;
#STOPS:;
#TIMESIGNATURES:0.000=4=4;
#BGCHANGES:0.000=TROOPERS.mp4=1.000=0=0=0=StretchNoLoop====,
99999.000=-nosongbg-=1.000=0=0=0=StretchNoLoop====
;
#FGCHANGES:;

//--------------- dance-single - forcednature ----------------
#NOTEDATA:;
#STEPSTYPE:dance-single;
#DESCRIPTION:forcednature;
#DIFFICULTY:Beginner;
#METER:4;
#RADARVALUES:0,0,0,0,0;
#CREDIT:forcednature;
#NOTES:
0000
0000
0000
0000
,
0000
0000
0000
0000
,
0000
0000
0000
0000
,
0000
0000
0000
0000
,
0000
0000
0000
0000
,
1000
0000
0000
0000
,
1000
0000
0000
0000
,
0001
0000
0001
0000
,
0001
0000
0000
0000
,
0100
0000
0100
0000
,
0100
0000
0000
0000
,
0010
0000
0010
0000
,
0010
0000
0000
0000
,
1000
0000
1000
0000
,
1000
0000
0000
0000
,
0001
0000
0001
0000
,
0010
0000
0010
0000
,
0100
0000
0000
0000
,
1000
0000
0000
0000
,
0001
0000
0000
0000
,
0100
0000
0000
0000
,
0010
0000
0000
0000
,
1000
0000
0000
0000
,
0001
0000
0000
0000
,
0010
0000
0010
0000
,
0100
0000
1000
0000
,
0000
0000
1000
0000
,
0000
0000
1000
0000
,
0001
0000
0000
0000
,
0100
0000
0001
0000
,
0000
0000
0001
0000
,
0000
0000
0001
0000
,
1000
0000
0000
0000
,
1001
0000
0000
0000
,
0100
0000
0010
0000
,
1001
0000
0000
0000
,
0010
0000
0100
0000
,
1001
0000
0000
0000
,
0100
0000
0010
0000
,
1000
0000
0001
0000
,
0010
0000
0000
0000
,
0001
0000
0100
0100
,
0000
0010
0010
0000
,
1000
1000
0000
0001
,
0001
0000
0010
0000
,
1001
0000
0000
0000
,
1000
0000
1000
0000
,
1000
0000
0000
0000
,
0001
0000
0001
0000
,
0001
0000
0000
0000
,
0100
0000
0100
0000
,
0100
0000
0000
0000
,
0010
0000
0010
0000
,
1000
0000
0000
0000
,
0001
0000
0000
0000
,
1000
0000
0001
0000
,
1000
0000
0000
0000
,
0001
0000
0000
0000
,
0010
0000
0000
0000
,
0001
0000
0010
0000
,
0001
0000
0001
0000
,
0100
0000
0001
0000
,
0000
0000
0001
0000
,
0010
0000
0100
0000
,
0000
0000
0100
0000
,
1000
0000
0010
0000
,
0000
0000
0010
0000
,
0100
0000
0001
0000
,
1000
0000
1000
0000
,
0000
0100
0000
0100
,
0010
0000
0010
0000
,
0000
0001
0000
0001
,
1000
0000
1000
0000
,
0000
0010
0000
0010
,
0100
0000
0100
0000
,
0000
0001
0000
0001
,
1000
0000
1000
0000
,
0100
0000
1000
0000
,
0100
0000
1000
0000
,
0001
0000
0010
0000
,
0001
0000
0010
0000
,
0001
0000
0100
0000
,
0001
0000
0100
0000
,
0010
0000
1000
0000
,
0010
0000
1000
0000
,
1001
0000
0000
0000
;

//--------------- dance-single - forcednature ----------------
#NOTEDATA:;
#STEPSTYPE:dance-single;
#DESCRIPTION:forcednature;
#DIFFICULTY:Easy;
#METER:7;
#RADARVALUES:0,0,0,0,0;
#CREDIT:forcednature;
#NOTES:
0000
0000
0000
0000
,
0000
0000
0000
0000
,
0000
0000
0000
0000
,
0000
0000
0000
0000
,
0000
0000
0000
0000
,
1000
1000
0001
0001
,
1000
0001
1000
0000
,
0010
0010
0100
0100
,
0110
0000
1001
0000
,
1000
0100
0010
0100
,
1000
0100
0010
0000
,
0001
0100
0010
0100
,
0001
0100
0010
0000
,
1000
0001
0010
0100
,
1000
0001
0010
0000
,
0001
1000
0010
0100
,
0001
0000
1000
0000
,
0100
0010
0100
0000
,
0010
0100
0010
0000
,
0001
1000
0001
0000
,
1000
0001
1000
0000
,
0010
0100
0010
0000
,
0100
0010
0100
0000
,
0001
1000
0001
0000
,
1001
0000
0110
0000
,
1000
0100
1001
0000
,
0001
0100
1001
0000
,
1000
0010
0100
0001
,
0100
0010
1000
0000
,
0001
0100
1001
0000
,
1000
0100
1001
0000
,
0001
0010
0100
1000
,
0100
0010
0001
0000
,
0100
0001
0100
0001
,
0100
0001
1000
0100
,
0010
0001
0010
0001
,
0010
0001
1000
0010
,
0100
0001
0100
0001
,
0100
0001
1000
0100
,
0010
0001
0100
0010
,
1000
0002
0000
0003
,
0010
0100
1001
0010
,
0100
1001
0010
0100
,
1001
0010
0100
1001
,
0010
0100
1001
0000
,
0001
0000
0001
0000
,
0001
0000
0001
0001
,
1000
0000
1000
0000
,
1000
0000
1000
1000
,
0010
0000
0010
0010
,
0010
0000
0010
0010
,
0100
0000
0100
0000
,
0110
0000
1001
0000
,
1000
0100
0010
0100
,
1000
0100
0010
0001
,
0100
0001
0100
0010
,
0100
0001
1000
0010
,
1000
0001
0010
0001
,
1000
0001
0010
0001
,
0100
0010
1000
0001
,
2002
0000
3003
0100
,
0110
0001
1000
0100
,
0010
0001
1000
0110
,
1001
1000
0010
0100
,
0001
1000
0001
0110
,
1001
0001
0010
0100
,
1000
0001
0100
0010
,
1000
0100
0010
0001
,
1001
0220
0000
0330
,
0001
0001
0100
0100
,
0001
0001
0100
0001
,
1000
1000
0100
0100
,
1000
1000
0100
1000
,
0001
0001
0010
0010
,
0001
0001
0010
0001
,
1000
1000
0010
0010
,
1000
1000
0010
1000
,
0001
0000
0001
0010
,
0100
1000
0001
0000
,
1000
0010
0100
0000
,
0001
1000
0100
0000
,
0010
0001
0010
0100
,
0010
0100
1000
0100
,
1000
0001
1000
0010
,
0100
0001
1000
0001
,
2002
0000
0000
0000
,
3003
0000
0000
0000
;

//--------------- dance-single - forcednature ----------------
#NOTEDATA:;
#STEPSTYPE:dance-single;
#DESCRIPTION:forcednature;
#DIFFICULTY:Medium;
#METER:12;
#RADARVALUES:0,0,0,0,0;
#CREDIT:forcednature;
#NOTES:
0000
0000
0000
0000
,
0000
0000
0000
0000
,
0000
0000
0000
0000
,
0000
0000
0000
0000
,
0000
0000
0000
0000
,
1000
1000
0001
0001
,
1000
0001
1000
0110
,
0001
0001
1000
1000
,
0010
0100
0000
0000
0100
0010
0000
0000
,
1000
0100
1000
0000
0100
0010
0100
0000
,
0010
0001
0010
0000
0100
0000
1001
0000
,
0001
0100
0001
0000
0100
0010
0100
0000
,
0010
1000
0010
0000
0100
0000
1001
0000
,
1000
0010
1000
0000
0001
0010
0001
0000
,
1000
0010
1000
0000
0100
0000
1001
0000
,
0001
0010
0001
0000
1000
0010
1000
0000
,
0100
0010
0000
0000
0010
0100
0000
0000
,
1000
0010
0100
0001
,
0011
0110
1100
1001
,
0001
0100
0010
1000
,
0100
0010
0000
2002
0000
0000
3003
0000
,
0001
0100
0010
1000
,
1010
0110
0202
0303
,
1000
0001
0010
0100
,
0010
0100
0000
0000
0100
0010
0000
0000
,
0001
0100
0001
1000
0010
0000
1001
0000
,
1000
0100
1000
0001
0010
0000
1001
0000
,
1000
0010
0100
0001
1000
0100
0010
0001
,
0200
0001
0010
0301
,
0100
0010
1000
0001
0010
0000
0100
0010
,
0000
0010
0001
1000
0010
0000
0100
0010
,
0000
1000
0001
0000
0010
0100
1000
0001
,
0100
0010
0000
0000
0010
0100
0010
0000
,
1001
0000
1000
0010
0100
0000
0100
0010
,
1000
0000
1000
0100
0010
0000
0110
0000
,
1001
0000
0001
0010
0100
0000
0100
0010
,
0001
0000
0001
0100
0010
0000
0110
0000
,
1001
0000
1000
0100
0010
0000
0100
0010
,
0001
0000
0010
0001
1000
0000
0010
0000
,
0101
1001
1100
1001
,
0100
0010
0000
0000
0010
0100
0000
0000
,
0001
0011
1010
1000
,
1100
0101
0001
0011
,
1010
1000
1100
0101
,
0010
0110
1001
0000
,
2001
0000
3100
0010
0001
0000
0100
0010
,
0001
0000
0100
0010
0001
0000
0100
0000
,
1002
0000
0103
0010
1000
0000
0100
0010
,
1000
0000
0100
0010
1000
0000
0100
0000
,
2001
0000
3001
0010
0100
0000
0110
0000
,
1002
0000
1003
0010
0100
0000
0010
0000
,
0120
1030
0210
0301
,
0010
0100
0000
0000
0100
0010
0000
0000
,
0001
0100
0001
0000
0100
0001
0100
0000
,
0010
1000
0001
0000
1000
0100
0010
0000
,
0100
1000
0100
0000
1000
0100
1000
0000
,
0100
0010
0001
0000
1000
0001
0100
0000
,
0010
0100
0010
0000
0100
0010
0100
0000
,
0001
1000
0010
0000
1000
0001
0010
0000
,
0110
0100
0110
1001
,
1000
0001
1000
0001
0100
0010
0000
0000
,
0110
0000
0100
0001
0010
0000
0100
1000
,
0010
0000
0100
0001
1000
0000
0110
0000
,
1001
0000
1000
0010
0100
0000
0001
0010
,
0100
0000
1000
0001
0100
0000
0110
0000
,
1001
0000
0001
1000
0100
0000
0010
0001
,
1000
0000
0010
0100
0001
0000
0010
0000
,
0011
0110
1100
1001
,
1000
0001
0000
0000
0001
1000
0010
0000
,
0100
0001
0100
0010
1000
0010
0100
0001
,
0100
0010
1000
0010
0100
0000
0000
0000
,
0001
0010
0100
1000
0100
0010
0001
0010
,
0100
1000
0100
0010
0001
0000
0001
0000
,
1000
0010
0100
0001
0100
0010
1000
0010
,
0100
0001
0100
0010
1000
0000
1000
0000
,
0100
0010
0001
0010
0100
1000
0100
0010
,
0001
0010
0100
1000
0001
0000
0001
0000
,
0100
0100
0010
0000
0100
0100
0010
0000
,
1000
0001
0010
0100
0010
0001
1000
0000
,
0001
1000
0010
0100
0010
1000
0001
0000
,
0010
0010
0100
0000
0010
0010
0001
0000
,
0100
0010
0100
0001
0100
0010
0100
0000
,
0001
1000
0010
1000
0001
1000
0010
0000
,
1100
0101
1010
0011
,
1001
0100
1001
0010
,
0220
0000
0000
0000
,
0330
0000
0000
0000
;

//--------------- dance-single - forcednature ----------------
#NOTEDATA:;
#STEPSTYPE:dance-single;
#DESCRIPTION:forcednature;
#DIFFICULTY:Hard;
#METER:16;
#RADARVALUES:0,0,0,0,0;
#CREDIT:forcednature;
#NOTES:
0000
0000
0000
0000
,
0000
0000
0000
0000
,
0000
0000
0000
0000
,
0000
0000
0000
0000
,
0000
0000
0000
0000
,
1001
0100
0010
1001
,
1001
0100
0010
1001
,
0110
1000
0110
0001
,
1000
1100
0000
0000
0001
0101
0000
0000
,
1000
0100
0010
0100
0001
0100
0010
0100
,
1000
0000
0100
0000
0010
0000
0100
0000
0001
0000
0100
0010
0002
0000
0003
0000
,
0001
0100
0010
0100
1000
0100
0010
0100
,
0001
0000
0100
0000
0010
0000
0100
0000
1000
0000
0100
0010
1000
0000
0000
0000
,
0100
0001
0100
1000
0100
0001
0100
1000
,
0100
0000
0001
0000
0100
0000
1000
0000
0100
0000
0000
0010
0002
0000
0003
0000
,
0100
1000
0100
0001
0100
1000
0100
0001
,
1000
1010
0100
0000
0001
0011
0100
0000
,
1000
0100
1000
0010
0100
0001
0010
0001
,
1000
0010
1000
0100
0010
0001
0100
0001
,
0010
0100
1000
0010
0100
0010
1000
0001
,
0010
0000
0001
0000
0100
0000
0001
0000
1000
0000
0100
0000
1000
0000
0010
1000
,
0010
0100
0001
0010
0001
1000
0010
1000
,
0100
0010
0100
1000
0010
0100
0001
0010
,
0100
1000
0001
0100
0010
1000
0001
0010
,
0001
0101
0000
0000
1000
1100
0000
0000
,
0001
0000
0010
0000
0100
1000
0001
0000
0010
0000
0100
0000
1001
0000
0000
0000
,
1000
0000
0010
0000
0100
0001
1000
0000
0010
0000
0100
0000
1001
0000
0000
0000
,
0001
0000
1000
0000
0100
0010
0100
0000
1000
0000
0001
0000
0100
0010
0100
0000
,
0001
0000
1000
0000
0010
0100
0010
0000
0110
0000
0000
0000
1001
0000
0000
0000
,
1000
0000
0001
0000
0100
0010
1000
0000
0100
0000
0010
0000
0011
0000
1001
0000
,
0000
0000
1000
0000
0100
0010
0001
0000
0100
0000
0010
0000
1010
0000
1001
0000
,
0000
0000
0001
0100
0001
0000
1000
0000
0001
0000
0010
0000
0100
0010
0100
0000
,
0010
0001
0010
0001
1000
0001
1000
0000
0010
0000
0110
0000
0100
0000
0000
0000
,
1002
0000
0000
0000
1003
0000
0010
0000
0100
0001
0010
0000
0100
0000
1000
0000
,
0010
0100
0001
0000
1000
0000
0100
0000
0010
0001
0100
0000
0110
0000
0000
0000
,
2001
0000
0000
0000
3001
0000
0010
0000
0100
1000
0010
0000
0100
0000
0001
0000
,
0010
0100
1000
0000
0001
0000
0100
0000
0010
1000
0100
0000
0110
0000
0000
0000
,
1002
0000
0000
0000
1003
0000
0010
0000
0100
0001
1000
0000
0001
0000
0010
0000
,
0100
1000
0001
0000
0100
0000
0010
0000
1000
0000
0100
0000
0010
0001
1000
0000
,
0010
1000
0010
0000
1000
0100
1000
0000
0001
0100
0001
0000
0010
0001
0010
0000
,
0100
0110
0010
0000
0110
0100
1001
0000
,
1000
0010
0101
0001
0010
1100
0001
0100
,
1010
1000
0100
0011
0100
0001
1100
0010
,
1000
0011
0100
0001
1010
0100
1000
0011
,
0100
0010
1001
0010
0100
0110
0110
0110
,
1002
0100
0010
0100
,
0010
0000
0000
0100
0000
0000
0013
0001
1000
0100
0000
0000
,
2001
0100
0010
0100
,
0010
0000
0000
0000
0100
0000
0000
0000
3010
0000
1000
0001
0100
0000
0010
0000
,
1020
0001
1000
0001
,
1000
0000
0000
0001
0000
0000
1030
0010
0100
0001
0000
0000
,
0021
1000
0001
1000
,
0031
0011
0010
0000
1100
1100
0002
0000
,
1003
0000
0100
0000
0010
0100
0010
0000
0001
0000
0100
0000
0010
0100
0010
0000
,
1000
0000
0100
0000
0010
0001
0010
0000
0001
0000
0100
0000
0010
1000
0010
0000
,
1000
0000
0001
0000
0010
0100
1000
0000
0001
0000
1000
0000
0010
0100
0001
0000
,
1000
0000
0001
0000
0100
0010
1000
0000
1001
0000
0000
0000
0110
0000
0000
0000
,
1000
0000
0100
0000
0010
0001
1000
0000
0001
0000
0100
0000
0010
1000
0001
0000
,
0010
0000
0100
0000
1000
0001
0100
0000
0010
0000
0100
0000
0001
1000
0100
0000
,
0110
0001
1100
0000
0110
1000
0101
0000
,
1000
0001
1000
0001
0100
0001
0100
0001
1000
0000
0110
0000
0001
0000
0000
0000
,
2001
0000
0000
0000
3010
0000
0100
0000
0001
0010
0100
0000
0010
0000
0001
0000
,
0100
0010
0001
0000
0010
0000
1000
0000
0001
0010
0100
0000
0110
0000
0000
0000
,
1002
0000
0000
0000
0013
0000
0100
0000
1000
0010
0100
0000
0010
0000
1000
0000
,
0100
0010
1000
0000
0010
0000
0001
0000
1000
0010
0100
0000
0110
0000
0000
0000
,
2001
0000
0000
0000
3100
0000
0010
0000
0001
0100
0010
0000
0100
0000
0001
0000
,
0010
0100
0001
0000
0100
0000
1000
0000
0001
0100
0010
0000
0110
0000
0000
0000
,
0010
1000
0100
0000
0010
0001
0100
0000
0010
1000
0001
0000
0010
0001
1000
0000
,
0010
0110
0100
0000
1001
1001
0010
0000
,
1000
0100
1000
0100
1000
0000
0001
0010
0001
0010
0001
0000
1000
0100
1000
0100
,
1000
0000
0001
0010
0001
0010
0001
0000
1000
0100
1000
0100
1000
0000
0000
0000
,
0001
0100
0001
0100
0001
0000
1000
0010
1000
0010
1000
0000
0001
0100
0001
0100
,
0001
0000
1000
0010
1000
0010
1000
0000
0001
0100
0001
0100
0001
0000
1000
0000
,
0001
0010
0100
0010
0001
0000
1000
0100
0010
0100
1000
0000
0001
0010
0100
0010
,
0001
0000
1000
0100
0010
0100
1000
0000
0001
0010
0100
0010
0001
0000
0000
0000
,
1000
0010
0100
0010
1000
0000
0001
0100
0010
0100
0001
0000
1000
0010
0100
0010
,
1000
0000
0001
0100
0010
0100
0001
0000
1000
0001
1000
0001
0020
0000
0000
0000
,
0130
0000
0010
0000
0100
1000
0001
0000
0100
0000
0010
0000
0100
0001
1000
0000
,
0010
1000
0010
1000
0001
0000
0010
0000
0100
0000
1000
0001
0100
0000
0010
0000
,
1000
0001
1000
0001
0010
0000
0100
0000
0010
0000
0001
1000
0010
0000
0100
0000
,
0001
0000
0010
0100
1000
0000
0001
0000
0100
0000
0010
0000
1000
0001
0010
0000
,
0100
1000
0100
1000
0001
0000
0100
0000
0010
1000
0010
1000
0001
0000
0010
0000
,
0100
0010
0100
0010
0001
0000
1000
0000
0010
0100
0010
0100
0001
0000
1000
0000
,
0010
1000
0001
0000
0010
0001
1000
0000
0100
1000
0001
0000
0100
0001
1000
0000
,
0011
0000
1010
0000
0100
0000
0000
0000
1001
0000
0110
0000
1000
0100
0010
0001
,
0200
0000
0000
0000
,
0300
0000
0000
0000
;

//--------------- dance-double - forcednature ----------------
#NOTEDATA:;
#STEPSTYPE:dance-double;
#DESCRIPTION:forcednature;
#DIFFICULTY:Easy;
#METER:7;
#RADARVALUES:0,0,0,0,0;
#CREDIT:forcednature;
#NOTES:
00000000
00000000
00000000
00000000
,
00000000
00000000
00000000
00000000
,
00000000
00000000
00000000
00000000
,
00000000
00000000
00000000
00000000
,
00000000
00000000
00000000
00000000
,
00001000
00001000
01000000
01000000
,
00001000
01000000
00001000
00000000
,
00010000
00010000
00000100
00000100
,
00010000
00000000
00011000
00000000
,
00001000
00100000
00010000
00100000
,
01000000
00100000
00001000
00000000
,
00010000
00000010
00001000
00000010
,
00000100
00000010
00010000
00000000
,
00001000
01000000
00010000
01000000
,
00100000
01000000
00001000
00000000
,
00010000
00000100
00001000
00000100
,
00000010
00000000
00000110
00000000
,
00000100
00001000
00000100
00000000
,
00010000
00001000
00010000
00000000
,
00001000
01000000
00001000
00000000
,
01000000
00010000
01000000
00000000
,
00100000
01000000
00100000
00000000
,
10000000
00100000
10000000
00000000
,
01000000
10000000
01000000
00000000
,
01100000
00000000
10010000
00000000
,
10000000
01000000
00010000
00000000
,
00001000
00010000
01000000
00000000
,
00010000
00001000
00000010
00000001
,
00000100
00000001
00000010
00000000
,
00000001
00000100
00001000
00000000
,
00010000
00001000
00000100
00000000
,
00001000
00010000
00100000
01000000
,
00010000
00010000
00010000
00000000
,
00100000
01000000
00100000
01000000
,
00100000
00001000
00010000
00000010
,
00000100
00000010
00000100
00000010
,
00010000
00001000
00100000
01000000
,
00100000
01000000
00100000
00001000
,
00010000
00000010
00001000
00000001
,
00000010
00001000
00010000
01000000
,
00100000
20020000
00000000
30030000
,
10000000
01000000
00010000
00001000
,
00000100
00000001
00000010
00001000
,
00010000
00100000
00010000
00001000
,
00010000
01000000
20000000
00000000
,
30100000
00100000
00100000
00100000
,
00100000
00100000
01100000
00000000
,
00001000
00001000
00001000
00001000
,
00001000
00001000
00011000
00000000
,
00000010
00000010
00000010
00000010
,
00000010
00000010
00000110
00000000
,
00001000
00001000
00001000
00001000
,
00001001
00000000
00000110
00000000
,
00000001
00000100
00000010
00000100
,
00001000
00010000
00001000
00100000
,
00010000
01000000
10000000
01000000
,
00010000
10000000
00100000
00000000
,
10000000
01000000
00010000
01000000
,
10000000
00010000
00100000
00010000
,
00001000
00000100
00001000
00000001
,
00002002
00000000
00003003
00000000
,
00000001
00000100
00000010
00000100
,
00001000
00010000
00100000
01100000
,
10000000
01000000
00100000
01000000
,
00010000
00001000
00000010
00000110
,
00000001
00000100
00000010
00000100
,
00001000
00010000
00100000
01000000
,
00010000
00100000
01000000
10000000
,
10010000
02200000
00000000
03300000
,
10000000
10000000
01000000
01000000
,
00010000
00010000
00001000
00000010
,
00000001
00000001
00000100
00000100
,
00001000
00001000
00010000
00100000
,
10000000
10000000
01000000
01000000
,
00010000
00010000
00001000
00000010
,
00000001
00000001
00000100
00000100
,
00001000
00001000
00010000
00100000
,
10000000
00000000
10000000
01000000
,
00100000
00001000
00010000
00000000
,
00000100
00001000
00000010
00000000
,
00010000
00001000
00100000
00000000
,
01000000
10000000
01000000
00010000
,
00001000
00100000
00010000
00100000
,
00001000
00010000
00000010
00001000
,
00000100
00000001
00000100
00001000
,
00002002
00000000
00000000
00000000
,
00003003
00000000
00000000
00000000
;

//--------------- dance-double - forcednature ----------------
#NOTEDATA:;
#STEPSTYPE:dance-double;
#DESCRIPTION:forcednature;
#DIFFICULTY:Medium;
#METER:12;
#RADARVALUES:0,0,0,0,0;
#CREDIT:forcednature;
#NOTES:
00000000
00000000
00000000
00000000
,
00000000
00000000
00000000
00000000
,
00000000
00000000
00000000
00000000
,
00000000
00000000
00000000
00000000
,
00000000
00000000
00000000
00000000
,
00001000
00001000
00010000
00010000
,
00001000
00010000
00001000
00011000
,
00010000
00000100
00010000
00001000
,
01000000
00001000
00000000
00000000
00010000
00000100
00000000
00000000
,
00001000
00000010
00010000
00000000
00001000
01000000
00010000
00000000
,
00100000
00001000
00010000
00000000
00000100
00000000
00001001
00000000
,
00001000
00000100
00010000
00000000
00001000
00100000
00010000
00000000
,
01000000
00001000
00010000
00000000
00100000
00000000
10010000
00000000
,
10000000
01000000
00010000
00000000
00001000
00010000
01000000
00000000
,
10000000
01000000
00010000
00000000
00001000
00000000
00011000
00000000
,
00010000
00001000
00000100
00000000
00000001
00000100
00001000
00000000
,
00000010
00010000
00000000
00000000
00001000
00100000
00000000
00000000
,
01000000
10000000
01000000
00010000
,
00011000
00010100
00001100
00001001
,
00000001
00000100
00001000
00010000
,
00100000
01000000
00000000
20020000
00000000
00000000
30030000
00000000
,
10000000
00100000
00010000
00100000
,
01100000
01001000
00022000
00033000
,
00001000
00010000
00000100
00010000
,
00000010
00010000
00000000
00000000
00001000
00100000
00000000
00000000
,
00000100
00001000
00000100
00000000
00000010
00000000
00011000
00000000
,
01000000
00010000
01000000
00000000
00100000
00000000
00011000
00000000
,
00000100
00001000
00000010
00010000
00001000
00100000
00010000
01000000
,
00200000
00010000
01000000
10300000
,
10000000
01000000
00010000
00001000
00010000
00000100
00001000
00000001
,
00000000
00000100
00001000
00010000
00001000
01000000
00010000
00100000
,
00000000
00001000
00010000
00000010
00000000
00010000
00001000
00000000
,
01000000
00001000
00000000
00000000
00010000
00000100
00000000
00000000
,
00000110
00000000
00000010
00000001
00000100
00000000
00000001
00000100
,
00001000
00000000
00000100
00001000
00010000
00000000
00011000
00000000
,
01100000
00000000
00100000
10000000
01000000
00000000
10000000
01000000
,
00010000
00000000
01000000
00010000
00001000
00000000
00011000
00000000
,
00000110
00000000
00000010
00000001
00000100
00000000
00000001
00000100
,
00001000
00000000
00000100
00001000
00010000
00000000
00100000
00000000
,
01100000
01001000
00010100
00000110
,
00000100
00010000
00000000
00000000
00001000
01000000
00000000
00000000
,
00100000
01100000
00011000
00000010
,
00000110
00011000
01000000
01100000
,
00011000
00000100
00000110
00011000
,
00100000
00000000
01100000
00000000
00011000
00000000
00010000
00000010
,
00002000
00000100
00000001
00000010
,
00000001
00000100
00000001
00000010
,
00023000
01000000
10000000
00100000
,
10000000
01000000
10000000
00100000
,
00032000
00000100
00000001
00000010
,
00023000
01000000
10000000
00100000
,
00032000
00000010
00023000
00100000
,
01030000
00001000
00000000
00000000
00010000
00000100
00000000
00000000
,
00000010
00000001
00000100
00000000
00000001
00000100
00001000
00000000
,
00000100
00001000
00010000
00000000
00011000
00000000
01001000
00000000
,
01000000
00010000
00100000
00000000
00010000
00100000
10000000
00000000
,
00100000
00010000
01000000
00000000
00001000
00010000
00000010
00000000
,
00010000
00001000
00000010
00000000
00000100
00001000
00000001
00000000
,
00000100
00001000
00010000
00000000
01000000
00010000
00001000
00000000
,
00011000
00101000
00011000
00010010
,
00000010
00000100
00001000
00010000
00100000
01000000
00000000
00000000
,
01100000
00000000
10000000
01000000
00010000
00000000
01000000
10000000
,
00100000
00000000
10000000
01000000
00010000
00000000
00011000
00000000
,
00000110
00000000
00000001
00000100
00001000
00000000
00000100
00000001
,
00000010
00000000
00000001
00000100
00001000
00000000
00011000
00000000
,
01100000
00000000
10000000
01000000
00010000
00000000
01000000
10000000
,
00100000
00000000
10000000
01000000
00010000
00000000
00011000
00000000
,
00010100
00011000
01001000
00011000
,
00000010
00010000
00000000
00000000
00001000
00100000
00000000
00000000
,
00001000
01000000
00010000
00100000
00001000
00010000
00000010
00001000
,
00000100
00010000
00001000
01000000
00010000
00100000
00001000
00000000
,
00010000
00000100
00001000
00000010
00010000
00001000
00100000
00010000
,
01000000
00001000
00010000
00000100
00001000
00000010
00010000
00000000
,
00001000
01000000
00010000
00100000
00001000
00010000
00000010
00001000
,
00000100
00010000
00001000
01000000
00010000
00100000
00001000
00000000
,
00010000
00000100
00001000
00000010
00010000
00001000
00100000
00010000
,
01000000
10000000
01000000
00010000
01000000
00001000
00010000
00000000
,
00000100
00011000
01000000
00011000
,
00000010
00000100
00001000
00010000
00001000
00000100
00000010
00000000
,
00000100
00001000
00010000
00100000
00010000
00001000
00000100
00000000
,
00001000
00010000
01000000
00000000
00010000
00001000
00000010
00000000
,
00001000
00010000
01000000
10000000
01000000
00010000
00001000
00000000
,
00010000
00001000
00000100
00000001
00000100
00001000
00010000
00000000
,
00010100
00010010
01001000
00101000
,
00011000
00100000
00011000
00000010
,
00002002
00000000
00000000
00000000
,
00003003
00000000
00000000
00000000
;

//--------------- dance-double - forcednature ----------------
#NOTEDATA:;
#STEPSTYPE:dance-double;
#DESCRIPTION:forcednature;
#DIFFICULTY:Hard;
#METER:16;
#RADARVALUES:0,0,0,0,0;
#CREDIT:forcednature;
#NOTES:
00000000
00000000
00000000
00000000
,
00000000
00000000
00000000
00000000
,
00000000
00000000
00000000
00000000
,
00000000
00000000
00000000
00000000
,
00000000
00000000
00000000
00000000
,
00011000
00010000
00100000
01100000
,
01100000
00100000
00010000
00001000
,
00011000
00100000
00011000
00000010
,
00010000
00000100
00000000
00000000
01000000
00001000
00000000
00000000
,
00100000
01000000
10000000
01000000
00010000
01000000
10000000
01000000
,
00010000
00000000
00001000
00000000
00000010
00000000
00000100
00000000
00001000
00000000
00000000
00000001
00002000
00000000
00003000
00000000
,
00000010
00000100
00000001
00000100
00001000
00000100
00000001
00000100
,
00001000
00000000
00010000
00000000
00100000
00000000
01000000
00000000
00010000
00000000
00000000
10000000
00020000
00000000
00030000
00000000
,
00100000
01000000
00010000
00001000
01000000
00100000
00010000
00001000
,
00100000
00000000
01000000
00000000
00010000
00000000
00001000
00000000
00000010
00000000
00000000
00000001
00002000
00000000
00003000
00000000
,
00000010
00000100
00001000
00010000
00000100
00000010
00001000
00010000
,
00000100
00001100
00000000
00000000
01000000
01010000
00000000
00000000
,
10000000
01000000
10000000
00100000
01000000
00010000
00100000
00010000
,
00001000
00000100
00001000
00000010
00000100
00000001
00000010
00000000
,
00000001
00000100
00000010
00001000
00000100
00000010
00000100
00001000
,
00010000
00000000
01000000
00000000
00010000
00000000
00100000
00000000
01000000
00000000
10000000
00000000
00100000
00000000
10000000
00010000
,
10000000
01000000
00100000
00010000
01000000
00100000
00010000
00001000
,
00100000
01000000
00010000
00001000
00000010
00000100
00001000
00000000
,
00000001
00000100
00001000
00000100
00000001
00000010
00001000
00010000
,
00000100
00001100
00000000
00000000
01000000
01010000
00000000
00000000
,
10000000
01000000
00010000
00001000
00000010
00000100
00000110
00000000
,
00000001
00000100
00001000
00010000
00100000
01000000
01100000
00000000
,
10000000
00000000
00100000
00000000
01000000
00010000
01000000
00000000
00001000
00000000
00010000
00000000
00000010
00001000
00000010
00000000
,
00000100
00000000
00000001
00000000
00000010
00000100
00000010
00000000
00000110
00000000
00000000
00000000
00001001
00000000
00000000
00000000
,
00001000
00000100
00000001
00000100
00001000
00000010
00001010
00010010
,
00000000
01000000
10000000
01000000
00010000
00100000
00110000
00101000
,
00000000
00001000
00010000
00000010
00010000
00001000
00000010
00000001
,
00000100
00000001
00000100
00000001
00001000
00000010
00001000
00000000
00000100
00000000
00010000
00000000
00001000
00000000
00000000
00000000
,
01000000
00000000
00010000
00000000
00100000
00001000
00010000
00000000
00000100
00000000
00001000
00000000
00000010
00010000
00001000
00000000
,
01000000
00000000
00010000
00000000
00100000
00001000
00010000
00000000
00000100
00000000
00000000
00000000
00001001
00000000
00000000
00000000
,
00000010
00000000
00001000
00000000
00000100
00010000
00001000
00000000
00100000
00000000
00010000
00000000
01000000
00001000
00010000
00000000
,
00000010
00000000
00001000
00000000
00000100
00010000
00001000
00000000
00100000
00000000
00000000
00000000
10010000
00000000
00000000
00000000
,
00010000
00000000
01000000
00000000
00001000
00010000
00000010
00000000
00001000
00000000
00000100
00000000
00010000
00001000
00100000
00000000
,
00010000
00000000
01000000
00000000
00001000
00010000
00000010
00000000
00001000
00000000
00000000
00000000
00000110
00000000
00000000
00000000
,
00000001
00000100
00001000
00010000
01000000
10000000
00100000
00000000
,
01000000
01001000
00000000
00000000
00000100
00010100
00000000
00000000
,
00010000
00100000
00010000
00001000
00000010
00001000
00010000
01000000
,
00010000
00001000
00000100
00001000
00010000
00100000
00010000
00001000
,
00000010
00001000
00010000
01000000
00010000
00001000
00000100
00001000
,
00010000
00100000
00010000
00001000
00000010
00000001
00000001
00000001
,
00000100
00001000
01000000
00001000
,
00000100
00000000
00000000
00000000
00000000
00000000
00001000
00000000
00000000
00000000
00000000
00000000
01000000
00000000
00010000
00000000
10000000
00000000
00010000
00000000
00000000
00100000
00000000
00000000
,
01000000
00010000
00000100
00010000
,
01000000
00010000
00000100
00001001
,
00000101
00000000
00000100
00001000
00010000
00000000
00011000
00000000
,
00011000
00000000
00000000
00000000
00000000
00000000
00001000
00000000
00000000
00010000
00000000
00000000
00001000
00000000
01000000
00000000
00010000
00000000
01000000
00000000
00000000
00000000
00000000
00000000
,
01100000
00000000
00100000
00010000
00001000
00000000
00000010
00001000
,
00010000
00010100
00000000
00000000
00001000
01001000
00000000
00000000
,
01000000
00000000
00010000
00000000
00100000
01000000
00100000
00000000
00001000
00000000
00010000
00000000
00000010
00001000
00000010
00000000
,
00000100
00000000
00000001
00000000
00000010
00000100
00000010
00000000
00000100
00000000
00010000
00000000
00011000
00000000
00000000
00000000
,
00000100
00000000
00001000
00000000
00000010
00000100
00000010
00000000
00010000
00000000
00001000
00000000
00100000
00010000
00100000
00000000
,
01000000
00000000
10000000
00000000
00100000
01000000
00100000
00000000
01000000
00000000
00001000
00000000
00011000
00000000
00000000
00000000
,
01000000
00000000
00010000
00000000
00100000
00001000
00100000
00000000
00010000
00000000
00001000
00000000
00000100
00010000
00000100
00000000
,
00001000
00000000
00000010
00000000
00000100
00000001
00000100
00000000
00001000
00000000
00010000
00000000
00011000
00000000
00000000
00000000
,
01000000
00010000
01000000
00000000
00001000
00010000
00001000
00000000
00100000
00010000
00100000
00000000
00001000
00010000
00001000
00000000
,
00010000
00000100
00001000
00000100
00000010
00000100
00001000
00000100
00010000
00000000
00011000
00000000
00000000
00000000
00000000
00000000
,
01000000
00000000
00010000
00000000
00100000
00001000
00010000
00000000
00000100
00000000
00001000
00000000
00000010
00010000
00001000
00000000
,
01000000
00000000
00010000
00000000
00100000
00001000
00010000
00000000
00000100
00000000
00000000
00000000
00001001
00000000
00000000
00000000
,
00000010
00000000
00001000
00000000
00000100
00010000
00001000
00000000
00100000
00000000
00010000
00000000
01000000
00001000
00010000
00000000
,
00000010
00000000
00001000
00000000
00000100
00010000
00001000
00000000
00100000
00000000
00000000
00000000
10010000
00000000
00000000
00000000
,
00010000
00000000
01000000
00000000
00001000
00010000
00000010
00000000
00001000
00000000
00000100
00000000
00010000
00001000
00100000
00000000
,
00010000
00000000
01000000
00000000
00001000
00010000
00000010
00000000
00001000
00000000
00000000
00000000
00000110
00000000
00000000
00000000
,
00000001
00000100
00001000
00010000
01000000
10000000
00100000
00000000
,
01000000
01001000
00000000
00000000
00000100
00010100
00020000
00000000
,
00031000
01000000
00001000
01000000
00001000
00000000
00010000
00000010
00010000
00000010
00010000
00000000
00001000
01000000
00001000
01000000
,
00001000
00000000
00010000
00000010
00010000
00000010
00010000
00000000
00001000
01000000
00001000
01000000
00001000
00000000
00000000
00000000
,
00010000
00000100
00010000
00000100
00010000
00000000
00001000
00100000
00001000
00100000
00001000
00000000
00010000
00000100
00010000
00000100
,
00010000
00000000
00001000
00100000
00001000
00100000
00001000
00000000
00010000
00000100
00010000
00000100
00010000
00000000
00001000
00000000
,
01000000
00010000
01000000
00001000
00010000
00000000
00000010
00001000
00000010
00010000
00001000
00000000
01000000
00010000
01000000
00001000
,
00010000
00000000
00000010
00001000
00000010
00010000
00001000
00000000
01000000
00010000
01000000
00001000
00010000
00000000
00000000
00000000
,
00000100
00001000
00000100
00010000
00001000
00000000
00100000
00010000
00100000
00001000
00010000
00000000
00000100
00001000
00000100
00010000
,
00001000
00000000
00100000
00010000
00100000
00001000
00010000
00000000
00001000
00010000
00001000
00010000
00000020
00000000
00000000
00000000
,
00000130
00001000
00000100
00000001
00000100
00001000
00010000
00100000
,
01000000
00100000
01000000
00100000
01000000
00000000
00010000
00000000
00100000
00000000
01000000
00000000
00010000
00000000
00001000
00000000
,
00010000
00001000
00010000
00001000
00010000
00000000
00000100
00000000
00001000
00000000
00000010
00000000
00000100
00000000
00001000
00000000
,
00000100
00000000
00000001
00000000
00000010
00000001
00000010
00000000
00000100
00000000
00010000
00000000
00001000
00010000
00001000
00000000
,
01000000
00010000
01000000
00010000
01000000
00000000
00001000
00000000
00010000
00000100
00010000
00000100
00010000
00000000
00001000
00000000
,
00000010
00000100
00000010
00000100
00000010
00000000
00000001
00000000
00000100
00000010
00000100
00000010
00000100
00000000
00001000
00000000
,
00010000
00001000
00010000
00000000
00001000
00100000
00001000
00000000
00100000
01000000
00100000
00000000
01000000
10000000
01000000
00000000
,
00010000
00000000
00001000
00000000
00000010
00000000
00000000
00000000
00001000
00000000
00010000
00000000
00100000
01000000
00100000
01000000
,
00020000
00000000
00000000
00000000
,
00030000
00000000
00000000
00000000
;
